osu file format v8

[General]
AudioFilename: Hoshikuzu no Kizuna.mp3
AudioLeadIn: 0
PreviewTime: 78598
Countdown: 0
SampleSet: Soft
StackLeniency: 0.6
Mode: 0
LetterboxInBreaks: 1

[Editor]
DistanceSpacing: 0.8
BeatDivisor: 4
GridSize: 8

[Metadata]
Title:Hoshikuzu no Kizuna
Artist:Lia
Creator:tsunamayo
Version:Easy
Source:Hoshiuta
Tags:veil

[Difficulty]
HPDrainRate:2
CircleSize:3
OverallDifficulty:2
ApproachRate:2
SliderMultiplier:1
SliderTickRate:1

[Events]
//Background and Video events
0,0,"hoshiuta.jpg"
//Break Periods
2,26688,27114
2,65231,71617
2,99602,106187
//Storyboard Layer 0 (Background)
//Storyboard Layer 1 (Fail)
//Storyboard Layer 2 (Pass)
//Storyboard Layer 3 (Foreground)
//Storyboard Sound Samples
//Background Colour Transformations
3,100,255,255,255

[TimingPoints]
1257,397.350993377483,4,2,1,91,1,0
15562,-100,4,2,1,91,0,1
15761,-100,4,2,1,91,0,0
28277,-100,4,2,1,70,0,0
77449,-100,4,2,1,0,0,0
79137,-100,4,2,1,91,0,1
79336,-100,4,2,1,91,0,0
107747,-100,4,2,1,91,0,1
107846,-100,4,2,1,91,0,0
117283,-100,4,2,1,64,0,0

[Colours]
Combo1 : 33,143,124
Combo2 : 245,244,255
Combo3 : 89,185,255
Combo4 : 249,224,128

[HitObjects]
384,208,15561,2,0,B|360:328|224:328,1,200,4|0
112,240,17151,2,0,B|80:120|176:64,1,200,0|2
328,80,18740,1,0
472,144,19535,1,0
328,208,20329,1,0
472,272,21124,1,2
312,304,21919,6,0,B|216:360|104:296,1,200,0|0
56,160,23508,2,0,B|88:40|216:48,1,200,0|2
360,72,25098,2,0,B|456:144|424:264,1,200
427,247,26488,1,0
160,112,28674,5,0
304,48,29468,1,0
416,160,30263,2,0,B|360:200|320:168|288:112|224:168,1,200,0|2
109,268,31853,2,0,B|136:208|196:196|252:271|173:334,3,200,0|0|0|2
112,176,35031,5,0
232,72,35826,1,0
272,224,36621,2,0,B|304:352|440:312,1,200,0|2
488,168,38210,2,0,B|456:32|336:72,1,200
232,176,39800,1,0
264,288,40396,1,0
264,288,40793,6,0,B|320:208|256:128,1,150
288,112,41588,2,0,B|315:29|424:48,1,150,0|2
480,192,42978,1,0
384,320,43773,1,2
384,320,43972,2,0,B|284:276|175:326,1,200,0|0
83,262,45362,2,0,B|42:182|87:110,1,150,0|0
176,40,46555,2,0,B|272:40,2,75,2|0|0
288,80,47747,5,0
440,128,48541,1,0
440,288,49336,1,0
288,344,50131,1,2
136,288,50925,2,0,B|136:80,1,200,0|0
296,120,52515,2,0,B|400:120,1,100,0|0
400,200,53309,2,0,B|296:200,1,100,2|0
240,256,54104,6,0,B|32:304,2,200,0|0|0
288,192,56091,1,0
240,128,56488,2,0,B|32:80,2,200,2|0|0
320,136,58475,2,0,B|296:176|344:192|328:248,1,100
331,231,59071,2,0,B|267:343|160:328,1,200,0|0
40,240,60660,2,0,B|80:160|176:152,1,150,0|2
272,112,61853,6,0,B|336:112,2,50,0|0|0
232,112,62449,2,0,B|112:112,1,100,0|2
136,152,63045,2,0,B|135:317,1,150
176,304,63839,2,0,B|336:304,2,150,0|2|2
96,192,73177,5,10
152,248,73574,1,10
208,192,73972,1,10
256,128,74369,1,10
304,192,74766,1,10
360,256,75164,1,10
408,192,75561,1,10
368,120,75958,6,0,B|256:120,1,100,10|10
248,200,76753,2,0,B|144:200,1,100,10|10
148,200,77349,2,0,B|137:314|256:364|380:304|348:178,1,350,4|0
256,192,79137,5,4
208,128,79535,2,0,B|104:128,1,100,8|0
64,200,80329,1,10
104,272,80727,2,0,B|208:272,1,100,0|8
280,272,81521,1,0
336,208,81919,2,0,B|336:104,1,100,10|0
272,64,82713,1,8
192,64,83111,2,0,B|80:64,4,100,0|10|0|8|0
272,64,85098,5,10
320,128,85495,1,0
368,192,85892,1,8
408,264,86290,2,0,B|312:336|208:280,1,200,0|0
168,224,87482,2,0,B|224:112|336:104,1,200,0|10
400,104,88674,5,8
400,104,89270,2,0,B|200:104,1,200,8|0
200,104,90263,1,8
200,224,90859,2,0,B|352:224,1,150,8|0
432,224,91853,5,4
376,168,92250,2,0,B|376:56,1,100,8|0
304,32,93045,1,10
240,80,93442,2,0,B|240:192,1,100,0|8
304,232,94237,1,0
256,296,94634,2,0,B|144:296,1,100,10|0
112,232,95429,1,8
152,160,95826,2,0,B|152:48,2,100,0|10|0
192,232,97018,6,0,B|304:232,1,100,8|0
288,152,97813,2,0,B|176:152,1,100,10|8
72,112,98806,2,0,B|72:264,1,150,8|4
128,208,107747,6,0,B|152:328|288:328,1,200,4|0
400,240,109336,2,0,B|432:120|336:64,1,200,0|2
184,80,110925,1,0
40,144,111720,1,0
184,208,112515,1,0
40,272,113309,1,2
200,304,114104,6,0,B|296:360|408:296,1,200,0|0
456,160,115694,2,0,B|424:40|296:48,1,200,0|2
256,192,117283,12,0,120263
