osu file format v9

[General]
AudioFilename: Farewell Song.mp3
AudioLeadIn: 0
PreviewTime: 80362
Countdown: 0
SampleSet: Soft
StackLeniency: 0.4
Mode: 1
LetterboxInBreaks: 0

[Editor]
DistanceSpacing: 1
BeatDivisor: 4
GridSize: 8

[Metadata]
Title:Farewell Song (Short Ver.)
Artist:Lia
Creator:kanpakyin
Version:Taiko
Source:Air
Tags:Joshua lost Jojo ed key vikon

[Difficulty]
HPDrainRate:6
CircleSize:5
OverallDifficulty:5
ApproachRate:6
SliderMultiplier:1.4
SliderTickRate:1

[Events]
//Background and Video events
0,0,"BG.jpg"
//Break Periods
//Storyboard Layer 0 (Background)
//Storyboard Layer 1 (Fail)
//Storyboard Layer 2 (Pass)
//Storyboard Layer 3 (Foreground)
Sprite,Foreground,Centre,"SB\kpy.png",320,240 M,1,19410,20362,164,382,136,383 F,0,19410,20362,0,1 F,0,20362,22267,1 M,0,20362,23220,136,383 F,0,22267,23220,1,0
Sprite,Foreground,Centre,"SB\BG_fog.jpg",320,240 F,0,60362,61315,0,1 F,0,61315,,1
Sprite,Foreground,Centre,"SB\S1.jpg",320,240 M,0,61315,80362,252,187,382,257
Sprite,Foreground,Centre,"SB\S1_fog.jpg",320,240 F,2,60839,61315,0,1 M,0,61315,,251,188 M,0,61315,63220,251,188 F,0,61315,63220,1,0 M,0,79886,80362,379,254,382,256 F,0,79886,80362,0,1
Sprite,Foreground,Centre,"SB\S2.jpg",320,240 M,0,80362,95600,379,254,320,220
Sprite,Foreground,Centre,"SB\S2_fog.jpg",320,240 F,2,79886,80362,0,1 M,0,80362,82267,378,255,372,248 F,0,80362,82267,1,0 M,0,94648,95600,323,223,318,220 F,0,94648,95600,0,1
Sprite,Foreground,Centre,"SB\S3.jpg",320,240 M,0,95600,110839,387,214,310,272
Sprite,Foreground,Centre,"SB\S3_fog.jpg",320,240 F,2,95124,95600,0,1 M,0,95600,97505,386,214,378,222 F,0,95600,97505,1,0 M,0,109886,110839,314,268,309,273 F,0,109886,110839,0,1
Sprite,Foreground,Centre,"SB\S4.jpg",320,240 M,0,110839,126077,258,190,391,231
Sprite,Foreground,Centre,"SB\S4_fog.jpg",320,240 F,2,110362,110839,0,1 M,0,110839,112743,257,188,273,194 F,0,110839,112743,1,0 M,0,125124,126077,382,228,392,231 F,0,125124,126077,0,1
Sprite,Foreground,Centre,"SB\S5.jpg",320,240 M,0,126077,141315,382,194,326,281
Sprite,Foreground,Centre,"SB\S5_fog.jpg",320,240 F,2,125600,126077,0,1 M,0,126077,127981,382,193,375,204 F,0,126077,127981,1,0 M,0,138458,141315,337,265,326,281 F,0,138458,141315,0,1
Sprite,Foreground,Centre,"SB\fin.jpg",320,240 M,0,141315,158458,389,240,244,240 F,0,156553,158458,1,0
Sprite,Foreground,Centre,"SB\fin_fog.jpg",320,240 F,0,140839,141315,0,1 F,0,141315,142743,1 M,0,141315,145124,389,240,355,240 F,0,142743,145124,1,0
Sprite,Foreground,Centre,"SB\Title.png",320,240 F,0,15601,16553,0,1 M,1,15601,17505,526,211,459,210 M,2,21315,23220,459,210,336,210 F,0,22267,23220,1,0
Sprite,Foreground,Centre,"SB\a1.png",320,240 F,0,31315,32267,0,1 M,0,31315,34648,392,228,412,229 F,0,33696,34648,1,0
Sprite,Foreground,Centre,"SB\a2.png",320,240 F,0,35124,36077,0,1 M,0,35124,41315,413,229,446,229 F,0,39410,41315,1,0
Sprite,Foreground,Centre,"SB\a3.png",320,240 F,0,42029,43101,0,1 M,0,42029,46077,408,231,431,231 F,0,45124,46077,1,0
Sprite,Foreground,Centre,"SB\b1.png",320,240 F,0,46553,47505,0,1 M,0,46553,49886,410,228,433,228 F,0,48934,49886,1,0
Sprite,Foreground,Centre,"SB\b2.png",320,240 F,0,50362,51315,0,1 M,0,50362,56553,437,229,470,229 F,0,54648,56553,1,0
Sprite,Foreground,Centre,"SB\b3.png",320,240 F,0,57981,58934,0,1 M,0,57981,60839,408,228,428,228 F,0,59886,60839,1,0
Sprite,Foreground,Centre,"SB\c1.png",320,240 F,0,61315,62267,0,1 M,0,61315,68934,244,266,200,266 F,0,67981,68934,1,0
Sprite,Foreground,Centre,"SB\c2.png",320,240 F,0,69410,70362,0,1 M,0,69410,76077,258,266,225,265 F,0,74172,76077,1,0
Sprite,Foreground,Centre,"SB\c3.png",320,240 F,0,76553,77505,0,1 M,0,76553,79886,282,265,266,265 F,0,78934,79886,1,0
Sprite,Foreground,Centre,"SB\d1.png",320,240 F,0,80362,81315,0,1 M,0,80362,88934,448,373,483,375 F,0,87981,88934,1,0
Sprite,Foreground,Centre,"SB\d2.png",320,240 F,0,88934,89886,0,1 M,0,88934,95124,417,375,449,374 F,0,93220,95124,1,0
Sprite,Foreground,Centre,"SB\d3.png",320,240 F,0,95600,96553,0,1 M,0,95600,103696,386,181,427,181 F,0,102743,103696,1,0
Sprite,Foreground,Centre,"SB\d4.png",320,240 F,0,104172,105124,0,1 M,0,104172,110362,398,180,434,179 F,0,108458,110362,1,0
Sprite,Foreground,Centre,"SB\e1.png",320,240 F,0,110839,111791,0,1 M,0,110839,119410,435,390,399,390 F,0,118458,119410,1,0
Sprite,Foreground,Centre,"SB\e2.png",320,240 F,0,119410,120362,0,1 M,0,119410,125600,445,390,419,390 F,0,123696,125600,1,0
Sprite,Foreground,Centre,"SB\e3.png",320,240 F,0,126077,127029,0,1 M,0,126077,134172,167,262,204,263 F,0,133220,134172,1,0
Sprite,Foreground,Centre,"SB\e4.png",320,240 F,0,134648,135600,0,1 M,0,134648,141315,174,265,202,265 F,0,139410,141315,1,0
Sprite,Foreground,Centre,"SB\fin.png",320,240 M,0,148934,149410,320,240 F,0,148934,149410,0,1 M,0,154648,156553,320,240 F,0,154648,156553,1,0
Sprite,Foreground,Centre,"SB\thanks.png",320,240 M,0,150839,151791,128,422 F,0,150839,151791,0,1 M,0,154648,156553,128,422 F,0,154648,156553,1,0
Sprite,Foreground,Centre,"SB\lightball.png",320,240 M,0,46077,61315,84,569,339,-96
Sprite,Foreground,Centre,"SB\lightball.png",320,240 S,0,46077,,1.84992 M,0,46077,55600,-89,436,107,-113
Sprite,Foreground,Centre,"SB\lightball.png",320,240 S,0,51791,,1.83968 M,0,51791,61315,348,549,538,-152
Sprite,Foreground,Centre,"SB\lightball.png",320,240 S,0,46077,,1.28672 M,0,46077,56553,420,549,712,8
Sprite,Foreground,Centre,"SB\lightball.png",320,240 S,0,55600,,1.8704 M,0,55600,61315,164,574,261,203 F,0,60362,61315,1,0
Sprite,Foreground,Centre,"SB\lightball.png",320,240 M,0,57981,61315,427,536,509,327 F,0,60362,61315,1,0
//Storyboard Sound Samples
//Background Colour Transformations
3,100,163,162,255

[TimingPoints]
15601,476.190476190476,4,2,1,40,1,0
28934,-100,4,2,1,80,0,0
80362,-100,4,2,1,90,0,1
141315,-100,4,2,1,70,0,0
148934,-100,4,2,1,5,0,0

[Colours]
Combo1 : 45,85,151
Combo2 : 79,27,216
SliderBorder : 255,255,255

[HitObjects]
339,85,15600,1,4
339,85,15958,1,0
339,85,16077,1,2
339,85,16315,1,0
339,85,16791,1,2
339,85,17267,1,0
339,85,17505,1,0
339,85,17624,1,0
339,85,17862,1,0
339,85,17981,1,2
339,85,18220,1,0
339,85,18696,1,0
339,85,18934,1,2
339,85,19172,1,0
339,85,19410,1,2
339,85,19529,1,0
339,85,19648,1,0
339,85,19767,1,2
339,85,20005,1,0
339,85,20124,1,2
339,85,20600,1,2
339,85,21077,1,2
339,85,21315,1,0
339,85,21553,1,0
339,85,21672,1,2
339,85,21791,1,2
339,85,22029,1,0
339,85,22505,1,2
339,85,22624,1,2
339,85,22743,1,0
339,85,22862,1,2
339,85,22981,1,0
339,85,23220,1,4
339,85,23577,1,2
339,85,23696,1,0
339,85,23934,1,2
339,85,24172,1,0
339,85,24529,1,2
339,85,24648,1,0
339,85,24886,1,2
339,85,25124,1,0
339,85,25362,1,2
339,85,25481,1,2
339,85,25600,1,0
339,85,25839,1,2
339,85,26077,1,0
339,85,26315,1,2
339,85,26434,1,0
339,85,26553,1,2
339,85,26791,1,0
339,85,27029,1,2
339,85,27148,1,2
339,85,27386,1,0
339,85,27505,1,2
339,85,27743,1,0
339,85,27981,1,2
339,85,28220,1,2
339,85,28339,1,0
339,85,28458,1,0
339,85,28696,1,0
339,85,28934,1,4
339,85,29172,1,2
339,85,29410,1,2
339,85,29529,1,0
339,85,29767,1,0
339,85,29886,1,2
339,85,30124,1,2
339,85,30362,1,0
339,85,30600,1,2
339,85,30720,1,2
339,85,30839,1,0
339,85,31315,1,2
339,85,31553,1,0
339,85,31791,1,0
339,85,32148,1,0
339,85,32267,1,2
339,85,32505,1,0
339,85,32743,1,0
339,85,33100,1,0
339,85,33220,1,2
339,85,33458,1,0
339,85,33696,1,0
339,85,33815,1,0
339,85,33934,1,0
339,85,34053,1,0
339,85,34172,1,2
339,85,34410,1,0
339,85,34648,1,4
339,85,35124,1,2
339,85,35362,1,0
339,85,35600,1,0
339,85,35839,1,0
339,85,35958,1,0
339,85,36077,1,2
339,85,36315,1,0
339,85,36553,1,2
339,85,36672,1,0
339,85,36910,1,0
339,85,37029,1,2
339,85,37148,1,0
339,85,37267,1,0
339,85,37505,1,0
339,85,37624,1,2
339,85,37862,1,0
339,85,37981,1,2
339,85,38220,1,2
339,85,38339,1,2
339,85,38458,1,0
339,85,38815,1,0
339,85,38934,1,2
339,85,39172,1,0
339,85,39648,1,0
339,85,39886,1,2
339,85,40005,1,0
339,85,40362,1,4
339,85,40720,1,0
339,85,40839,1,2
339,85,41077,1,0
339,85,41553,1,0
339,85,41791,1,2
339,85,41910,1,0
339,85,42267,1,0
339,85,42386,1,0
339,85,42624,1,0
339,85,42743,1,2
339,85,42981,1,0
339,85,43220,1,0
339,85,43577,1,0
339,85,43696,1,2
339,85,43934,1,0
339,85,44172,1,4
339,85,44410,1,0
339,85,44648,1,2
339,85,44886,1,2
339,85,45005,1,0
339,85,45243,1,2
339,85,45362,1,0
339,85,45481,1,2
339,85,45600,1,0
339,85,45839,1,0
339,85,45958,1,2
339,85,46077,1,0
339,85,46434,1,0
339,85,46553,1,2
339,85,46791,1,2
339,85,47029,1,0
339,85,47148,1,0
339,85,47386,1,0
339,85,47505,1,2
339,85,47743,1,0
339,85,47981,1,4
339,85,48220,1,2
339,85,48339,1,0
339,85,48458,1,2
339,85,48696,1,2
339,85,49172,1,0
339,85,49410,1,2
339,85,49648,1,2
339,85,49886,1,0
339,85,50124,1,0
339,85,50243,1,0
339,85,50362,1,2
339,85,50600,1,0
339,85,50839,1,0
339,85,51196,1,0
339,85,51315,1,2
339,85,51553,1,0
339,85,51791,1,2
339,85,52029,1,0
339,85,52148,1,0
339,85,52267,1,2
339,85,52505,1,0
339,85,52743,1,2
339,85,52862,1,0
339,85,53100,1,0
339,85,53220,1,2
339,85,53458,1,0
339,85,53696,1,6
339,85,54053,1,0
339,85,54172,1,2
339,85,54410,1,2
339,85,54529,1,2
339,85,54886,1,0
339,85,55124,1,2
339,85,55362,1,0
339,85,55600,1,6
339,85,55839,1,0
339,85,55958,1,0
339,85,56077,1,2
339,85,56315,1,2
339,85,56434,1,2
339,85,56791,1,0
339,85,57029,1,2
339,85,57148,1,0
339,85,57267,1,0
339,85,57386,1,0
339,85,57505,1,2
339,85,57743,1,0
339,85,57862,1,0
339,85,57981,1,2
339,85,58220,1,0
339,85,58458,1,2
339,85,58577,1,0
339,85,58815,1,2
339,85,58934,1,0
339,85,59172,1,0
339,85,59410,1,0
339,85,59648,1,2
339,85,59767,1,2
339,85,59886,1,2
339,85,60124,1,0
339,85,60362,1,2
339,85,60600,1,0
339,85,60720,1,0
339,85,60839,1,2
339,85,60958,1,2
339,85,61077,1,2
339,85,61196,1,2
339,85,61315,1,0
339,85,61672,1,0
339,85,61791,1,2
339,85,62029,1,0
339,85,62267,1,0
339,85,62386,1,0
339,85,62505,1,0
339,85,62624,1,0
339,85,62743,1,2
339,85,62981,1,0
339,85,63220,1,2
339,85,63577,1,0
339,85,63696,1,2
339,85,63934,1,0
339,85,64172,1,0
339,85,64291,1,0
339,85,64648,1,2
339,85,64886,1,0
339,85,65124,1,2
339,85,65243,1,2
339,85,65481,1,0
339,85,65600,1,0
339,85,65839,1,0
339,85,66077,1,0
339,85,66196,1,0
339,85,66315,1,0
339,85,66434,1,0
339,85,66553,1,2
339,85,66791,1,0
339,85,67029,1,2
339,85,67148,1,2
339,85,67386,1,0
339,85,67505,1,2
339,85,67743,1,0
339,85,68220,1,0
339,85,68458,1,2
339,85,68696,1,0
339,85,68815,1,0
339,85,68934,1,0
339,85,69291,1,0
339,85,69410,1,2
339,85,69648,1,0
339,85,69886,1,2
339,85,70124,1,2
339,85,70362,1,2
339,85,70481,1,0
339,85,70600,1,2
339,85,70839,1,0
339,85,70958,1,2
339,85,71315,1,2
339,85,71553,1,0
339,85,71672,1,0
339,85,71910,1,0
339,85,72029,1,2
339,85,72267,1,2
339,85,72505,1,0
339,85,72743,1,4
339,85,73100,1,6
339,85,73458,1,4
339,85,73934,1,0
339,85,74172,1,2
339,85,74410,1,0
339,85,74529,1,2
339,85,74648,1,0
339,85,74886,1,0
339,85,75124,1,2
339,85,75243,1,0
339,85,75481,1,0
339,85,75839,1,2
339,85,76077,1,2
339,85,76315,1,0
339,85,76553,1,4
339,85,76910,1,6
339,85,77267,1,4
339,85,77743,1,0
339,85,77981,1,2
339,85,78220,1,0
339,85,78458,1,0
339,85,78577,1,0
339,85,78815,1,0
339,85,78934,1,2
339,85,79172,1,0
339,85,79410,1,2
339,85,79529,1,2
339,85,79648,1,0
339,85,79767,1,0
339,85,79886,1,2
339,85,80005,1,2
339,85,80124,1,0
339,85,80243,1,2
339,85,80362,1,0
339,85,80720,1,0
339,85,80839,1,2
339,85,81077,1,0
339,85,81315,1,0
339,85,81553,1,0
339,85,81672,1,0
339,85,81791,1,2
339,85,82029,1,2
339,85,82267,1,0
339,85,82386,1,0
339,85,82624,1,0
339,85,82743,1,2
339,85,82981,1,0
339,85,83100,1,2
339,85,83339,1,0
339,85,83458,1,0
339,85,83696,1,2
339,85,83934,1,2
339,85,84172,1,0
339,85,84291,1,2
339,85,84529,1,0
339,85,84648,1,2
339,85,84886,1,0
339,85,85005,1,2
339,85,85124,1,0
339,85,85362,1,0
339,85,85600,1,2
339,85,85839,1,2
339,85,86077,1,2
339,85,86196,1,0
339,85,86434,1,0
339,85,86553,1,2
339,85,86791,1,2
339,85,87029,1,0
339,85,87267,1,0
339,85,87505,1,2
339,85,87624,1,0
339,85,87743,1,2
339,85,87862,1,0
339,85,87981,1,2
339,85,88339,1,0
339,85,88458,1,2
339,85,88696,1,0
339,85,88934,1,2
339,85,89172,1,0
339,85,89291,1,0
339,85,89410,1,2
339,85,89648,1,0
339,85,89886,1,2
339,85,90005,1,0
339,85,90243,1,2
339,85,90362,1,0
339,85,90600,1,0
339,85,90720,1,2
339,85,90839,1,0
339,85,91077,1,0
339,85,91196,1,2
339,85,91434,1,0
339,85,91553,1,0
339,85,91672,1,0
339,85,91791,1,2
339,85,92029,1,0
339,85,92267,1,2
339,85,92505,1,6
339,85,92743,2,0,B|304:128|224:136|168:112|136:80,1,210,0|0
339,85,93696,5,0
339,85,93815,1,0
339,85,93934,1,2
339,85,94053,1,2
339,85,94172,1,0
339,85,94291,1,0
339,85,94410,1,2
339,85,94529,1,2
339,85,94648,1,0
339,85,94886,1,8
339,85,95005,1,0
339,85,95124,1,8
339,85,95362,1,0
339,85,95600,1,4
339,85,95958,1,0
339,85,96077,1,2
339,85,96315,1,0
339,85,96553,1,0
339,85,96791,1,2
339,85,96910,1,0
339,85,97029,1,2
339,85,97267,1,0
339,85,97505,1,2
339,85,97862,1,0
339,85,97981,1,2
339,85,98220,1,0
339,85,98577,1,2
339,85,98696,1,0
339,85,98934,1,2
339,85,99172,1,2
339,85,99410,1,0
339,85,99529,1,2
339,85,99767,1,2
339,85,99886,1,0
339,85,100124,1,0
339,85,100243,1,0
339,85,100362,1,2
339,85,100600,1,0
339,85,100839,1,2
339,85,101077,1,2
339,85,101315,1,0
339,85,101434,1,0
339,85,101553,1,0
339,85,101672,1,0
339,85,101791,1,2
339,85,102029,1,0
339,85,102148,1,2
339,85,102386,1,0
339,85,102505,1,2
339,85,102743,1,2
339,85,102862,1,0
339,85,103100,1,0
339,85,103220,1,2
339,85,103458,1,0
339,85,103577,1,2
339,85,103696,1,2
339,85,103934,1,0
339,85,104172,1,4
339,85,104529,1,6
339,85,104886,1,4
339,85,105124,1,4
339,85,105481,1,0
339,85,105600,1,2
339,85,105839,1,0
339,85,106315,1,0
339,85,106553,1,2
339,85,106791,1,0
339,85,107029,1,4
339,85,107267,1,0
339,85,107386,1,0
339,85,107505,1,2
339,85,107743,1,0
339,85,107862,1,2
339,85,107981,1,2
339,85,108220,1,0
339,85,108458,1,2
339,85,108696,1,0
339,85,108934,1,0
339,85,109053,1,0
339,85,109172,1,2
339,85,109291,1,2
339,85,109410,1,0
339,85,109529,1,0
339,85,109648,1,2
339,85,109767,1,2
339,85,109886,1,0
339,85,110124,1,8
339,85,110243,1,0
339,85,110362,1,8
339,85,110600,1,0
339,85,110720,1,0
339,85,110839,1,2
339,85,111196,1,0
339,85,111315,1,2
339,85,111553,1,0
339,85,111910,1,0
339,85,112029,1,0
339,85,112267,1,2
339,85,112505,1,0
339,85,112743,1,4
339,85,112981,1,0
339,85,113100,1,0
339,85,113220,1,2
339,85,113458,1,0
339,85,113934,1,0
339,85,114172,1,2
339,85,114410,1,0
339,85,114648,1,2
339,85,114767,1,0
339,85,115005,1,0
339,85,115124,1,2
339,85,115362,1,0
339,85,115600,1,0
339,85,115720,1,0
339,85,115839,1,0
339,85,115958,1,0
339,85,116077,1,2
339,85,116315,1,2
339,85,116553,1,2
339,85,116672,1,0
339,85,116910,1,0
339,85,117029,1,2
339,85,117267,1,0
339,85,117386,1,2
339,85,117624,1,0
339,85,117743,1,0
339,85,117862,1,0
339,85,117981,1,2
339,85,118220,1,0
339,85,118458,1,4
339,85,118815,1,0
339,85,118934,1,2
339,85,119172,1,0
339,85,119410,1,4
339,85,119767,1,6
339,85,120124,1,4
339,85,120362,1,0
339,85,120481,1,2
339,85,120720,1,2
339,85,120839,1,0
339,85,121077,1,2
339,85,121315,1,0
339,85,121434,1,0
339,85,121672,1,0
339,85,121791,1,2
339,85,122029,1,2
339,85,122148,1,2
339,85,122267,1,0
339,85,122505,1,0
339,85,122743,1,2
339,85,122981,1,2
339,85,123100,1,0
339,85,123458,1,0
339,85,123696,1,2
339,85,123934,1,0
339,85,124172,1,0
339,85,124291,1,0
339,85,124410,1,2
339,85,124529,1,2
339,85,124648,1,0
339,85,124886,1,2
339,85,125124,1,0
339,85,125243,1,0
339,85,125362,1,2
339,85,125481,1,0
339,85,125600,1,2
339,85,125839,1,0
339,85,126077,1,4
339,85,126434,1,0
339,85,126553,1,2
339,85,126791,1,0
339,85,127029,1,0
339,85,127148,1,0
339,85,127267,1,2
339,85,127386,1,0
339,85,127505,1,2
339,85,127743,1,0
339,85,127981,1,0
339,85,128339,1,2
339,85,128696,1,0
339,85,129172,1,0
339,85,129410,1,2
339,85,129648,1,0
339,85,129886,1,2
339,85,130005,1,0
339,85,130124,1,0
339,85,130243,1,0
339,85,130362,1,2
339,85,130600,1,0
339,85,131077,1,0
339,85,131315,1,2
339,85,131553,1,0
339,85,131791,1,0
339,85,131910,1,0
339,85,132029,1,2
339,85,132148,1,0
339,85,132267,1,2
339,85,132505,1,0
339,85,132743,1,0
339,85,132981,1,0
339,85,133100,1,0
339,85,133220,1,2
339,85,133458,1,0
339,85,133696,1,4
339,85,134053,1,0
339,85,134172,1,2
339,85,134410,1,0
339,85,134648,1,2
339,85,134886,1,0
339,85,135005,1,2
339,85,135124,1,0
339,85,135362,1,0
339,85,135600,1,2
339,85,135958,1,0
339,85,136077,1,2
312,88,136315,1,0
339,85,136553,1,0
339,85,136791,1,0
339,85,136910,1,2
339,85,137029,1,2
339,85,137267,1,0
339,85,137505,1,6
312,88,137862,1,0
339,85,137981,1,2
339,85,138220,1,0
339,85,138458,1,2
339,85,138696,1,0
339,85,138815,1,0
339,85,138934,1,2
339,85,139172,1,0
339,85,139410,1,0
339,85,139529,1,0
339,85,139648,1,2
339,85,139767,1,0
339,85,139886,1,2
339,85,140005,1,0
339,85,140124,1,0
339,85,140243,1,0
339,85,140362,1,2
339,85,140601,1,2
339,85,140720,1,2
339,85,140839,1,0
339,85,140958,1,0
339,85,141077,1,2
339,85,141196,1,2
339,85,141315,1,0
339,85,141672,1,0
339,85,141791,1,2
339,85,142029,1,4
339,85,142505,1,0
339,85,142743,1,6
339,85,143220,1,4
339,85,143577,1,0
339,85,143696,1,2
339,85,143934,1,4
339,85,144410,1,0
339,85,144648,1,6
339,85,145124,1,4
339,85,145481,1,0
339,85,145601,1,2
339,85,145839,1,4
339,85,146315,1,0
339,85,146553,1,6
339,85,147029,1,4
339,85,147386,1,0
339,85,147505,1,2
339,85,147743,1,0
339,85,147862,1,2
339,85,147981,1,0
339,85,148220,1,2
339,85,148339,1,0
339,85,148458,1,2
339,85,148696,1,2
339,85,148775,1,2
339,85,148854,1,2
339,85,148934,1,2
256,192,149172,12,0,152743
