osu file format v14

[General]
AudioFilename: Charlotte OP Bravely YouTV size.mp3
AudioLeadIn: 0
PreviewTime: -1
Countdown: 1
SampleSet: Normal
StackLeniency: 0.7
Mode: 0
LetterboxInBreaks: 1
WidescreenStoryboard: 0

[Editor]
DistanceSpacing: 0.6
BeatDivisor: 4
GridSize: 4
TimelineZoom: 1

[Metadata]
Title:Bravely You - TV Size
TitleUnicode:Bravely You - TV Size
Artist:Lia
ArtistUnicode:Lia
Creator:ByMio115
Version:Tomori
Source:Charlotte
Tags:Charlotte
BeatmapID:757301
BeatmapSetID:342618

[Difficulty]
HPDrainRate:5
CircleSize:5
OverallDifficulty:7.5
ApproachRate:8.5
SliderMultiplier:1.4
SliderTickRate:1

[Events]
//Background and Video events
0,0,"f.jpg",0,0
//Break Periods
//Storyboard Layer 0 (Background)
//Storyboard Layer 1 (Fail)
//Storyboard Layer 2 (Pass)
//Storyboard Layer 3 (Foreground)
//Storyboard Sound Samples

[TimingPoints]
1700,400.080016003201,4,1,0,100,1,0
48109,400.080016003201,4,1,0,100,1,1
48109,400.080016003201,4,1,0,100,1,1
60711,400.080016003201,4,1,0,100,1,0
81715,400.080016003201,4,1,0,100,1,0

[HitObjects]
256,192,0,12,0,1500,0:0:0:0:
80,104,1700,5,0,0:0:0:0:
216,64,1900,1,0,0:0:0:0:
360,124,2100,1,0,0:0:0:0:
436,240,2300,1,0,0:0:0:0:
256,324,2700,1,0,0:0:0:0:
88,184,3100,1,0,0:0:0:0:
216,136,3300,1,0,0:0:0:0:
452,328,3900,1,0,0:0:0:0:
224,88,4300,1,0,0:0:0:0:
332,188,4500,1,0,0:0:0:0:
224,288,4700,1,0,0:0:0:0:
256,192,5001,12,0,6201,0:0:0:0:
76,196,6500,6,0,P|120:136|152:188,1,140
236,220,7101,2,0,P|252:240|300:172,1,140
408,300,7701,1,0,0:0:0:0:
460,180,7901,2,0,P|420:120|336:116,1,140
252,156,8501,1,0,0:0:0:0:
112,212,8701,1,0,0:0:0:0:
220,288,8901,1,0,0:0:0:0:
180,180,9101,1,0,0:0:0:0:
300,200,9301,1,0,0:0:0:0:
392,192,9701,5,0,0:0:0:0:
360,96,9901,1,0,0:0:0:0:
264,48,10101,1,0,0:0:0:0:
156,44,10301,2,0,P|80:48|44:88,1,105
52,84,10701,2,0,L|52:224,1,140
52,248,11201,2,0,P|92:312|204:312,1,175
204,320,11802,5,0,0:0:0:0:
220,316,11902,1,0,0:0:0:0:
236,312,12002,1,0,0:0:0:0:
252,312,12102,1,0,0:0:0:0:
268,316,12202,1,0,0:0:0:0:
284,324,12302,1,0,0:0:0:0:
300,324,12402,1,0,0:0:0:0:
316,320,12502,1,0,0:0:0:0:
332,320,12602,1,0,0:0:0:0:
348,328,12702,1,0,0:0:0:0:
472,284,12902,6,0,P|452:204|376:252,1,175
368,236,13502,2,0,P|284:224|312:136,1,175
304,140,14102,2,0,L|356:84,1,70
352,72,14402,5,0,0:0:0:0:
340,60,14502,1,0,0:0:0:0:
324,52,14602,1,0,0:0:0:0:
308,44,14702,1,0,0:0:0:0:
292,44,14802,1,0,0:0:0:0:
276,48,14902,1,0,0:0:0:0:
260,56,15002,1,0,0:0:0:0:
244,64,15102,1,0,0:0:0:0:
228,68,15202,1,0,0:0:0:0:
212,64,15302,1,0,0:0:0:0:
196,56,15402,1,0,0:0:0:0:
180,48,15502,1,0,0:0:0:0:
164,44,15602,1,0,0:0:0:0:
148,44,15702,1,0,0:0:0:0:
72,104,16102,6,0,B|76:264|248:12|456:348,1,490
452,312,17703,2,0,L|452:192,1,105
452,188,18103,1,0,0:0:0:0:
448,172,18203,1,0,0:0:0:0:
440,156,18303,1,0,0:0:0:0:
432,140,18403,1,0,0:0:0:0:
432,124,18503,1,0,0:0:0:0:
440,108,18603,1,0,0:0:0:0:
448,92,18703,1,0,0:0:0:0:
456,76,18803,1,0,0:0:0:0:
452,60,18903,1,0,0:0:0:0:
448,44,19003,1,0,0:0:0:0:
432,40,19103,1,0,0:0:0:0:
416,36,19203,1,0,0:0:0:0:
396,44,19303,2,0,B|348:88|284:40|228:96|116:44,1,280
68,144,20303,5,0,0:0:0:0:
492,248,20703,1,0,0:0:0:0:
64,300,21103,1,0,0:0:0:0:
72,64,21303,5,0,0:0:0:0:
156,160,21503,1,0,0:0:0:0:
228,64,21703,1,0,0:0:0:0:
368,100,21904,1,0,0:0:0:0:
468,192,22104,1,0,0:0:0:0:
468,320,22304,1,0,0:0:0:0:
468,192,22504,6,0,L|408:64,1,140
296,64,23104,1,0,0:0:0:0:
216,148,23304,2,0,L|88:320,1,210
44,192,24104,6,0,L|104:64,1,140
216,64,24704,1,0,0:0:0:0:
304,148,24904,2,0,L|432:320,1,210
32,44,25704,6,0,L|104:172,1,140
220,168,26304,1,0,0:0:0:0:
352,168,26504,2,0,P|352:288|448:320,1,210
480,44,27305,6,0,L|408:172,1,140
292,168,27905,1,0,0:0:0:0:
160,168,28105,2,0,P|160:288|64:320,1,210
472,192,28905,6,0,P|456:96|396:72,1,140
324,72,29505,1,0,0:0:0:0:
216,68,29705,2,0,P|120:80|64:172,1,210
40,192,30505,6,0,P|56:96|116:72,1,140
188,72,31105,1,0,0:0:0:0:
296,68,31305,2,0,P|392:80|448:172,1,210
112,200,32106,6,0,P|144:140|224:132,1,140
344,136,32706,1,0,0:0:0:0:
424,272,32906,2,0,P|408:164|180:164,2,350
96,64,35306,6,0,L|248:64,1,140
132,140,35906,1,0,0:0:0:0:
240,200,36106,2,0,L|456:200,1,210
424,152,36907,6,0,L|272:152,1,140
388,228,37507,1,0,0:0:0:0:
280,288,37707,2,0,L|64:288,1,210
288,212,38507,6,0,L|56:100,1,245
52,124,39307,2,0,L|272:236,1,245
252,320,40107,6,0,L|492:200,1,245
440,200,40907,2,0,L|252:300,1,210
472,176,41708,6,0,P|468:100|400:44,1,140
328,68,42308,1,0,0:0:0:0:
224,108,42508,2,0,P|220:196|324:212,1,210
40,264,43308,6,0,P|44:188|112:132,1,140
184,156,43908,1,0,0:0:0:0:
288,196,44108,2,0,P|292:284|188:300,1,210
224,208,44908,6,0,L|112:80,1,140
72,36,45508,1,0,0:0:0:0:
72,140,45708,2,0,P|148:228|240:188,1,210
288,308,46508,6,0,L|400:180,1,140
440,136,47108,1,0,0:0:0:0:
440,240,47308,2,0,P|364:328|272:288,1,210
316,200,48109,5,0,0:0:0:0:
412,96,48309,1,0,0:0:0:0:
392,236,48509,1,0,0:0:0:0:
324,116,48709,1,0,0:0:0:0:
448,172,48909,1,0,0:0:0:0:
320,112,49109,1,0,0:0:0:0:
448,168,49309,1,0,0:0:0:0:
320,116,49509,1,0,0:0:0:0:
196,200,49709,5,0,0:0:0:0:
100,96,49909,1,0,0:0:0:0:
120,236,50109,1,0,0:0:0:0:
188,116,50309,1,0,0:0:0:0:
64,172,50509,1,0,0:0:0:0:
192,112,50709,1,0,0:0:0:0:
64,168,50909,1,0,0:0:0:0:
192,116,51109,1,0,0:0:0:0:
260,200,51309,5,0,0:0:0:0:
364,296,51509,1,0,0:0:0:0:
224,276,51709,1,0,0:0:0:0:
344,208,51909,1,0,0:0:0:0:
288,332,52109,1,0,0:0:0:0:
348,204,52309,1,0,0:0:0:0:
292,332,52509,1,0,0:0:0:0:
344,204,52709,1,0,0:0:0:0:
144,168,52909,5,0,0:0:0:0:
248,72,53109,1,0,0:0:0:0:
108,92,53309,1,0,0:0:0:0:
228,160,53509,1,0,0:0:0:0:
172,36,53709,1,0,0:0:0:0:
232,164,53909,1,0,0:0:0:0:
176,36,54109,1,0,0:0:0:0:
228,164,54309,1,0,0:0:0:0:
288,56,54510,5,0,0:0:0:0:
444,60,54710,1,0,0:0:0:0:
216,136,54910,1,0,0:0:0:0:
376,136,55110,1,0,0:0:0:0:
148,208,55310,1,0,0:0:0:0:
312,212,55510,1,0,0:0:0:0:
80,284,55710,1,0,0:0:0:0:
248,284,55910,1,0,0:0:0:0:
224,56,56110,5,0,0:0:0:0:
68,60,56310,1,0,0:0:0:0:
296,136,56510,1,0,0:0:0:0:
136,136,56710,1,0,0:0:0:0:
364,208,56910,1,0,0:0:0:0:
200,212,57110,1,0,0:0:0:0:
432,284,57310,1,0,0:0:0:0:
264,284,57510,1,0,0:0:0:0:
448,44,57710,5,0,0:0:0:0:
448,200,57910,1,0,0:0:0:0:
364,92,58111,1,0,0:0:0:0:
368,252,58311,1,0,0:0:0:0:
280,144,58511,1,0,0:0:0:0:
284,296,58711,1,0,0:0:0:0:
196,196,58911,1,0,0:0:0:0:
200,344,59111,1,0,0:0:0:0:
64,44,59311,5,0,0:0:0:0:
64,200,59511,1,0,0:0:0:0:
148,92,59712,1,0,0:0:0:0:
144,252,59912,1,0,0:0:0:0:
232,144,60112,1,0,0:0:0:0:
228,296,60312,1,0,0:0:0:0:
316,196,60512,1,0,0:0:0:0:
312,340,60711,6,0,L|400:228,1,140
472,152,61311,2,0,L|396:96,3,70
272,112,62111,1,0,0:0:0:0:
160,112,62311,2,0,P|92:112|64:176,2,140
188,136,63211,1,0,0:0:0:0:
216,160,63311,1,0,0:0:0:0:
244,180,63411,1,0,0:0:0:0:
276,196,63511,1,0,0:0:0:0:
308,212,63611,1,0,0:0:0:0:
332,240,63711,1,0,0:0:0:0:
468,296,63911,6,0,B|420:208|296:260|256:344|204:360|88:128,1,490
220,84,65511,2,0,B|320:84|328:188|412:60|424:64,1,210
472,184,66312,2,0,P|416:276|384:268,1,140
304,276,66912,2,0,L|216:276,1,70
80,264,67312,6,0,P|236:88|428:292,3,560
396,264,72213,1,0,0:0:0:0:
368,292,72313,1,0,0:0:0:0:
344,264,72413,1,0,0:0:0:0:
320,288,72513,1,0,0:0:0:0:
296,264,72613,1,0,0:0:0:0:
272,288,72713,1,0,0:0:0:0:
248,264,72813,1,0,0:0:0:0:
224,288,72913,1,0,0:0:0:0:
200,264,73013,1,0,0:0:0:0:
172,288,73113,1,0,0:0:0:0:
144,264,73213,1,0,0:0:0:0:
120,292,73313,1,0,0:0:0:0:
76,192,73513,6,0,P|92:132|164:124,1,140
268,128,74113,1,0,0:0:0:0:
356,72,74313,1,0,0:0:0:0:
460,56,74513,2,0,P|464:156|412:184,1,140
344,176,75113,2,0,P|272:172|240:248,2,140
328,208,76014,1,0,0:0:0:0:
304,232,76114,1,0,0:0:0:0:
272,244,76214,1,0,0:0:0:0:
240,256,76314,1,0,0:0:0:0:
212,276,76414,1,0,0:0:0:0:
180,288,76514,1,0,0:0:0:0:
56,268,76714,6,0,P|60:184|116:172,1,140
228,172,77314,1,0,0:0:0:0:
344,132,77514,1,0,0:0:0:0:
464,128,77714,2,0,P|456:76|372:44,1,140
348,52,78214,1,0,0:0:0:0:
316,60,78314,1,0,0:0:0:0:
284,72,78414,1,0,0:0:0:0:
252,84,78514,1,0,0:0:0:0:
284,220,78714,1,0,0:0:0:0:
208,116,78914,1,0,0:0:0:0:
92,72,79114,2,0,P|32:124|64:176,1,140
140,248,79714,2,0,P|180:268|240:208,1,140
240,188,80214,5,0,0:0:0:0:
220,184,80314,1,0,0:0:0:0:
224,164,80414,1,0,0:0:0:0:
204,164,80514,1,0,0:0:0:0:
212,144,80614,1,0,0:0:0:0:
192,144,80715,1,0,0:0:0:0:
196,124,80815,1,0,0:0:0:0:
176,120,80915,1,0,0:0:0:0:
180,100,81015,1,0,0:0:0:0:
160,100,81115,1,0,0:0:0:0:
168,80,81215,1,0,0:0:0:0:
148,76,81315,1,0,0:0:0:0:
160,60,81415,1,0,0:0:0:0:
140,60,81515,1,0,0:0:0:0:
148,40,81615,1,0,0:0:0:0:
128,32,81715,5,0,0:0:0:0:
108,32,81815,1,0,0:0:0:0:
88,36,81915,1,0,0:0:0:0:
68,48,82015,1,0,0:0:0:0:
52,64,82115,1,0,0:0:0:0:
44,84,82215,1,0,0:0:0:0:
44,104,82315,1,0,0:0:0:0:
52,124,82415,1,0,0:0:0:0:
64,140,82515,1,0,0:0:0:0:
80,152,82615,1,0,0:0:0:0:
100,164,82715,1,0,0:0:0:0:
120,168,82815,1,0,0:0:0:0:
140,168,82915,1,0,0:0:0:0:
160,168,83015,1,0,0:0:0:0:
180,168,83115,1,0,0:0:0:0:
200,168,83215,1,0,0:0:0:0:
220,168,83315,5,0,0:0:0:0:
236,152,83415,1,0,0:0:0:0:
248,168,83515,1,0,0:0:0:0:
264,152,83615,1,0,0:0:0:0:
276,168,83715,1,0,0:0:0:0:
292,152,83815,1,0,0:0:0:0:
304,168,83915,1,0,0:0:0:0:
320,152,84015,1,0,0:0:0:0:
332,168,84115,1,0,0:0:0:0:
344,152,84215,1,0,0:0:0:0:
356,168,84315,1,0,0:0:0:0:
372,152,84415,1,0,0:0:0:0:
384,168,84515,1,0,0:0:0:0:
400,152,84615,1,0,0:0:0:0:
412,168,84715,1,0,0:0:0:0:
428,152,84815,1,0,0:0:0:0:
440,172,84915,5,0,0:0:0:0:
460,176,85015,1,0,0:0:0:0:
480,188,85115,1,0,0:0:0:0:
484,208,85215,1,0,0:0:0:0:
484,228,85315,1,0,0:0:0:0:
480,248,85415,1,0,0:0:0:0:
464,260,85515,1,0,0:0:0:0:
444,272,85615,1,0,0:0:0:0:
424,280,85715,1,0,0:0:0:0:
404,284,85815,1,0,0:0:0:0:
384,284,85915,1,0,0:0:0:0:
364,284,86015,1,0,0:0:0:0:
344,284,86115,1,0,0:0:0:0:
324,284,86215,1,0,0:0:0:0:
304,284,86315,1,0,0:0:0:0:
284,284,86415,1,0,0:0:0:0:
272,268,86515,5,0,0:0:0:0:
256,284,86615,1,0,0:0:0:0:
244,268,86716,1,0,0:0:0:0:
232,284,86816,1,0,0:0:0:0:
220,268,86916,1,0,0:0:0:0:
204,284,87016,1,0,0:0:0:0:
192,268,87116,1,0,0:0:0:0:
176,284,87216,1,0,0:0:0:0:
164,268,87316,1,0,0:0:0:0:
152,284,87416,1,0,0:0:0:0:
140,268,87516,1,0,0:0:0:0:
128,284,87616,1,0,0:0:0:0:
112,268,87716,1,0,0:0:0:0:
96,284,87816,1,0,0:0:0:0:
84,268,87916,1,0,0:0:0:0:
72,284,88016,1,0,0:0:0:0:
60,268,88116,1,0,0:0:0:0:
