osu file format v14

[General]
AudioFilename: charlotte-op.mp3
AudioLeadIn: 2000
PreviewTime: 61212
Countdown: 0
SampleSet: Soft
StackLeniency: 0.7
Mode: 0
LetterboxInBreaks: 0
WidescreenStoryboard: 1

[Editor]
DistanceSpacing: 1.2
BeatDivisor: 4
GridSize: 4
TimelineZoom: 1.600003

[Metadata]
Title:Bravely You
TitleUnicode:Bravely You
Artist:Lia
ArtistUnicode:Lia
Creator:Yohanes
Version:Dream
Source:Charlotte
Tags:シャーロット 麻枝准 Jun Maeda Key P.A. Works ANANT-GARDE EYES Marathon opening full version yaldo_27
BeatmapID:769831
BeatmapSetID:349052

[Difficulty]
HPDrainRate:6
CircleSize:4.2
OverallDifficulty:7.5
ApproachRate:9
SliderMultiplier:1.8
SliderTickRate:1

[Events]
//Background and Video events
0,0,"nao.jpg",0,0
//Break Periods
//Storyboard Layer 0 (Background)
//Storyboard Layer 1 (Fail)
//Storyboard Layer 2 (Pass)
//Storyboard Layer 3 (Foreground)
//Storyboard Sound Samples

[TimingPoints]
612,400,4,2,1,65,1,0
48612,-125,4,2,1,50,0,0
59812,-125,4,2,1,60,0,0
61412,-100,4,2,1,65,0,1
87012,-100,4,2,1,65,0,0
141412,-125,4,2,1,50,0,0
152612,-125,4,2,1,60,0,0
154212,-100,4,2,1,65,0,1
179812,-100,4,2,1,65,0,0
243812,-125,4,2,1,50,0,0
255012,-125,4,2,1,60,0,0
256612,-100,4,2,1,65,0,1
282012,-100,4,2,1,65,0,0
282212,-100,4,2,1,65,0,1
307812,-100,4,2,1,70,0,0
320612,-100,4,2,1,40,0,0
323412,-100,4,2,1,30,0,0
323812,-100,4,2,1,20,0,0
324212,-100,4,2,1,10,0,0

[Colours]
Combo1 : 254,129,210
Combo2 : 180,180,180
Combo3 : 255,128,0
Combo4 : 128,128,192

[HitObjects]
115,120,612,6,0,P|123:209|169:286,1,180,2|0,0:0|0:0,0:0:0:0:
169,286,1212,1,0,0:0:0:0:
275,216,1412,2,0,P|311:204|363:200,1,90
436,304,1812,2,0,P|400:316|348:320,1,90
169,286,2212,5,2,0:0:0:0:
200,184,2412,1,0,0:0:0:0:
272,261,2612,1,0,0:0:0:0:
169,286,2812,2,0,P|104:296|72:288,1,90,2|0,0:0|0:0,0:0:0:0:
41,127,3212,2,0,P|130:129|200:184,1,180,0|2,0:0|0:0,0:0:0:0:
272,261,3812,6,0,P|300:220|308:92,1,180,2|0,0:0|0:0,0:0:0:0:
375,19,4412,2,0,P|400:55|407:111,1,90,2|0,0:0|0:0,0:0:0:0:
395,199,4812,1,0,0:0:0:0:
308,93,5012,2,0,L|216:120,1,90,2|0,0:0|0:0,0:0:0:0:
272,261,5412,6,0,P|344:265|444:312,1,180
356,358,6012,2,0,P|270:344|178:359,1,180,2|0,0:0|0:0,0:0:0:0:
64,332,6612,1,8,0:0:0:0:
24,220,6812,1,2,0:1:0:0:
24,220,6912,1,2,0:1:0:0:
24,220,7012,6,0,P|112:144|124:72,1,180,4|8,0:0|0:0,0:0:0:0:
251,33,7612,2,0,P|339:109|351:181,1,180
322,262,8212,1,8,0:0:0:0:
216,249,8412,2,0,L|228:160,1,90,0|0,0:0|0:0,0:0:0:0:
228,159,8812,5,2,0:0:0:0:
322,262,9012,2,0,L|310:351,1,90,8|2,0:0|0:0,0:0:0:0:
428,236,9412,2,0,L|416:325,1,90,0|2,0:0|0:1,0:0:0:0:
415,325,9712,1,0,0:0:0:0:
416,325,9812,1,8,0:0:0:0:
352,168,10012,1,0,0:0:0:0:
488,155,10212,6,0,P|495:111|483:69,2,90,2|0|8,0:0|0:0|0:0,0:0:0:0:
398,114,10812,2,0,P|308:108|216:136,1,180
223,134,11412,1,8,0:0:0:0:
120,224,11612,1,0,0:0:0:0:
120,224,11712,1,0,0:0:0:0:
120,224,11812,6,0,L|100:128,1,90
176,56,12212,2,0,P|225:43|276:58,1,90,8|0,0:0|0:0,0:0:0:0:
320,139,12612,2,0,P|306:187|268:224,1,90
240,312,13012,2,0,P|289:303|339:322,1,90,8|0,0:0|0:0,0:0:0:0:
188,381,13412,6,0,P|132:312|120:224,1,180,0|8,0:0|0:0,0:0:0:0:
14,283,14012,2,0,P|15:194|63:119,1,180
63,119,14612,1,8,0:0:0:0:
193,143,14812,6,0,P|236:154|300:148,1,90
376,88,15212,1,0,0:0:0:0:
438,184,15412,2,0,L|422:280,1,90,8|0,0:0|0:0,0:0:0:0:
268,336,15812,1,0,0:0:0:0:
349,371,16012,1,0,0:0:0:0:
282,248,16212,1,8,0:0:0:0:
268,336,16412,1,0,0:0:0:0:
434,354,16612,6,0,P|460:269|437:183,1,180,0|8,0:0|0:0,0:0:0:0:
307,179,17212,2,0,P|220:198|136:169,1,180
64,80,17812,1,8,0:0:0:0:
24,220,18012,1,2,0:1:0:0:
24,220,18112,1,0,0:0:0:0:
24,220,18212,6,0,L|44:316,1,90,2|0,0:0|0:0,0:0:0:0:
148,324,18612,2,0,P|196:304|240:300,1,90,8|0,0:0|0:0,0:0:0:0:
307,363,19012,2,0,P|330:310|326:272,1,90,0|0,0:0|0:0,0:0:0:0:
426,272,19412,2,0,P|404:218|375:194,1,90,8|0,0:0|0:0,0:0:0:0:
280,209,19812,6,0,P|312:124|402:98,1,180,2|8,0:1|0:0,0:0:0:0:
280,209,20412,2,0,P|206:156|204:62,1,180,2|2,0:1|2:1,0:0:0:0:
200,72,21012,1,8,0:0:0:0:
200,72,21212,1,2,0:1:0:0:
120,160,21412,6,0,P|72:172|16:172,1,90,0|0,0:0|0:0,0:0:0:0:
107,281,21812,1,8,0:0:0:0:
208,160,22012,1,0,0:0:0:0:
262,307,22212,1,0,0:0:0:0:
107,281,22412,1,0,0:0:0:0:
280,209,22612,1,2,0:1:0:0:
280,209,22712,1,2,0:1:0:0:
280,209,22812,1,2,0:1:0:0:
392,356,23012,6,0,P|450:276|458:191,1,180,4|8,0:0|0:0,0:0:0:0:
422,80,23612,1,0,0:0:0:0:
328,184,23812,2,0,P|237:180|152:144,1,180,0|8,0:0|0:0,0:0:0:0:
104,48,24412,1,0,0:0:0:0:
16,120,24612,5,2,0:0:0:0:
16,120,24712,1,0,0:0:0:0:
16,120,24812,1,0,0:0:0:0:
36,232,25012,2,0,P|72:252|128:256,1,90,8|0,0:0|0:0,0:0:0:0:
228,348,25412,2,0,P|227:306|202:256,1,90
233,124,25812,2,0,P|197:145|166:191,1,90,8|0,0:0|0:0,0:0:0:0:
339,328,26212,6,0,P|381:246|376:160,1,180,2|8,0:0|0:0,0:0:0:0:
242,52,26812,1,0,0:0:0:0:
242,52,27012,2,0,L|234:141,1,90
224,256,27412,1,8,0:0:0:0:
224,256,27512,1,0,0:1:0:0:
224,256,27612,1,0,0:1:0:0:
334,246,27812,6,0,P|339:186|327:149,1,90,2|0,0:0|0:0,0:0:0:0:
242,52,28212,2,0,L|140:44,1,90,8|2,0:0|0:0,0:0:0:0:
64,180,28612,2,0,L|168:176,1,90,0|2,0:0|0:1,0:0:0:0:
334,246,29012,1,8,0:0:0:0:
216,124,29212,1,2,0:1:0:0:
248,328,29412,6,0,P|344:332|428:287,1,180,2|8,0:0|0:0,0:0:0:0:
420,192,30012,1,0,0:0:0:0:
512,291,30212,2,0,P|523:202|491:119,1,180,0|8,2:0|2:0,0:0:0:0:
384,100,30812,1,0,0:0:0:0:
276,80,31012,5,2,2:0:0:0:
276,80,31112,1,0,0:0:0:0:
276,80,31212,1,0,0:0:0:0:
313,184,31412,1,8,2:0:0:0:
384,100,31612,1,0,0:0:0:0:
276,80,31812,1,2,0:1:0:0:
172,112,32012,5,2,0:1:0:0:
148,216,32212,1,8,0:0:0:0:
227,289,32412,1,0,0:0:0:0:
252,184,32612,6,0,P|339:164|428:173,1,180,2|8,0:0|0:0,0:0:0:0:
496,312,33212,1,0,0:0:0:0:
407,355,33412,2,0,P|320:375|231:366,1,180,0|8,0:0|0:0,0:0:0:0:
230,365,34012,1,0,0:0:0:0:
120,260,34212,5,2,0:0:0:0:
120,260,34412,1,0,0:0:0:0:
84,112,34612,1,8,0:0:0:0:
84,112,34812,1,0,0:0:0:0:
207,23,35012,1,2,0:0:0:0:
207,23,35212,1,0,0:0:0:0:
144,176,35412,1,10,0:2:0:0:
144,176,35512,1,2,0:1:0:0:
144,176,35612,1,2,0:1:0:0:
302,106,35812,6,0,P|400:104|488:136,1,180,6|8,0:0|0:0,0:0:0:0:
464,228,36412,1,0,0:0:0:0:
339,274,36612,2,0,P|260:232|216:152,1,180,0|8,0:0|0:0,0:0:0:0:
302,106,37212,1,0,0:0:0:0:
132,112,37412,5,2,0:0:0:0:
132,112,37512,1,2,0:0:0:0:
132,112,37612,1,0,0:0:0:0:
108,208,37812,1,8,0:0:0:0:
84,304,38012,1,0,0:0:0:0:
108,208,38212,1,2,0:1:0:0:
12,235,38412,5,2,0:1:0:0:
108,208,38612,1,8,0:0:0:0:
180,278,38812,1,0,0:0:0:0:
379,273,39012,6,0,P|400:192|380:92,1,180,2|8,0:0|0:0,0:0:0:0:
292,60,39612,1,0,0:0:0:0:
128,98,39812,2,0,P|111:186|133:273,1,180,0|8,0:0|0:0,0:0:0:0:
133,273,40412,1,0,0:0:0:0:
293,173,40612,5,2,0:0:0:0:
293,173,40712,1,0,0:0:0:0:
293,173,40812,1,0,0:0:0:0:
200,234,41012,2,0,P|192:190|212:134,1,90,8|2,0:0|0:0,0:0:0:0:
293,173,41412,1,2,0:1:0:0:
240,300,41612,5,2,0:0:0:0:
293,173,41812,1,8,0:0:0:0:
108,184,42012,1,2,0:1:0:0:
196,360,42212,6,0,P|284:352|376:304,1,180,2|8,0:0|0:0,0:0:0:0:
452,220,42812,1,0,0:0:0:0:
368,56,43012,2,0,P|348:143|369:230,1,180,0|8,0:0|0:0,0:0:0:0:
296,264,43612,1,0,0:0:0:0:
185,180,43812,5,2,0:0:0:0:
185,180,43912,1,2,0:0:0:0:
185,180,44012,2,0,L|93:192,1,90,0|8,0:0|0:0,0:0:0:0:
136,288,44412,1,0,0:0:0:0:
243,117,44612,2,0,L|335:129,1,90,2|2,0:1|0:1,0:0:0:0:
452,220,45012,1,8,0:0:0:0:
296,264,45212,1,0,0:1:0:0:
452,220,45412,6,0,P|464:148|432:32,1,180,2|8,0:0|0:0,0:0:0:0:
292,44,46012,1,0,0:0:0:0:
371,192,46212,2,0,P|283:208|195:193,1,180,0|8,0:0|0:0,0:0:0:0:
195,193,46812,1,0,0:0:0:0:
85,129,47012,6,0,L|133:53,1,90,2|0,0:0|0:0,0:0:0:0:
243,117,47412,2,0,L|195:193,1,90,8|0,0:0|0:0,0:0:0:0:
136,288,47812,2,0,P|184:296|236:284,1,90,2|0,0:0|0:0,0:0:0:0:
376,216,48212,2,0,P|328:208|276:220,1,90,8|2,0:0|0:1,0:0:0:0:
136,288,48612,5,2,0:0:0:0:
156,194,48812,1,0,0:0:0:0:
208,352,49012,1,10,0:0:0:0:
228,258,49212,1,0,0:0:0:0:
116,382,49412,5,2,0:0:0:0:
65,224,49612,1,0,0:0:0:0:
45,318,49812,1,10,0:0:0:0:
228,258,50012,1,0,0:0:0:0:
65,224,50212,5,2,0:0:0:0:
136,288,50412,1,0,0:0:0:0:
176,99,50612,1,10,0:0:0:0:
228,258,50812,1,0,0:0:0:0:
65,224,51012,5,2,0:0:0:0:
248,164,51212,1,0,0:0:0:0:
85,129,51412,1,10,0:0:0:0:
136,288,51612,1,0,0:0:0:0:
228,258,51812,5,2,0:0:0:0:
269,70,52012,1,0,0:0:0:0:
320,229,52212,1,10,0:0:0:0:
320,229,52612,5,2,0:0:0:0:
269,70,52812,1,0,0:0:0:0:
228,258,53012,1,10,0:0:0:0:
176,99,53212,1,0,0:0:0:0:
341,135,53412,5,2,0:0:0:0:
156,194,53612,1,0,0:0:0:0:
269,70,53812,1,10,0:0:0:0:
320,229,54012,1,0,0:0:0:0:
136,288,54212,5,2,0:0:0:0:
65,224,54412,1,0,0:0:0:0:
105,35,54612,1,10,0:0:0:0:
176,99,54812,1,0,0:0:0:0:
320,229,55012,5,2,0:0:0:0:
228,258,55212,1,0,0:0:0:0:
248,164,55412,1,10,0:0:0:0:
300,323,55612,5,0,0:0:0:0:
156,194,55812,1,2,0:0:0:0:
341,135,56012,1,0,0:0:0:0:
228,258,56212,5,10,0:0:0:0:
320,229,56412,1,0,0:0:0:0:
248,164,56612,1,2,0:0:0:0:
248,164,57012,5,10,0:0:0:0:
269,70,57212,1,0,0:0:0:0:
362,41,57412,1,2,0:0:0:0:
432,106,57612,1,0,0:0:0:0:
411,200,57812,1,10,0:0:0:0:
320,229,58012,1,0,0:0:0:0:
248,164,58212,5,2,0:0:0:0:
156,194,58412,1,0,0:0:0:0:
136,288,58612,1,10,0:0:0:0:
208,352,58812,1,0,0:0:0:0:
300,323,59012,1,2,0:0:0:0:
320,229,59212,1,0,0:0:0:0:
248,164,59412,5,10,0:0:0:0:
269,70,59612,1,0,0:0:0:0:
362,41,59812,5,2,0:2:0:0:
411,200,60012,1,0,0:0:0:0:
247,239,60212,5,10,0:2:0:0:
269,70,60412,1,0,0:0:0:0:
156,194,60612,5,2,0:2:0:0:
208,352,60812,1,0,0:0:0:0:
320,229,61012,5,10,0:2:0:0:
208,352,61212,1,2,0:0:0:0:
208,352,61312,1,2,0:0:0:0:
208,352,61412,2,0,L|116:364,1,90,4|0,0:0|0:0,0:0:0:0:
43,258,61812,1,8,0:0:0:0:
248,164,62012,1,0,0:0:0:0:
135,288,62212,6,0,P|112:192|140:104,1,180,2|8,0:0|0:0,0:0:0:0:
244,48,62812,1,2,0:0:0:0:
133,115,63012,1,0,0:0:0:0:
244,48,63212,2,0,L|352:68,1,90,2|8,0:0|0:0,0:0:0:0:
340,290,63612,5,2,0:0:0:0:
340,290,63712,1,2,0:0:0:0:
340,290,63812,1,2,0:0:0:0:
272,136,64012,1,0,0:0:0:0:
384,200,64212,1,8,0:0:0:0:
254,329,64412,6,0,P|202:261|186:157,1,180,2|2,0:0|0:1,0:0:0:0:
244,48,65012,2,0,L|144:56,1,90,8|0,0:0|0:0,0:0:0:0:
10,241,65412,2,0,P|80:188|95:102,1,180,2|8,0:0|0:0,0:0:0:0:
272,96,66012,6,0,P|183:86|95:102,1,180,2|0,0:0|0:0,0:0:0:0:
12,156,66612,1,8,0:0:0:0:
72,312,66812,2,0,P|148:320|256:292,1,180,2|0,0:0|0:0,0:0:0:0:
277,139,67412,1,8,0:0:0:0:
277,139,67512,1,8,0:0:0:0:
277,139,67612,1,8,0:0:0:0:
161,24,67812,6,0,P|235:53|277:158,1,180,4|8,0:0|0:0,0:0:0:0:
147,278,68412,2,0,P|134:197|204:109,1,180,2|2,0:1|0:1,0:0:0:0:
375,158,69012,2,0,P|304:210|217:201,1,180,8|0,0:0|0:0,0:0:0:0:
147,278,69612,5,2,0:0:0:0:
147,278,69712,1,0,0:0:0:0:
147,278,69812,1,8,0:0:0:0:
216,200,70012,1,2,0:1:0:0:
249,298,70212,1,2,0:0:0:0:
184,352,70412,5,2,0:1:0:0:
132,196,70612,1,8,0:0:0:0:
323,239,70812,1,0,0:0:0:0:
249,298,71012,6,0,P|216:208|236:112,1,180,2|8,0:0|0:0,0:0:0:0:
440,72,71612,2,0,P|473:162|453:258,1,180,2|0,0:0|0:0,0:0:0:0:
460,243,72212,1,8,0:0:0:0:
294,76,72412,1,0,0:0:0:0:
312,156,72612,5,4,0:0:0:0:
233,132,72812,1,2,0:0:0:0:
294,76,73012,1,8,0:0:0:0:
312,156,73212,1,0,0:0:0:0:
215,52,73412,5,2,0:0:0:0:
373,100,73612,1,2,0:1:0:0:
252,211,73812,1,8,0:0:0:0:
233,231,73912,1,8,0:0:0:0:
223,257,74012,1,8,0:0:0:0:
224,285,74112,1,8,0:0:0:0:
236,311,74212,6,0,P|344:312|424:272,1,180,4|8,0:0|0:0,0:0:0:0:
450,120,74812,1,0,0:0:0:0:
339,210,75012,2,0,P|293:220|243:206,1,90,2|0,0:0|0:0,0:0:0:0:
296,132,75412,1,8,0:0:0:0:
408,283,75612,2,0,P|436:235|437:200,1,90,2|0,0:0|0:0,0:0:0:0:
316,300,76012,5,2,0:0:0:0:
296,132,76212,1,8,0:0:0:0:
316,300,76412,2,0,P|272:308|224:300,1,90,2|0,0:0|0:0,0:0:0:0:
70,233,76812,2,0,P|108:210|167:205,1,90,0|8,0:0|0:0,0:0:0:0:
144,308,77212,6,0,P|124:220|160:128,1,180,2|2,0:0|0:0,0:0:0:0:
248,112,77812,1,8,0:0:0:0:
344,87,78012,1,0,0:0:0:0:
209,203,78212,2,0,P|173:176|152:136,1,90,2|0,0:0|0:0,0:0:0:0:
275,17,78612,1,8,0:0:0:0:
411,240,78812,6,0,P|432:172|416:64,1,180,2|0,0:0|0:0,0:0:0:0:
275,17,79412,1,8,0:0:0:0:
336,192,79612,2,0,P|248:208|161:186,1,180,2|0,0:0|0:0,0:0:0:0:
24,130,80212,1,10,2:0:0:0:
19,162,80312,1,8,2:0:0:0:
27,195,80412,1,8,2:0:0:0:
45,223,80512,1,8,2:0:0:0:
70,245,80612,6,0,P|132:264|184:368,1,180,6|8,0:0|0:0,0:0:0:0:
85,355,81212,2,0,P|137:285|224:273,1,180,2|0,0:0|0:0,0:0:0:0:
296,352,81812,2,0,P|382:340|435:270,1,180,8|2,0:0|0:0,0:0:0:0:
352,96,82412,5,2,0:1:0:0:
352,96,82512,1,2,0:1:0:0:
352,96,82612,1,8,0:0:0:0:
320,12,82812,1,2,0:1:0:0:
352,96,83012,5,2,0:0:0:0:
296,166,83212,1,0,0:0:0:0:
352,96,83412,1,8,0:0:0:0:
441,110,83612,5,0,0:0:0:0:
263,82,83812,2,0,P|168:76|72:104,1,180,2|8,0:0|0:0,0:0:0:0:
16,204,84412,1,2,0:0:0:0:
16,204,84512,1,2,0:0:0:0:
16,204,84612,1,2,0:0:0:0:
60,320,84812,1,0,0:0:0:0:
16,204,85012,5,8,0:0:0:0:
86,97,85212,1,0,0:0:0:0:
139,224,85412,2,0,P|216:248|328:240,1,180,2|8,0:0|0:0,0:0:0:0:
400,152,86012,2,0,P|432:200|436:248,1,90,2|0,0:0|0:0,0:0:0:0:
284,145,86412,1,2,0:0:0:0:
284,145,86512,1,0,0:0:0:0:
284,145,86612,2,0,P|294:101|321:65,1,90,8|2,0:0|0:1,0:0:0:0:
176,84,87012,6,0,P|83:78|6:36,1,180,6|8,0:0|0:0,0:0:0:0:
7,37,87612,1,0,0:0:0:0:
17,141,87812,2,0,L|24:236,1,90
88,340,88212,2,0,P|124:268|112:160,1,180,2|0,0:0|0:0,0:0:0:0:
48,54,88812,2,0,L|3:35,2,45,0|0|8,0:0|0:0|0:0,0:0:0:0:
97,128,89212,5,2,0:0:0:0:
186,112,89412,1,0,0:0:0:0:
275,97,89612,1,0,0:0:0:0:
259,8,89812,1,8,0:0:0:0:
170,24,90012,5,0,0:0:0:0:
201,201,90212,1,2,0:1:0:0:
201,201,90612,5,10,0:0:0:0:
274,293,90812,2,0,P|316:215|306:128,1,180,0|2,0:0|0:0,0:0:0:0:
213,34,91412,2,0,L|170:24,2,45,8|0|2,0:0|0:0|0:0,0:0:0:0:
305,127,91812,2,0,L|369:143,2,45,2|0|2,0:0|0:0|0:0,0:0:0:0:
201,201,92212,2,0,L|137:185,2,45,8|0|2,0:0|0:0|0:0,0:0:0:0:
390,275,92612,5,2,0:0:0:0:
274,293,92812,1,0,0:0:0:0:
317,183,93012,1,10,0:0:0:0:
390,275,93212,1,0,0:0:0:0:
201,201,93412,6,0,P|176:132|208:28,1,180,6|8,0:0|0:0,0:0:0:0:
204,32,94012,2,0,P|104:24|28:44,1,180
27,44,94612,1,8,0:0:0:0:
32,168,94812,2,0,L|36:268,1,90,2|0,0:0|0:0,0:0:0:0:
160,368,95212,6,0,P|156:328|132:280,1,90,2|8,0:0|0:0,0:0:0:0:
35,257,95612,1,0,0:0:0:0:
134,196,95812,2,0,P|177:182|222:179,1,90,2|0,0:0|0:0,0:0:0:0:
368,288,96212,2,0,P|322:284|274:264,1,90,10|0,0:0|0:0,0:0:0:0:
222,179,96612,5,2,0:0:0:0:
214,78,96812,1,2,0:1:0:0:
315,70,97012,1,8,0:0:0:0:
323,171,97212,1,0,0:0:0:0:
222,179,97412,2,0,P|172:184|120:176,1,90,2|0,0:0|0:0,0:0:0:0:
214,78,97812,5,8,0:0:0:0:
315,70,98012,2,0,P|365:65|417:73,1,90,2|0,0:0|0:0,0:0:0:0:
440,232,98412,1,2,0:0:0:0:
334,318,98612,5,8,0:0:0:0:
392,164,98812,1,2,0:0:0:0:
334,318,99012,2,0,P|244:324|156:296,1,180,0|10,0:0|0:0,0:0:0:0:
44,180,99612,1,2,0:1:0:0:
44,180,99712,1,2,0:1:0:0:
44,180,99812,6,0,B|96:168|140:180|140:180|184:192|236:180,1,180,6|8,0:0|0:0,0:0:0:0:
318,136,100412,2,0,P|330:188|314:236,2,90
224,85,101012,1,8,0:0:0:0:
124,60,101212,2,0,L|12:76,1,90
44,180,101612,6,0,P|48:224|76:272,1,90,0|8,0:0|0:0,0:0:0:0:
221,237,102012,2,0,P|186:208|143:195,1,90
152,336,102412,1,2,0:1:0:0:
152,336,102512,1,2,0:1:0:0:
152,336,102612,2,0,L|248:324,1,90,8|0,0:0|0:0,0:0:0:0:
340,287,103012,6,0,P|346:331|335:374,2,90,0|0|8,0:0|0:0|0:0,0:0:0:0:
421,209,103612,2,0,P|469:282|464:370,1,180
465,371,104212,1,8,0:0:0:0:
340,287,104412,1,2,0:1:0:0:
340,287,104512,1,2,0:1:0:0:
340,287,104612,6,0,L|244:275,1,90
140,160,105012,2,0,L|124:252,1,90,8|0,0:0|0:0,0:0:0:0:
252,176,105412,2,0,L|244:84,1,90
132,48,105812,1,8,0:0:0:0:
132,48,105912,1,2,0:1:0:0:
132,48,106012,1,2,0:1:0:0:
52,200,106212,6,0,P|28:140|44:16,2,180,4|8|0,0:0|0:0|0:0,0:0:0:0:
172,256,107212,1,0,0:0:0:0:
84,364,107412,2,0,L|91:274,1,90,8|0,0:0|0:0,0:0:0:0:
201,351,107812,6,0,P|260:286|256:199,1,180,0|8,0:0|0:0,0:0:0:0:
160,68,108412,2,0,P|154:115|134:159,1,90,2|0,0:0|0:0,0:0:0:0:
280,75,108812,2,0,P|324:71|369:75,1,90,2|8,0:0|0:0,0:0:0:0:
440,28,109212,1,0,0:0:0:0:
466,261,109412,6,0,P|498:178|486:90,1,180,2|8,0:0|0:0,0:0:0:0:
355,163,110012,2,0,P|266:175|183:143,1,180,2|0,0:0|0:0,0:0:0:0:
192,40,110612,1,8,0:0:0:0:
80,80,110812,1,2,0:1:0:0:
80,80,110912,1,2,0:1:0:0:
80,80,111012,6,0,P|63:121|64:166,1,90,2|0,0:0|0:0,0:0:0:0:
208,272,111412,2,0,P|180:237|140:215,1,90,8|0,0:0|0:0,0:0:0:0:
36,340,111812,2,0,P|80:333|118:309,1,90
236,257,112212,2,0,P|280:255|322:272,1,90,8|0,0:0|0:0,0:0:0:0:
460,336,112612,6,0,P|464:260|422:163,1,180,2|8,0:0|0:0,0:0:0:0:
236,257,113212,2,0,L|340:257,1,90,2|2,0:2|0:1,0:0:0:0:
374,120,113612,2,0,L|284:120,1,90,2|8,0:0|0:0,0:0:0:0:
79,79,114012,2,0,P|56:165|67:254,1,180,2|2,0:0|0:1,0:0:0:0:
67,254,114612,1,8,0:0:0:0:
287,290,114812,5,0,0:0:0:0:
140,207,115012,1,2,0:1:0:0:
284,120,115212,1,2,0:1:0:0:
287,290,115412,1,8,0:0:0:0:
287,290,115512,1,2,0:1:0:0:
287,290,115612,1,2,0:1:0:0:
104,360,115812,6,0,P|196:348|280:372,1,180,6|8,0:0|0:0,0:0:0:0:
424,276,116412,1,0,0:0:0:0:
287,290,116612,2,0,P|260:200|289:114,1,180,0|8,0:0|0:0,0:0:0:0:
464,144,117212,1,0,0:0:0:0:
364,352,117412,5,2,0:0:0:0:
364,352,117512,1,2,0:0:0:0:
364,352,117612,1,0,0:0:0:0:
197,290,117812,2,0,L|301:290,1,90,8|0,0:0|0:0,0:0:0:0:
424,276,118212,2,0,P|471:263|509:240,1,90
368,94,118612,2,0,P|324:100|284:120,1,90,8|0,0:0|0:0,0:0:0:0:
197,290,119012,6,0,P|140:216|140:128,1,180,2|8,0:0|0:0,0:0:0:0:
212,40,119612,1,2,0:1:0:0:
329,56,119812,2,0,P|384:125|388:214,1,180,0|8,0:1|0:0,0:0:0:0:
273,300,120412,1,0,0:0:0:0:
388,214,120612,5,2,0:0:0:0:
388,214,120712,1,0,0:0:0:0:
388,214,120812,1,0,0:0:0:0:
258,146,121012,2,0,P|214:155|169:152,1,90,8|2,0:0|0:0,0:0:0:0:
72,56,121412,5,2,0:1:0:0:
35,132,121612,1,2,0:0:0:0:
169,152,121812,1,8,0:0:0:0:
158,69,122012,1,2,0:1:0:0:
96,193,122212,6,0,P|77:274|98:368,1,180,2|8,0:0|0:0,0:0:0:0:
97,367,122812,1,0,0:0:0:0:
184,308,123012,2,0,L|276:300,1,90
379,325,123412,2,0,P|379:281|361:237,1,90,8|0,0:0|0:0,0:0:0:0:
252,191,123812,6,0,P|315:130|403:125,1,180,2|8,0:0|0:0,0:0:0:0:
404,125,124412,1,2,0:1:0:0:
512,164,124612,1,2,0:1:0:0:
432,44,124812,1,0,0:0:0:0:
460,251,125012,1,8,0:0:0:0:
460,251,125112,1,2,0:1:0:0:
460,251,125212,1,2,0:1:0:0:
318,261,125412,6,0,P|266:201|280:96,1,180,2|8,0:0|0:0,0:0:0:0:
360,164,126012,1,0,0:0:0:0:
192,204,126212,2,0,P|96:192|27:146,1,180,0|8,0:0|0:0,0:0:0:0:
28,147,126812,1,2,0:1:0:0:
116,44,127012,6,0,P|160:35|204:38,1,90,2|0,0:0|0:0,0:0:0:0:
360,164,127412,2,0,P|315:156|274:138,1,90,8|0,0:0|0:0,0:0:0:0:
432,44,127812,2,0,P|444:88|439:131,1,90,2|0,0:0|0:0,0:0:0:0:
318,261,128212,1,10,0:2:0:0:
318,261,128312,1,2,0:1:0:0:
318,261,128412,1,2,0:1:0:0:
417,216,128612,6,0,P|427:260|418:304,2,90,4|0|8,0:0|0:0|0:0,0:0:0:0:
294,122,129212,1,0,0:0:0:0:
192,264,129412,2,0,P|104:272|16:244,1,180,2|8,0:0|0:0,0:0:0:0:
168,164,130012,1,0,0:0:0:0:
228,348,130212,5,2,0:0:0:0:
228,348,130312,1,2,0:0:0:0:
228,348,130412,1,0,0:0:0:0:
318,261,130612,2,0,L|422:261,1,90,8|0,0:0|0:0,0:0:0:0:
500,204,131012,2,0,P|510:159|500:108,1,90,2|2,0:1|0:1,0:0:0:0:
335,156,131412,2,0,L|425:156,1,90,8|2,0:0|0:1,0:0:0:0:
512,312,131812,6,0,P|480:328|428:336,1,90,2|0,0:0|0:0,0:0:0:0:
293,325,132212,1,8,0:0:0:0:
256,164,132412,1,0,0:0:0:0:
293,325,132612,2,0,P|334:237|332:144,1,180,0|8,0:0|0:0,0:0:0:0:
334,155,133212,1,2,0:1:0:0:
192,104,133412,6,0,L|152:192,1,90,2|0,0:0|0:0,0:0:0:0:
232,248,133812,1,8,0:0:0:0:
275,80,134012,2,0,L|375:72,1,90,2|0,0:0|0:0,0:0:0:0:
480,60,134412,2,0,P|492:108|484:164,1,90,2|8,0:0|0:0,0:0:0:0:
408,240,134812,1,2,0:0:0:0:
295,165,135012,6,0,P|276:124|275:79,2,90,2|0|8,0:0|0:0|0:0,0:0:0:0:
408,72,135612,1,2,0:1:0:0:
304,268,135812,2,0,P|208:276|124:252,1,180,2|8,0:0|0:0,0:0:0:0:
128,253,136412,1,0,0:0:0:0:
56,168,136612,5,2,0:0:0:0:
56,168,136712,1,2,0:0:0:0:
56,168,136812,2,0,L|72:60,1,90,0|8,0:0|0:0,0:0:0:0:
160,20,137212,1,0,0:0:0:0:
244,128,137412,2,0,L|148:128,1,90,2|2,0:1|0:1,0:0:0:0:
264,24,137812,2,0,L|368:24,1,90,8|0,0:0|0:0,0:0:0:0:
480,104,138212,6,0,P|512:188|512:280,1,180,2|8,0:0|0:0,0:0:0:0:
330,321,138812,1,0,0:0:0:0:
436,348,139012,2,0,P|436:304|412:248,1,90
353,122,139412,1,8,0:0:0:0:
353,122,139512,1,2,0:1:0:0:
353,122,139612,1,2,0:1:0:0:
248,196,139812,6,0,L|260:296,1,90,2|0,0:0|0:0,0:0:0:0:
364,212,140212,2,0,L|352:112,1,90,8|0,0:0|0:0,0:0:0:0:
264,32,140612,2,0,L|276:132,1,90,2|0,0:0|0:0,0:0:0:0:
259,285,141012,1,8,0:0:0:0:
259,285,141112,1,2,0:1:0:0:
259,285,141212,1,2,0:1:0:0:
358,169,141412,5,2,0:0:0:0:
465,159,141612,1,0,0:0:0:0:
474,266,141812,1,10,0:0:0:0:
366,275,142012,1,0,0:0:0:0:
250,178,142212,5,2,0:0:0:0:
259,285,142412,1,0,0:0:0:0:
366,275,142612,1,10,0:0:0:0:
358,169,142812,1,0,0:0:0:0:
259,285,143012,5,2,0:0:0:0:
152,295,143212,1,0,0:0:0:0:
143,188,143412,1,10,0:0:0:0:
250,178,143612,1,0,0:0:0:0:
366,275,143812,5,2,0:0:0:0:
474,266,144012,1,0,0:0:0:0:
465,159,144212,1,10,0:0:0:0:
358,169,144412,1,0,0:0:0:0:
143,188,144612,5,2,0:0:0:0:
152,295,144812,1,0,0:0:0:0:
366,275,145012,1,10,0:0:0:0:
358,169,145212,1,0,0:0:0:0:
259,285,145412,5,2,0:0:0:0:
250,178,145612,1,0,0:0:0:0:
465,159,145812,1,10,0:0:0:0:
474,266,146012,1,0,0:0:0:0:
358,169,146212,5,2,0:0:0:0:
366,275,146412,1,0,0:0:0:0:
152,295,146612,1,10,0:0:0:0:
143,188,146812,1,0,0:0:0:0:
44,304,147012,5,2,0:0:0:0:
44,304,147212,1,0,0:0:0:0:
133,80,147412,1,10,0:0:0:0:
133,80,147612,1,0,0:0:0:0:
325,133,147812,5,2,0:0:0:0:
408,175,148012,1,0,0:0:0:0:
245,183,148212,1,8,0:0:0:0:
401,81,148412,5,0,0:0:0:0:
329,226,148612,1,2,0:0:0:0:
240,88,148812,1,0,0:0:0:0:
408,175,149012,5,10,0:0:0:0:
245,183,149212,1,0,0:0:0:0:
318,38,149412,1,2,0:0:0:0:
318,38,149812,5,10,0:0:0:0:
401,81,150012,1,0,0:0:0:0:
408,175,150212,1,2,0:0:0:0:
329,226,150412,1,0,0:0:0:0:
245,183,150612,1,10,0:0:0:0:
240,88,150812,1,0,0:0:0:0:
325,133,151012,5,2,0:0:0:0:
329,226,151212,1,0,0:0:0:0:
251,279,151412,1,10,0:0:0:0:
167,236,151612,1,0,0:0:0:0:
162,142,151812,1,2,0:0:0:0:
240,88,152012,1,0,0:0:0:0:
251,279,152212,5,10,0:0:0:0:
240,88,152412,1,0,0:0:0:0:
329,226,152612,5,2,2:0:0:0:
162,142,152812,1,0,2:0:0:0:
325,133,153012,5,10,0:0:0:0:
167,236,153212,1,0,2:0:0:0:
329,226,153412,5,2,2:0:0:0:
88,192,153612,1,0,2:0:0:0:
240,89,153812,5,10,0:0:0:0:
175,325,154012,1,2,0:0:0:0:
175,325,154112,1,2,0:0:0:0:
175,325,154212,6,0,L|167:236,1,90,6|0,0:0|0:0,0:0:0:0:
79,102,154612,2,0,L|89:202,1,90,8|0,0:0|0:0,0:0:0:0:
72,360,155012,6,0,P|20:292|0:200,1,180,2|8,0:0|0:0,0:0:0:0:
128,80,155612,2,0,L|38:80,1,90,2|0,0:0|0:0,0:0:0:0:
102,195,156012,2,0,L|192:195,1,90,2|8,0:0|0:0,0:0:0:0:
268,144,156412,2,0,P|282:195|264:252,1,90,2|0,0:0|0:0,0:0:0:0:
189,319,156812,5,2,0:0:0:0:
189,319,156912,1,0,0:0:0:0:
189,319,157012,1,8,0:0:0:0:
336,264,157212,2,0,L|441:256,1,90,2|0,0:0|0:0,0:0:0:0:
475,336,157612,1,2,0:1:0:0:
500,192,157812,2,0,P|478:145|444:107,1,90,8|0,0:0|0:0,0:0:0:0:
192,195,158212,6,0,P|236:120|316:76,1,180,2|8,0:0|0:0,0:0:0:0:
500,192,158812,2,0,P|456:204|404:200,1,90,2|0,0:0|0:0,0:0:0:0:
336,264,159212,1,0,0:0:0:0:
315,76,159412,1,8,0:0:0:0:
336,264,159612,6,0,P|320:224|316:176,1,90,2|0,0:0|0:0,0:0:0:0:
500,192,160012,1,0,0:0:0:0:
376,344,160212,1,8,0:0:0:0:
376,344,160312,1,8,0:0:0:0:
376,344,160412,1,8,0:0:0:0:
188,344,160612,6,0,P|240:268|240:168,1,180,4|8,0:0|0:0,0:0:0:0:
123,64,161212,2,0,P|120:153|163:231,1,180,2|2,0:1|0:1,0:0:0:0:
348,231,161812,2,0,P|391:153|388:64,1,180,8|2,0:0|0:1,0:0:0:0:
252,20,162412,5,2,0:0:0:0:
208,136,162612,1,8,0:0:0:0:
252,20,162812,1,0,0:1:0:0:
289,159,163012,1,2,0:0:0:0:
252,20,163212,1,2,0:1:0:0:
228,216,163412,1,8,0:0:0:0:
252,20,163612,1,2,0:1:0:0:
13,106,163812,6,0,P|93:67|183:59,1,180,2|8,0:0|0:0,0:0:0:0:
448,272,164412,2,0,P|367:310|277:318,1,180,2|2,0:0|0:1,0:0:0:0:
48,184,165012,2,0,L|148:184,1,90,8|0,0:0|0:0,0:0:0:0:
204,348,165412,6,0,L|114:348,2,90,4|2|8,0:0|0:1|0:0,0:0:0:0:
55,272,166012,2,0,P|44:228|48:183,1,90,2|2,0:0|0:1,0:0:0:0:
156,88,166412,1,2,0:0:0:0:
238,148,166612,5,8,0:0:0:0:
253,118,166712,1,8,0:0:0:0:
257,85,166812,1,8,0:0:0:0:
251,52,166912,1,8,0:0:0:0:
234,23,167012,1,4,0:0:0:0:
80,108,167212,1,2,0:1:0:0:
238,148,167412,5,8,0:0:0:0:
100,32,167612,1,2,0:0:0:0:
64,212,167812,2,0,P|100:224|156:228,1,90,2|0,0:0|0:0,0:0:0:0:
392,128,168212,1,8,0:0:0:0:
265,232,168412,6,0,P|246:192|238:148,1,90,2|0,0:0|0:0,0:0:0:0:
452,52,168812,1,2,0:0:0:0:
344,200,169012,1,8,0:0:0:0:
452,52,169212,2,0,P|474:104|480:148,1,90,2|0,0:0|0:0,0:0:0:0:
452,328,169612,2,0,P|474:276|480:232,1,90,2|8,0:0|0:0,0:0:0:0:
360,368,170012,6,0,P|272:372|180:336,1,180,2|2,0:0|0:0,0:0:0:0:
260,180,170612,2,0,L|264:272,1,90,8|0,0:0|0:0,0:0:0:0:
332,128,171012,2,0,P|296:100|249:90,1,90,2|0,0:0|0:0,0:0:0:0:
48,196,171412,1,8,0:0:0:0:
128,32,171612,6,0,P|160:108|156:212,1,180,2|2,0:0|0:0,0:0:0:0:
48,196,172212,1,8,0:0:0:0:
94,314,172412,2,0,P|183:309|263:269,1,180,2|2,0:0|0:0,0:0:0:0:
366,197,173012,5,8,0:0:0:0:
380,227,173112,1,8,0:0:0:0:
387,260,173212,1,8,0:0:0:0:
386,293,173312,1,8,0:0:0:0:
376,325,173412,1,4,0:0:0:0:
263,269,173612,5,2,0:0:0:0:
332,128,173812,1,8,0:0:0:0:
263,269,174012,2,0,P|224:192|228:88,1,180,2|0,0:0|0:0,0:0:0:0:
412,24,174612,2,0,P|451:101|447:205,1,180,8|2,0:0|0:0,0:0:0:0:
263,269,175212,5,2,0:1:0:0:
263,269,175312,1,2,0:1:0:0:
263,269,175412,1,8,0:0:0:0:
176,192,175612,1,0,0:0:0:0:
263,269,175812,1,2,0:0:0:0:
124,272,176012,1,2,0:1:0:0:
263,269,176212,1,8,0:0:0:0:
175,345,176412,1,2,0:1:0:0:
336,324,176612,6,0,P|348:252|316:144,1,180,2|8,0:0|0:0,0:0:0:0:
168,63,177212,2,0,P|234:123|320:150,1,180,2|2,0:0|0:0,0:0:0:0:
319,150,177712,1,2,0:0:0:0:
319,150,177812,1,8,0:0:0:0:
416,56,178012,1,0,0:0:0:0:
451,255,178212,5,2,0:0:0:0:
466,225,178312,1,2,0:1:0:0:
476,193,178412,1,2,0:1:0:0:
479,159,178512,1,2,0:1:0:0:
475,126,178612,1,8,0:0:0:0:
416,56,178812,1,2,0:0:0:0:
319,150,179012,5,2,0:0:0:0:
285,154,179112,1,2,0:1:0:0:
252,151,179212,1,2,0:1:0:0:
219,141,179312,1,2,0:1:0:0:
190,126,179412,1,8,0:0:0:0:
157,118,179512,1,2,0:1:0:0:
123,117,179612,1,2,0:1:0:0:
91,123,179712,1,2,0:1:0:0:
59,137,179812,6,0,P|52:184|64:228,1,90,4|0,0:0|0:0,0:0:0:0:
232,304,180212,2,0,P|194:274|150:262,1,90,8|0,0:0|0:0,0:0:0:0:
16,328,180612,2,0,P|53:357|97:369,1,90,2|2,0:1|0:1,0:0:0:0:
300,360,181012,6,0,P|332:304|336:184,1,180,10|2,0:0|0:1,0:0:0:0:
216,64,181612,2,0,P|184:120|180:240,1,180,2|2,0:0|0:1,0:0:0:0:
232,304,182212,1,2,0:1:0:0:
300,360,182412,1,2,0:1:0:0:
330,188,182612,1,8,0:0:0:0:
247,218,182812,5,2,0:1:0:0:
382,330,183012,2,0,P|402:288|394:237,1,90,2|0,0:0|0:0,0:0:0:0:
232,304,183412,5,8,0:0:0:0:
447,173,183612,2,0,P|477:208|482:259,1,90,2|0,0:0|0:0,0:0:0:0:
300,360,184012,5,0,0:0:0:0:
256,136,184212,2,0,P|214:146|177:177,1,90,8|0,0:0|0:0,0:0:0:0:
160,348,184612,2,0,P|171:306|163:259,1,90,2|0,0:0|0:0,0:0:0:0:
24,160,185012,2,0,P|54:190|99:207,1,90,8|0,0:0|0:0,0:0:0:0:
256,136,185412,5,2,0:0:0:0:
162,163,185612,1,0,0:0:0:0:
186,67,185812,1,8,0:0:0:0:
232,232,186012,1,0,0:0:0:0:
392,188,186212,6,0,P|404:148|400:84,1,90,6|0,0:0|0:0,0:0:0:0:
271,42,186612,2,0,P|227:48|186:67,1,90,8|0,0:0|0:0,0:0:0:0:
232,232,187012,1,2,0:1:0:0:
162,163,187212,1,0,0:0:0:0:
256,136,187412,2,0,P|296:124|340:96,1,90,8|0,0:0|0:0,0:0:0:0:
440,120,187812,6,0,P|460:172|460:216,1,90,2|0,0:1|0:0,0:0:0:0:
512,308,188212,2,0,P|466:340|424:352,1,90,8|0,0:0|0:0,0:0:0:0:
304,361,188612,2,0,P|298:305|309:263,1,90,2|0,0:1|0:0,0:0:0:0:
344,120,189012,2,0,L|381:214,1,90,8|0,0:0|0:0,0:0:0:0:
268,196,189412,6,0,P|176:192|88:216,1,180,6|8,0:0|0:0,0:0:0:0:
32,288,190012,2,0,P|4:248|0:192,1,90,0|2,0:0|0:1,0:0:0:0:
112,53,190412,1,0,0:0:0:0:
144,145,190612,1,8,0:0:0:0:
48,126,190812,1,0,0:0:0:0:
208,72,191012,6,0,L|312:64,1,90,2|0,0:0|0:0,0:0:0:0:
388,12,191412,2,0,P|404:60|396:112,1,90,10|0,0:0|0:0,0:0:0:0:
496,12,191812,2,0,P|507:63|500:115,1,90,2|0,0:0|0:0,0:0:0:0:
420,184,192212,2,0,L|316:176,1,90,10|0,0:0|0:0,0:0:0:0:
316,287,192612,6,0,L|420:295,2,90,6|0|8,0:0|0:0|0:0,0:0:0:0:
220,336,193212,2,0,P|196:272|204:156,1,180,2|0,0:0|0:1,0:0:0:0:
264,84,193812,2,0,P|296:120|312:168,1,90,8|0,0:0|0:0,0:0:0:0:
168,68,194212,6,0,L|60:64,1,90,2|0,0:0|0:0,0:0:0:0:
39,192,194612,2,0,L|151:189,1,90,8|0,0:0|0:0,0:0:0:0:
280,176,195012,1,2,0:1:0:0:
280,176,195212,1,0,0:0:0:0:
316,20,195412,2,0,P|340:64|340:116,1,90,8|0,0:0|0:0,0:0:0:0:
296,252,195812,6,0,L|184:260,1,90,6|0,0:0|0:0,0:0:0:0:
32,288,196212,1,8,0:0:0:0:
164,192,196412,1,0,0:0:0:0:
132,356,196612,1,2,0:1:0:0:
116,267,196812,1,0,0:0:0:0:
206,258,197012,2,0,P|216:304|208:356,1,90,8|0,0:0|0:0,0:0:0:0:
32,288,197412,5,2,0:1:0:0:
440,280,197812,1,8,0:0:0:0:
272,20,198212,1,0,0:0:0:0:
211,346,198612,1,8,0:0:0:0:
480,56,199012,6,0,L|492:148,1,90,6|0,0:0|0:0,0:0:0:0:
464,244,199412,1,8,0:0:0:0:
390,143,199612,2,0,P|302:129|213:144,1,180,2|0,0:0|0:0,0:0:0:0:
210,43,200212,1,8,0:0:0:0:
123,95,200412,6,0,P|104:55|100:11,1,90,0|2,0:0|0:0,0:0:0:0:
214,144,200812,2,0,P|210:188|191:228,1,90,2|8,0:1|0:0,0:0:0:0:
96,276,201212,2,0,P|55:211|48:104,1,180,2|2,0:1|0:1,0:0:0:0:
176,36,201812,2,0,L|276:32,1,90,8|0,0:0|0:0,0:0:0:0:
392,160,202212,5,4,0:0:0:0:
392,160,202412,2,0,L|292:156,1,90,0|8,0:0|0:0,0:0:0:0:
213,144,202812,2,0,P|172:224|184:324,1,180,2|2,0:0|0:0,0:0:0:0:
178,311,203412,1,8,0:0:0:0:
108,192,203612,1,2,0:1:0:0:
256,236,203812,6,0,L|360:236,1,90,2|0,0:1|0:0,0:0:0:0:
482,160,204212,2,0,L|392:160,1,90,8|0,0:0|0:0,0:0:0:0:
256,236,204612,1,2,0:1:0:0:
176,232,204812,1,0,0:0:0:0:
299,161,205012,1,8,0:0:0:0:
336,233,205212,1,0,0:0:0:0:
213,304,205412,6,0,P|160:316|104:312,1,90,6|0,0:0|0:0,0:0:0:0:
139,160,205812,1,8,0:0:0:0:
293,308,206012,2,0,P|328:268|336:224,1,90,2|0,0:0|0:1,0:0:0:0:
262,96,206412,1,0,0:0:0:0:
176,232,206612,2,0,P|131:236|88:224,1,90,8|0,0:0|0:0,0:0:0:0:
102,89,207012,6,0,P|146:84|189:96,1,90,2|0,0:1|0:0,0:0:0:0:
389,168,207412,1,8,0:0:0:0:
389,168,207612,2,0,L|299:168,1,90,2|0,0:1|0:1,0:0:0:0:
189,96,208012,1,2,0:1:0:0:
308,16,208212,2,0,P|333:67|336:112,1,90,8|0,0:0|0:0,0:0:0:0:
293,308,208612,6,0,P|268:257|265:212,1,90,6|0,0:0|0:0,0:0:0:0:
389,168,209012,1,8,0:0:0:0:
389,168,209212,2,0,P|412:252|396:352,1,180,2|2,0:0|0:0,0:0:0:0:
293,308,209812,1,8,0:0:0:0:
293,308,210012,1,0,0:0:0:0:
389,168,210212,6,0,L|288:184,1,90,2|0,0:0|0:0,0:0:0:0:
96,240,210612,2,0,L|189:268,1,90,8|0,0:0|0:0,0:0:0:0:
399,342,211012,1,2,0:1:0:0:
375,233,211212,1,2,0:0:0:0:
293,308,211412,1,8,0:0:0:0:
293,308,211512,1,0,0:0:0:0:
293,308,211612,1,2,0:0:0:0:
184,304,211812,6,0,P|88:316|12:356,1,180,6|8,0:0|0:0,0:0:0:0:
15,354,212412,2,0,L|0:260,1,90,2|0,0:0|0:0,0:0:0:0:
81,151,212812,2,0,L|96:240,1,90,2|8,0:0|0:0,0:0:0:0:
177,126,213212,2,0,L|162:37,1,90,2|0,0:0|0:0,0:0:0:0:
66,62,213612,5,0,0:0:0:0:
177,126,213812,2,0,P|224:132|281:118,1,90,10|0,0:0|0:0,0:0:0:0:
352,56,214212,2,0,P|370:100|372:159,1,90,2|0,0:1|0:0,0:0:0:0:
376,244,214612,1,10,0:0:0:0:
288,278,214812,1,2,0:0:0:0:
448,184,215012,6,0,P|472:264|428:364,1,180,6|8,0:0|0:0,0:0:0:0:
272,364,215612,2,0,P|272:314|297:267,1,90,2|0,0:1|0:0,0:0:0:0:
376,244,216012,1,2,0:1:0:0:
376,244,216112,1,2,0:1:0:0:
376,244,216212,2,0,P|344:200|296:184,1,90,8|0,0:0|0:0,0:0:0:0:
147,218,216612,6,0,L|237:218,1,90,2|0,0:1|0:0,0:0:0:0:
158,133,217012,2,0,P|109:142|72:176,1,90,8|0,0:0|0:0,0:0:0:0:
226,81,217412,2,0,P|184:52|134:50,1,90,2|0,0:1|0:0,0:0:0:0:
310,92,217812,1,8,0:0:0:0:
310,92,217912,1,2,0:1:0:0:
310,92,218012,1,2,0:1:0:0:
236,208,218212,6,0,L|128:220,1,90,4|0,0:0|0:0,0:0:0:0:
146,217,218512,1,2,0:0:0:0:
146,217,218612,1,8,0:0:0:0:
52,308,218812,2,0,L|160:320,1,90,2|0,0:0|0:0,0:0:0:0:
240,372,219212,2,0,P|252:324|245:284,1,90,2|8,0:0|0:0,0:0:0:0:
328,228,219612,1,2,0:0:0:0:
328,228,219712,1,2,0:0:0:0:
328,228,219812,6,0,P|372:228|420:216,1,90,2|0,0:0|0:0,0:0:0:0:
321,93,220212,2,0,P|277:93|229:105,1,90,8|0,0:0|0:0,0:0:0:0:
144,176,220612,2,0,P|144:220|156:268,1,90
338,316,221012,2,0,P|338:272|326:224,1,90,8|2,0:0|0:0,0:0:0:0:
204,84,221412,6,0,P|120:84|8:44,1,180,6|8,0:0|0:0,0:0:0:0:
29,55,222012,2,0,L|4:148,1,90,2|0,0:0|0:0,0:0:0:0:
120,262,222412,2,0,L|143:175,1,90,2|8,0:0|0:0,0:0:0:0:
124,40,222812,1,2,0:0:0:0:
124,40,222912,1,2,0:0:0:0:
124,40,223012,6,0,P|164:28|212:24,1,90,2|2,0:0|0:1,0:0:0:0:
312,72,223412,1,8,0:0:0:0:
228,196,223612,2,0,P|184:192|143:174,2,90,2|2|2,0:0|0:0|0:1,0:0:0:0:
416,172,224212,5,8,0:0:0:0:
316,296,224412,1,2,0:0:0:0:
316,296,224512,1,2,0:0:0:0:
316,296,224612,2,0,P|308:236|312:188,1,90,6|0,0:0|0:0,0:0:0:0:
512,128,225012,5,8,0:0:0:0:
422,261,225212,1,2,0:0:0:0:
422,261,225312,1,2,0:0:0:0:
422,261,225412,2,0,P|414:201|418:153,1,90,2|0,0:0|0:0,0:0:0:0:
512,128,225812,1,8,0:0:0:0:
309,206,226012,1,2,0:0:0:0:
309,206,226412,6,0,L|201:206,1,90,2|8,0:0|0:0,0:0:0:0:
154,293,226812,2,0,P|213:228|209:141,1,180,2|2,0:0|0:0,0:0:0:0:
84,96,227412,1,8,0:0:0:0:
84,96,227512,1,2,0:1:0:0:
84,96,227612,1,2,0:1:0:0:
147,198,227812,6,0,P|226:235|309:206,1,180,4|8,0:0|0:0,0:0:0:0:
324,24,228412,2,0,P|251:74|236:160,1,180,2|2,0:0|0:0,0:0:0:0:
388,244,229012,1,8,0:0:0:0:
242,311,229212,5,2,0:1:0:0:
242,311,229312,1,2,0:1:0:0:
242,311,229412,2,0,L|153:292,2,90,4|0|8,0:0|0:0|0:0,0:0:0:0:
372,331,230012,2,0,P|385:288|388:244,1,90,2|0,0:0|0:0,0:0:0:0:
252,72,230412,2,0,P|238:114|236:159,1,90,2|8,0:0|0:0,0:0:0:0:
236,159,230712,1,2,0:1:0:0:
236,159,230812,1,2,0:1:0:0:
466,214,231012,6,0,P|402:152|315:132,1,180,4|8,0:0|0:0,0:0:0:0:
212,236,231612,2,0,P|122:238|45:195,1,180,2|0,0:0|0:0,0:0:0:0:
100,8,232212,2,0,P|149:81|149:178,1,180,8|0,0:0|0:0,0:0:0:0:
28,324,232812,5,2,0:1:0:0:
28,324,232912,1,2,0:1:0:0:
28,324,233012,2,0,L|132:320,1,90,8|2,0:0|0:0,0:0:0:0:
259,321,233412,2,0,L|348:324,1,90,0|2,0:0|0:0,0:0:0:0:
466,214,233812,2,0,L|376:217,1,90,8|0,0:0|0:0,0:0:0:0:
259,321,234212,6,0,P|224:240|232:148,1,180,2|8,0:0|0:0,0:0:0:0:
292,36,234812,2,0,P|315:74|324:132,2,90,2|0|2,0:0|0:0|0:0,0:0:0:0:
292,36,235412,1,8,0:0:0:0:
199,76,235612,6,0,P|155:75|111:65,1,90,2|0,0:0|0:0,0:0:0:0:
16,60,236012,1,0,0:0:0:0:
45,195,236212,2,0,P|88:185|133:184,1,90,10|0,0:0|0:0,0:0:0:0:
284,256,236612,2,0,P|340:244|380:220,1,90,2|0,0:0|0:0,0:0:0:0:
292,36,237012,2,0,P|296:80|289:124,1,90,10|0,0:0|0:0,0:0:0:0:
248,360,237412,6,0,P|216:312|208:188,1,180,4|8,0:0|0:0,0:0:0:0:
288,125,238012,1,2,0:0:0:0:
288,125,238112,1,2,0:0:0:0:
288,125,238212,2,0,P|205:88|120:132,1,180,2|8,0:0|0:0,0:0:0:0:
128,122,238812,6,0,L|96:32,1,90,2|0,0:0|0:0,0:0:0:0:
45,195,239212,2,0,L|77:285,1,90,2|8,0:0|0:0,0:0:0:0:
32,104,239612,1,2,0:0:0:0:
140,212,239812,2,0,P|184:196|224:152,2,90,2|0|8,0:0|0:0|0:0,0:0:0:0:
180,44,240412,5,2,0:0:0:0:
180,44,240512,1,2,0:0:0:0:
180,44,240612,2,0,P|268:48|356:80,1,180,2|8,0:0|0:0,0:0:0:0:
480,168,241212,2,0,P|428:172|388:164,1,90,2|0,0:0|0:0,0:0:0:0:
308,176,241612,2,0,P|304:212|316:268,1,90,2|8,0:0|0:0,0:0:0:0:
432,332,242012,6,0,P|387:339|343:335,1,90,2|0,0:0|0:0,0:0:0:0:
184,284,242412,1,2,0:0:0:0:
314,264,242612,1,8,0:0:0:0:
314,264,242712,1,2,0:1:0:0:
314,264,242812,1,2,0:1:0:0:
256,360,243012,5,2,0:1:0:0:
116,216,243212,1,2,0:0:0:0:
106,248,243312,1,2,0:1:0:0:
104,281,243412,1,8,0:0:0:0:
109,315,243512,1,2,0:1:0:0:
121,346,243612,1,2,0:0:0:0:
314,264,243812,5,6,0:0:0:0:
85,147,244212,1,10,0:0:0:0:
419,235,244612,1,2,0:0:0:0:
104,281,245012,1,10,0:0:0:0:
408,103,245412,5,2,0:0:0:0:
212,355,245812,1,10,0:0:0:0:
300,21,246212,1,2,0:0:0:0:
340,338,246612,1,10,0:0:0:0:
167,40,247012,5,2,0:0:0:0:
419,235,247412,1,10,0:0:0:0:
104,281,247812,1,2,0:0:0:0:
408,103,248212,1,10,0:0:0:0:
212,355,248612,5,2,0:0:0:0:
300,21,249012,1,10,0:0:0:0:
340,338,249412,1,2,0:0:0:0:
167,40,249812,1,10,0:0:0:0:
282,244,250212,5,2,0:0:0:0:
213,149,250412,1,0,0:0:0:0:
324,185,250612,1,10,0:0:0:0:
213,221,250812,1,0,0:0:0:0:
282,127,251012,5,2,0:0:0:0:
282,255,251212,1,0,0:0:0:0:
206,151,251412,1,10,0:0:0:0:
328,190,251612,1,0,0:0:0:0:
206,230,251812,5,2,0:0:0:0:
282,127,252012,1,0,0:0:0:0:
282,266,252212,1,10,0:0:0:0:
199,152,252412,1,0,0:0:0:0:
332,196,252612,5,2,0:0:0:0:
199,239,252812,1,0,0:0:0:0:
282,127,253012,1,10,0:0:0:0:
282,266,253212,1,0,0:0:0:0:
171,66,253412,5,2,0:0:0:0:
171,66,253612,1,0,0:0:0:0:
385,117,253812,1,10,0:0:0:0:
385,117,254012,1,0,0:0:0:0:
333,331,254212,1,2,0:0:0:0:
333,331,254412,1,0,0:0:0:0:
120,279,254612,1,10,0:0:0:0:
120,279,254812,1,0,0:0:0:0:
312,188,255012,5,2,0:0:0:0:
197,177,255212,1,0,0:0:0:0:
249,238,255412,5,10,0:0:0:0:
260,122,255612,1,0,0:0:0:0:
324,268,255812,5,2,0:0:0:0:
181,95,256012,1,0,0:0:0:0:
170,252,256212,5,10,0:0:0:0:
343,109,256412,1,2,0:0:0:0:
343,109,256512,1,2,0:0:0:0:
343,109,256612,6,0,L|333:8,1,90,6|0,0:0|0:0,0:0:0:0:
190,6,257012,2,0,L|181:95,1,90,10|0,0:0|0:0,0:0:0:0:
170,252,257412,2,0,P|244:236|348:248,1,180,2|8,0:0|0:0,0:0:0:0:
488,292,258012,2,0,P|452:312|400:320,1,90,2|0,0:0|0:0,0:0:0:0:
248,320,258412,5,2,0:0:0:0:
197,177,258612,1,8,0:0:0:0:
248,320,258812,2,0,P|292:256|304:152,1,180,2|0,0:0|0:0,0:0:0:0:
222,70,259412,1,8,0:0:0:0:
335,56,259612,5,2,0:1:0:0:
335,56,259712,1,2,0:1:0:0:
335,56,259812,2,0,L|451:48,1,90,4|2,0:0|0:0,0:0:0:0:
504,116,260212,2,0,P|516:176|508:224,1,90,8|0,0:0|0:0,0:0:0:0:
402,334,260612,6,0,P|383:248|428:172,1,180,2|8,0:0|0:0,0:0:0:0:
402,334,261212,2,0,P|316:352|239:308,1,180,2|0,0:0|0:0,0:0:0:0:
336,256,261812,1,8,0:0:0:0:
172,352,262012,2,0,P|152:260|176:172,1,180,2|0,0:0|0:0,0:0:0:0:
335,56,262612,1,8,0:0:0:0:
335,56,262712,1,8,0:0:0:0:
335,56,262812,1,8,0:0:0:0:
196,108,263012,6,0,P|100:100|20:60,1,180,4|8,0:0|0:0,0:0:0:0:
3,231,263612,2,0,P|88:199|188:200,1,180,2|2,0:1|0:1,0:0:0:0:
336,56,264212,2,0,P|344:151|312:244,1,180,8|2,0:0|0:0,0:0:0:0:
152,348,264812,5,2,0:0:0:0:
152,348,264912,1,2,0:0:0:0:
152,348,265012,1,8,0:0:0:0:
177,199,265212,2,0,P|205:245|209:291,1,90,2|0,0:0|0:0,0:0:0:0:
120,268,265612,1,2,0:0:0:0:
307,252,265812,2,0,P|294:305|264:339,1,90,8|2,0:0|0:0,0:0:0:0:
260,180,266212,6,0,P|332:176|392:256,1,180,0|8,0:0|0:0,0:0:0:0:
218,255,266812,2,0,P|178:194|217:102,1,180
307,252,267412,2,0,P|274:316|175:328,1,180,8|2,0:0|0:0,0:0:0:0:
88,292,268012,5,2,0:0:0:0:
88,292,268112,1,2,0:0:0:0:
88,292,268212,1,8,0:0:0:0:
85,197,268412,1,2,0:0:0:0:
5,247,268612,1,2,0:1:0:0:
103,85,268812,1,2,0:0:0:0:
210,156,269012,5,8,0:0:0:0:
226,120,269112,1,8,0:0:0:0:
230,81,269212,1,8,0:0:0:0:
223,42,269312,1,8,0:0:0:0:
205,8,269412,1,4,0:0:0:0:
103,85,269612,5,0,0:0:0:0:
175,227,269812,2,0,P|223:231|267:211,1,90,8|0,0:0|0:0,0:0:0:0:
344,24,270212,2,0,P|364:108|344:208,1,180,2|8,0:0|0:0,0:0:0:0:
315,300,270812,2,0,P|354:304|421:277,1,90,2|0,0:0|0:0,0:0:0:0:
496,256,271212,5,2,0:0:0:0:
464,124,271412,1,8,0:0:0:0:
496,256,271612,2,0,P|501:300|491:344,1,90,2|0,0:0|0:0,0:0:0:0:
315,300,272012,1,2,0:0:0:0:
315,300,272112,1,2,0:0:0:0:
315,300,272212,1,8,0:0:0:0:
217,231,272412,6,0,P|124:224|40:246,1,180,2|2,0:0|0:0,0:0:0:0:
41,245,273012,2,0,P|26:203|26:158,1,90,8|0,0:0|0:0,0:0:0:0:
91,359,273412,2,0,P|128:278|125:189,1,180,2|8,0:0|0:0,0:0:0:0:
251,61,274012,6,0,P|214:142|217:231,1,180,2|0,0:0|0:0,0:0:0:0:
315,300,274612,1,8,0:0:0:0:
384,192,274812,2,0,L|492:180,1,90,2|0,0:0|0:0,0:0:0:0:
436,272,275212,1,2,0:0:0:0:
328,116,275412,1,8,0:0:0:0:
328,116,275512,1,8,0:0:0:0:
328,116,275612,1,8,0:0:0:0:
328,116,275712,1,8,0:0:0:0:
328,116,275812,5,4,0:0:0:0:
251,61,276012,1,2,0:0:0:0:
291,203,276212,1,8,0:0:0:0:
251,60,276412,2,0,P|176:109|142:191,1,180,2|0,0:0|0:0,0:0:0:0:
262,370,277012,2,0,P|302:290|291:203,1,180,8|2,0:0|0:0,0:0:0:0:
157,267,277612,5,2,0:1:0:0:
157,267,277712,1,2,0:1:0:0:
157,267,277812,1,8,0:0:0:0:
291,203,278012,1,0,0:0:0:0:
157,267,278212,1,2,0:0:0:0:
291,203,278412,5,0,0:0:0:0:
251,60,278612,1,8,0:0:0:0:
291,203,278812,1,0,0:0:0:0:
436,272,279012,6,0,P|376:216|368:120,1,180,2|8,0:0|0:0,0:0:0:0:
251,60,279612,2,0,B|199:48|155:60|155:60|111:72|59:60,1,180,2|0,0:0|0:0,0:0:0:0:
112,205,280212,2,0,B|164:217|208:205|208:205|252:193|291:203,1,180,8|2,0:0|0:0,0:0:0:0:
360,328,280812,1,2,0:1:0:0:
360,328,280912,1,2,0:1:0:0:
360,328,281012,1,8,0:0:0:0:
360,328,281112,1,2,0:1:0:0:
360,328,281212,1,2,0:1:0:0:
360,328,281312,1,2,0:1:0:0:
360,328,281412,5,8,0:0:0:0:
328,339,281512,1,2,0:1:0:0:
295,346,281612,1,8,0:0:0:0:
261,347,281712,1,2,0:1:0:0:
228,343,281812,1,8,0:0:0:0:
195,333,281912,1,8,0:0:0:0:
165,319,282012,1,8,0:0:0:0:
137,300,282112,1,8,0:0:0:0:
112,277,282212,1,6,0:0:0:0:
72,62,282412,5,2,0:0:0:0:
164,148,282612,2,0,P|208:140|260:116,1,90,8|0,0:0|0:0,0:0:0:0:
416,32,283012,2,0,P|327:17|239:33,1,180,2|8,0:0|0:0,0:0:0:0:
164,148,283612,6,0,P|208:145|255:156,1,90,2|0,0:0|0:0,0:0:0:0:
326,283,284012,2,0,P|282:294|237:294,1,90,2|8,0:0|0:0,0:0:0:0:
140,277,284412,1,2,0:0:0:0:
140,277,284512,1,2,0:0:0:0:
140,277,284612,1,2,0:0:0:0:
252,155,284812,1,0,0:0:0:0:
88,132,285012,1,8,0:0:0:0:
328,108,285212,6,0,P|345:205|324:288,1,180,2|0,0:0|0:0,0:0:0:0:
185,346,285812,1,8,0:0:0:0:
112,205,286012,1,0,0:0:0:0:
185,346,286212,2,0,P|213:261|205:172,1,180,2|8,0:0|0:0,0:0:0:0:
27,174,286812,6,0,B|79:186|123:174|123:174|167:162|206:172,1,180,2|0,0:0|0:0,0:0:0:0:
416,167,287412,1,8,0:0:0:0:
326,240,287612,2,0,P|298:176|298:64,1,180,2|2,0:0|0:0,0:0:0:0:
426,43,288212,1,8,0:0:0:0:
441,73,288312,1,8,0:0:0:0:
444,107,288412,1,8,0:0:0:0:
435,139,288512,1,8,0:0:0:0:
415,167,288612,1,4,0:0:0:0:
326,240,288812,5,2,0:0:0:0:
364,100,289012,1,8,0:0:0:0:
326,240,289212,2,0,P|248:232|160:164,1,180,2|2,0:0|0:0,0:0:0:0:
112,80,289812,2,0,P|76:112|61:158,1,90,8|0,0:0|0:0,0:0:0:0:
56,356,290212,5,2,0:0:0:0:
164,288,290412,1,2,0:1:0:0:
164,288,290512,1,2,0:1:0:0:
164,288,290612,2,0,B|256:304,1,90,8|0,0:0|0:0,0:0:0:0:
432,348,291012,2,0,P|388:352|340:341,1,90,2|0,0:0|0:0,0:0:0:0:
307,153,291412,2,0,P|323:195|326:240,1,90,8|2,0:0|0:0,0:0:0:0:
432,348,291812,6,0,P|452:268|436:160,2,180,2|8|2,0:0|0:0|0:0,0:0:0:0:
325,240,292812,1,2,0:1:0:0:
325,240,292912,1,2,0:1:0:0:
325,240,293012,2,0,L|215:231,1,90,8|0,0:0|0:0,0:0:0:0:
113,232,293412,1,2,0:1:0:0:
84,234,293512,1,2,0:1:0:0:
56,236,293612,1,2,0:1:0:0:
28,239,293712,1,2,0:1:0:0:
0,241,293812,1,8,0:0:0:0:
176,160,294012,5,2,0:0:0:0:
210,352,294212,1,2,0:1:0:0:
243,356,294312,1,2,0:1:0:0:
277,356,294412,1,2,0:1:0:0:
310,351,294512,1,2,0:1:0:0:
343,341,294612,1,8,0:0:0:0:
440,172,294812,5,10,0:0:0:0:
325,240,295012,2,0,P|236:248|144:216,1,180,4|8,0:0|0:0,0:0:0:0:
172,112,295612,1,0,0:0:0:0:
82,159,295812,2,0,P|66:116|68:56,1,90,2|0,0:0|0:0,0:0:0:0:
262,65,296212,5,8,0:0:0:0:
172,112,296412,2,0,P|160:66|175:9,1,90,2|0,0:0|0:0,0:0:0:0:
352,18,296812,5,0,0:0:0:0:
348,120,297012,1,8,0:0:0:0:
262,65,297212,1,2,0:0:0:0:
262,65,297312,1,2,0:0:0:0:
262,65,297412,1,2,0:0:0:0:
352,18,297612,5,0,0:0:0:0:
348,120,297812,1,8,0:0:0:0:
240,236,298012,2,0,P|332:220|424:236,1,180,2|2,0:0|0:0,0:0:0:0:
416,233,298612,2,0,L|443:147,1,90,8|0,0:0|0:0,0:0:0:0:
352,18,299012,2,0,L|297:189,1,180,2|8,0:0|0:0,0:0:0:0:
228,356,299612,2,0,P|241:313|242:268,1,90,2|0,0:0|0:0,0:0:0:0:
152,300,300012,5,0,0:0:0:0:
318,324,300212,1,8,0:0:0:0:
152,300,300412,2,0,P|124:216|140:128,1,180,2|2,0:0|0:0,0:0:0:0:
312,120,301012,2,0,P|360:120|412:104,1,90,8|0,0:0|0:0,0:0:0:0:
244,56,301412,6,0,P|216:144|228:232,1,180,4|8,0:0|0:0,0:0:0:0:
452,304,302012,2,0,P|389:235|307:202,1,180,2|0,0:0|0:0,0:0:0:0:
152,300,302612,2,0,P|65:273|0:213,1,180,8|2,0:0|0:0,0:0:0:0:
96,100,303212,5,2,0:0:0:0:
96,100,303312,1,2,0:0:0:0:
96,100,303412,1,8,0:0:0:0:
236,167,303612,1,0,0:0:0:0:
96,100,303812,1,2,0:0:0:0:
194,233,304012,1,0,0:0:0:0:
96,100,304212,1,8,0:0:0:0:
152,300,304412,1,0,0:0:0:0:
196,80,304612,6,0,P|272:60|372:68,1,180,2|8,0:0|0:0,0:0:0:0:
328,311,305212,2,0,P|238:320|151:299,1,180,2|0,0:0|0:0,0:0:0:0:
325,181,305812,2,0,P|412:161|502:168,1,180,8|2,0:0|0:0,0:0:0:0:
499,145,306312,1,2,0:1:0:0:
495,123,306412,1,2,0:1:0:0:
491,101,306512,1,2,0:1:0:0:
487,79,306612,1,8,0:0:0:0:
448,248,306812,1,2,0:0:0:0:
360,100,307012,5,2,0:0:0:0:
328,88,307112,1,2,0:1:0:0:
295,84,307212,1,2,0:1:0:0:
261,87,307312,1,2,0:1:0:0:
229,99,307412,1,8,0:0:0:0:
197,110,307512,1,2,0:1:0:0:
163,114,307612,1,2,0:1:0:0:
130,109,307712,1,2,0:1:0:0:
98,98,307812,1,4,0:0:0:0:
168,36,308012,5,2,0:0:0:0:
182,197,308212,1,0,0:0:0:0:
84,228,308412,2,0,P|68:280|72:328,1,90,2|0,0:0|0:0,0:0:0:0:
236,372,308812,2,0,P|252:320|248:272,1,90,2|0,0:0|0:0,0:0:0:0:
197,110,309212,2,0,P|181:162|185:210,1,90,2|0,0:0|0:0,0:0:0:0:
349,254,309612,6,0,P|365:202|361:154,1,90,2|0,0:0|0:0,0:0:0:0:
285,21,310012,2,0,L|297:125,1,90,2|0,0:0|0:0,0:0:0:0:
349,254,310412,2,0,L|337:358,2,90,2|2|2,0:0|0:0|0:0,0:0:0:0:
363,166,311012,5,6,0:0:0:0:
256,240,311212,2,0,L|160:232,1,90,2|0,0:0|0:0,0:0:0:0:
56,136,311612,2,0,B|40:228,1,90,2|0,0:0|0:0,0:0:0:0:
151,319,312012,2,0,P|167:267|163:219,1,90,2|0,0:0|0:0,0:0:0:0:
161,57,312412,6,0,B|145:149,1,90,2|0,0:0|0:0,0:0:0:0:
256,240,312812,2,0,P|272:188|268:140,1,90,2|0,0:0|0:0,0:0:0:0:
161,57,313212,2,0,L|64:52,1,90,2|0,0:0|0:0,0:0:0:0:
40,224,313612,5,2,0:0:0:0:
71,52,313812,1,0,0:0:0:0:
40,224,314012,1,2,0:0:0:0:
151,319,314212,1,4,0:0:0:0:
125,165,314412,6,0,P|127:209|112:252,1,90,2|0,0:0|0:0,0:0:0:0:
242,326,314812,2,0,P|240:281|255:239,1,90,2|0,0:0|0:0,0:0:0:0:
396,80,315212,2,0,P|419:117|427:161,1,90,2|0,0:0|0:0,0:0:0:0:
380,320,315612,2,0,P|349:286|334:244,1,90,2|0,0:0|0:0,0:0:0:0:
248,68,316012,2,0,P|287:88|316:123,1,90,2|0,0:0|0:0,0:0:0:0:
380,320,316412,6,0,L|388:208,1,90,2|0,0:0|0:0,0:0:0:0:
396,80,316812,1,2,0:0:0:0:
464,220,317012,1,2,0:0:0:0:
476,128,317212,1,0,0:0:0:0:
314,150,317412,2,0,L|196:160,1,90,6|0,0:0|0:0,0:0:0:0:
40,176,317812,5,2,0:0:0:0:
84,280,318012,2,0,L|202:290,1,90,2|0,0:0|0:0,0:0:0:0:
300,368,318412,2,0,P|263:330|244:280,1,90,2|0,0:0|0:0,0:0:0:0:
314,150,318812,2,0,P|300:200|266:242,1,90,2|0,0:0|0:0,0:0:0:0:
128,184,319212,6,0,P|178:171|231:179,1,90,2|0,0:0|0:0,0:0:0:0:
324,283,319612,2,0,P|319:327|299:367,2,90,2|2|2,0:0|0:0|0:0,0:0:0:0:
314,150,320212,1,2,0:0:0:0:
71,52,320612,5,4,0:0:0:0:
256,192,320712,12,0,324412,0:0:0:0:
