osu file format v14

[General]
AudioFilename: charlotte op.mp3
AudioLeadIn: 0
PreviewTime: 61165
Countdown: 0
SampleSet: Soft
StackLeniency: 0.6
Mode: 0
LetterboxInBreaks: 0
WidescreenStoryboard: 0

[Editor]
Bookmarks: 680,7080,13480,19880,23080,29480,35880,42280,48680,51880,51980,52080,52180,52280,52380,52480,52580,52680,52780,52880,52980,53080,53180,53280,53380,53480,55080,61480,61580,67880,74280,80680,87080,88480
DistanceSpacing: 1.5
BeatDivisor: 4
GridSize: 4
TimelineZoom: 2

[Metadata]
Title:Bravely You (TV Size)
TitleUnicode:Bravely You (TV Size)
Artist:Lia
ArtistUnicode:Lia
Creator:pkhg
Version:Insane
Source:Charlotte
Tags:charlotte kanopu Shurelia ErunamoJAZZ ritsu-tanaika anant-garde eyes jun maeda opening シャーロット KEY
BeatmapID:745087
BeatmapSetID:334239

[Difficulty]
HPDrainRate:7
CircleSize:4
OverallDifficulty:7
ApproachRate:8.5
SliderMultiplier:1.6
SliderTickRate:1

[Events]
//Background and Video events
Video,20,"opto.flv"
0,0,"Tomori.Nao.full.1905975.jpg",0,0
//Break Periods
//Storyboard Layer 0 (Background)
//Storyboard Layer 1 (Fail)
//Storyboard Layer 2 (Pass)
//Storyboard Layer 3 (Foreground)
//Storyboard Sound Samples

[TimingPoints]
665,400,4,2,1,50,1,0
765,-100,4,2,2,50,0,0
7065,-100,4,2,1,50,0,0
7165,-100,4,2,2,50,0,0
23065,-100,4,2,1,50,0,0
23165,-100,4,2,2,50,0,0
48665,-133.333333333333,4,2,1,60,0,0
48765,-133.333333333333,4,2,2,60,0,0
61465,-100,4,2,1,70,0,1
61565,-100,4,2,2,70,0,1
67765,-100,4,2,2,70,0,0
67865,-100,4,2,1,70,0,1
67965,-100,4,2,2,70,0,1
74165,-100,4,2,2,70,0,0
74265,-100,4,2,1,70,0,1
74365,-100,4,2,2,70,0,1
80565,-100,4,2,2,70,0,0
80665,-100,4,2,1,70,0,1
80765,-100,4,2,2,70,0,1
87065,-100,4,2,1,70,0,1
87165,-100,4,2,2,70,0,1
87665,-100,4,2,1,60,0,1
88265,-100,4,2,1,70,0,1
88365,-100,4,2,1,60,0,0
88465,-100,4,2,1,70,0,1
88565,-100,4,2,1,70,0,0

[Colours]
Combo1 : 47,47,255
Combo2 : 202,202,202
Combo3 : 138,138,255
Combo4 : 204,64,91

[HitObjects]
146,353,665,6,0,P|143:294|142:225,1,120,4|0,0:0|0:0,0:0:0:0:
150,209,1065,1,0,3:0:0:0:
297,281,1265,1,0,0:0:0:0:
297,281,1365,1,0,0:0:0:0:
297,281,1465,2,0,P|257:284|217:284,1,80,0|0,3:0|0:0,0:0:0:0:
114,133,1865,2,0,P|153:133|193:136,1,80,0|0,3:0|0:0,0:0:0:0:
358,181,2265,6,0,P|318:184|278:184,1,80,2|0,3:2|0:0,0:0:0:0:
194,65,2665,1,0,3:0:0:0:
150,209,2865,1,2,0:0:0:0:
150,209,2965,1,0,0:0:0:0:
150,209,3065,2,0,P|150:252|154:293,1,80,0|2,3:0|0:0,0:0:0:0:
301,360,3465,2,0,P|300:316|297:276,1,80,0|2,3:0|0:0,0:0:0:0:
258,213,3765,1,0,0:0:0:0:
242,189,3865,6,0,P|237:128|238:65,1,120,2|0,3:2|0:0,0:0:0:0:
250,41,4265,1,0,3:0:0:0:
397,125,4465,1,2,0:0:0:0:
397,125,4565,1,0,0:0:0:0:
397,125,4665,2,0,P|357:127|317:128,1,80,0|0,3:0|0:0,0:0:0:0:
178,209,5065,2,0,P|217:209|257:212,1,80,2|0,3:2|0:0,0:0:0:0:
426,285,5465,6,0,P|366:285|306:289,1,120,0|0,3:0|0:0,0:0:0:0:
282,301,5865,1,0,3:0:0:0:
170,357,6065,1,2,0:0:0:0:
170,357,6165,1,0,0:0:0:0:
170,357,6265,1,0,3:0:0:0:
90,265,6465,1,0,0:0:0:0:
146,161,6665,1,0,3:0:0:0:
266,181,6865,1,0,0:0:0:0:
266,181,6965,1,0,0:0:0:0:
266,181,7065,6,0,P|328:183|394:185,1,120,6|0,0:0|0:0,0:0:0:0:
406,173,7465,2,0,P|409:133|410:93,1,80,10|2,0:0|0:0,0:0:0:0:
274,25,7865,2,0,P|277:64|278:105,1,80,0|2,0:0|0:0,0:0:0:0:
214,241,8265,1,8,0:0:0:0:
118,84,8465,6,0,P|157:76|197:72,1,80,2|0,0:0|0:0,0:0:0:0:
357,116,8865,2,0,P|317:112|277:104,1,80,2|8,0:0|0:0,0:0:0:0:
98,169,9265,1,2,0:0:0:0:
98,169,9365,1,0,0:0:0:0:
98,169,9465,2,0,P|137:161|177:157,1,80,0|2,0:0|0:0,0:0:0:0:
337,201,9865,2,0,P|297:197|257:189,1,80,8|0,0:0|0:0,0:0:0:0:
158,81,10265,5,2,0:0:0:0:
302,37,10465,2,0,P|306:76|309:116,1,80,0|10,0:0|0:0,0:0:0:0:
177,156,10865,1,2,0:0:0:0:
177,156,10965,1,0,0:0:0:0:
177,156,11065,2,0,P|180:195|184:235,1,80,0|2,0:0|0:0,0:0:0:0:
270,329,11465,1,8,0:0:0:0:
337,201,11665,1,0,0:0:0:0:
473,300,11865,6,0,P|432:301|394:298,1,80,2|0,0:0|0:0,0:0:0:0:
260,242,12265,1,10,0:0:0:0:
234,238,12365,1,0,0:0:0:0:
207,241,12465,1,2,0:0:0:0:
182,252,12565,1,0,0:0:0:0:
158,262,12665,6,0,P|132:263|116:263,3,40,2|0|2|0,0:0|0:0|0:0|0:0,0:0:0:0:
93,254,13065,1,10,0:0:0:0:
73,239,13165,1,0,0:0:0:0:
60,220,13265,1,2,0:0:0:0:
52,197,13365,1,0,0:0:0:0:
52,174,13465,6,0,P|52:132|56:94,1,80,2|0,0:0|0:0,0:0:0:0:
65,69,13765,1,0,0:0:0:0:
65,69,13865,1,10,0:0:0:0:
215,133,14065,2,0,P|174:135|135:136,1,80,2|0,0:0|0:0,0:0:0:0:
45,261,14465,1,2,0:0:0:0:
45,261,14665,2,0,P|84:261|124:264,1,80,8|2,3:2|0:0,0:0:0:0:
247,329,15065,6,0,P|307:331|369:327,1,120,2|0,0:0|0:0,0:0:0:0:
390,317,15465,1,8,0:0:0:0:
447,199,15665,1,2,0:0:0:0:
447,199,15765,1,0,0:0:0:0:
447,199,15865,2,0,P|447:160|445:119,1,80,0|2,0:0|0:0,0:0:0:0:
338,51,16265,1,10,0:0:0:0:
292,179,16465,1,0,0:0:0:0:
154,78,16665,6,0,P|194:76|234:78,1,80,2|0,0:0|0:0,0:0:0:0:
256,91,16965,1,0,0:0:0:0:
256,91,17065,1,10,0:0:0:0:
374,166,17265,1,2,0:0:0:0:
211,232,17465,2,0,P|209:192|210:152,1,80,0|2,0:0|0:0,0:0:0:0:
338,51,17865,2,0,P|339:90|338:130,1,80,8|2,0:0|0:0,0:0:0:0:
269,283,18265,6,0,P|218:276|149:278,1,120,2|0,0:0|0:0,0:0:0:0:
125,287,18665,1,10,0:0:0:0:
100,294,18765,1,0,0:0:0:0:
74,293,18865,1,2,0:0:0:0:
50,283,18965,1,0,0:0:0:0:
32,265,19065,6,0,P|22:240|19:223,3,40,2|0|2|0,0:0|0:0|0:0|0:0,0:0:0:0:
20,201,19465,1,10,0:0:0:0:
26,176,19565,1,0,0:0:0:0:
41,154,19665,1,2,0:0:0:0:
63,140,19765,1,0,0:0:0:0:
86,134,19865,6,0,P|144:135|209:131,1,120,2|0,0:0|0:0,0:0:0:0:
228,119,20265,1,8,0:0:0:0:
376,177,20465,1,2,0:0:0:0:
376,177,20565,1,0,0:0:0:0:
376,177,20665,2,0,P|336:175|297:177,1,80,0|2,0:0|0:0,0:0:0:0:
183,249,21065,1,8,0:0:0:0:
86,134,21265,1,2,0:0:0:0:
232,185,21465,6,0,P|235:245|238:320,1,120
232,330,21865,1,10,0:0:0:0:
318,222,22065,1,0,0:0:0:0:
318,222,22165,1,0,0:0:0:0:
318,222,22265,2,0,P|314:179|312:142,1,80,2|2,0:0|0:0,0:0:0:0:
392,44,22665,1,8,0:0:0:0:
392,44,22765,1,12,0:0:0:0:
392,44,22865,1,4,0:3:0:0:
511,169,23065,6,0,P|451:177|391:176,1,120,6|0,0:0|0:0,0:0:0:0:
366,167,23465,1,8,0:0:0:0:
247,96,23665,1,2,0:0:0:0:
247,96,23765,1,0,0:0:0:0:
247,96,23865,2,0,P|204:96|161:99,1,80,0|2,0:0|0:0,0:0:0:0:
83,213,24265,1,8,0:0:0:0:
90,69,24465,1,2,0:0:0:0:
206,176,24665,6,0,P|209:215|211:255,1,80,0|2,0:0|0:0,0:0:0:0:
207,277,24965,1,0,0:0:0:0:
207,277,25065,1,8,0:0:0:0:
325,352,25265,2,0,P|323:312|319:272,1,80,2|0,0:0|0:0,0:0:0:0:
371,87,25665,2,0,P|369:126|365:166,1,80,2|8,0:0|0:0,0:0:0:0:
288,275,26065,1,0,0:0:0:0:
206,176,26265,6,0,P|142:172|84:173,1,120,2|0,0:0|0:0,0:0:0:0:
62,188,26665,1,8,0:0:0:0:
157,96,26865,1,2,0:0:0:0:
157,96,26965,1,0,0:0:0:0:
157,96,27065,2,0,P|198:97|238:102,1,80,0|2,0:0|0:0,0:0:0:0:
384,171,27465,2,0,P|344:175|304:176,1,80,10|0,0:0|0:0,0:0:0:0:
155,237,27865,6,0,P|157:278|161:320,1,80,0|2,0:0|0:0,0:0:0:0:
262,382,28265,1,10,0:0:0:0:
332,265,28465,1,2,0:0:0:0:
332,265,28565,1,0,0:0:0:0:
332,265,28665,2,0,P|330:224|326:182,1,80
232,96,29065,1,10,0:0:0:0:
155,237,29265,1,2,0:0:0:0:
155,237,29365,1,0,0:0:0:0:
155,237,29465,6,0,P|115:240|27:236,1,120,2|0,0:0|0:0,0:0:0:0:
11,223,29865,1,8,0:0:0:0:
93,89,30065,1,2,0:0:0:0:
93,89,30165,1,0,0:0:0:0:
93,89,30265,2,0,P|93:128|92:168,1,80,0|2,0:0|0:0,0:0:0:0:
153,316,30665,2,0,P|153:276|155:237,1,80,8|0,0:0|0:0,0:0:0:0:
227,66,31065,6,0,P|224:125|225:185,1,120,2|0,0:0|0:0,0:0:0:0:
234,212,31465,1,8,0:0:0:0:
340,276,31665,1,2,0:0:0:0:
340,276,31765,1,0,0:0:0:0:
340,276,31865,1,0,0:0:0:0:
400,134,32065,1,2,0:0:0:0:
255,99,32265,2,0,P|254:142|254:180,1,80,8|0,0:0|0:0,0:0:0:0:
179,359,32665,6,0,P|178:299|182:240,1,120,2|0,0:0|0:0,0:0:0:0:
192,213,33065,1,8,0:0:0:0:
340,276,33265,1,2,0:0:0:0:
340,276,33365,1,0,0:0:0:0:
340,276,33465,2,0,P|298:279|260:280,1,80,0|2,0:0|0:0,0:0:0:0:
143,142,33865,2,0,P|184:138|223:138,1,80,10|0,0:0|0:0,0:0:0:0:
427,194,34265,6,0,P|367:195|308:191,1,120,2|0,0:0|0:0,0:0:0:0:
287,174,34665,1,8,0:0:0:0:
179,66,34865,1,2,0:0:0:0:
179,66,34965,1,0,0:0:0:0:
179,66,35065,1,0,0:0:0:0:
107,178,35265,1,2,0:0:0:0:
199,302,35465,5,8,0:0:0:0:
224,304,35565,1,0,3:0:0:0:
250,304,35665,1,0,3:0:0:0:
276,300,35765,1,0,3:0:0:0:
303,294,35865,6,0,P|347:290|423:294,1,120,2|0,0:0|0:0,0:0:0:0:
439,310,36265,2,0,P|436:273|435:230,1,80,8|0,0:0|0:0,0:0:0:0:
443,202,36565,1,0,0:0:0:0:
443,202,36665,1,2,0:0:0:0:
359,98,36865,1,0,0:0:0:0:
247,162,37065,2,0,P|205:165|167:166,1,80,10|0,0:0|0:0,0:0:0:0:
30,241,37465,6,0,P|70:242|110:245,1,80,2|0,0:0|0:0,0:0:0:0:
207,328,37865,1,8,0:0:0:0:
287,223,38065,1,2,0:0:0:0:
287,223,38165,1,0,0:0:0:0:
287,223,38265,2,0,P|288:181|286:141,1,80,0|2,0:0|0:0,0:0:0:0:
146,73,38665,2,0,P|145:115|147:155,1,80,8|0,0:0|0:0,0:0:0:0:
287,223,39065,6,0,P|287:162|285:101,1,120,2|0,0:0|0:0,0:0:0:0:
275,75,39465,1,8,0:0:0:0:
379,182,39665,1,2,0:0:0:0:
379,182,39765,1,0,0:0:0:0:
379,182,39865,2,0,P|377:224|378:268,1,80,0|2,0:0|0:0,0:0:0:0:
277,334,40265,2,0,P|279:292|278:248,1,80,10|2,0:0|0:0,0:0:0:0:
193,113,40665,6,0,P|191:155|192:199,1,80,0|2,0:0|0:0,0:0:0:0:
278,254,41065,1,8,0:0:0:0:
379,182,41265,1,2,0:0:0:0:
379,182,41365,1,0,0:0:0:0:
379,182,41465,1,0,0:0:0:0:
275,75,41665,1,0,0:0:0:0:
152,177,41865,2,0,P|191:178|231:177,1,80,10|0,0:0|0:0,0:0:0:0:
309,138,42165,1,0,0:0:0:0:
319,166,42265,6,0,P|323:226|321:295,1,120,2|0,0:0|0:0,0:0:0:0:
315,310,42665,1,8,0:0:0:0:
201,354,42865,1,2,0:0:0:0:
201,354,42965,1,0,0:0:0:0:
201,354,43065,1,0,0:0:0:0:
105,245,43265,1,2,0:0:0:0:
248,183,43465,2,0,P|251:223|249:263,1,80,8|0,0:0|0:0,0:0:0:0:
94,221,43865,6,0,P|91:181|93:141,1,80,2|0,0:0|0:0,0:0:0:0:
182,37,44265,1,8,0:0:0:0:
248,183,44465,1,2,0:0:0:0:
248,183,44565,1,0,0:0:0:0:
248,183,44665,2,0,P|208:183|168:181,1,80,0|2,0:0|0:0,0:0:0:0:
58,295,45065,2,0,P|98:294|138:294,1,80,8|0,0:0|0:0,0:0:0:0:
304,353,45465,6,0,P|264:354|221:351,1,80,2|0,0:0|0:0,0:0:0:0:
135,245,45865,1,8,0:0:0:0:
272,190,46065,1,2,0:0:0:0:
272,190,46165,1,0,0:0:0:0:
272,190,46265,2,0,P|270:229|267:269,1,80,0|2,0:0|0:0,0:0:0:0:
392,367,46665,2,0,P|389:305|391:241,1,120,8|0,0:0|0:0,0:0:0:0:
402,218,47065,5,2,0:0:0:0:
275,110,47265,2,0,P|272:150|272:190,1,80,4|0,0:0|0:0,0:0:0:0:
287,217,47565,1,8,0:3:0:0:
287,217,47665,1,4,2:3:0:0:
187,340,47865,2,0,P|193:280|191:220,1,120,4|4,2:3|0:0,0:0:0:0:
183,197,48265,5,8,0:0:0:0:
179,171,48365,1,8,0:0:0:0:
183,145,48465,1,4,0:0:0:0:
195,122,48565,1,4,0:0:0:0:
212,102,48665,6,0,P|242:99|288:101,1,60.0000022888184,6|2,0:0|0:0,0:0:0:0:
376,196,49065,1,0,0:0:0:0:
260,241,49265,2,0,P|257:211|257:181,1,60.0000022888184,2|0,0:0|0:0,0:0:0:0:
371,97,49665,1,2,0:0:0:0:
444,213,49865,2,0,P|414:213|385:210,1,60.0000022888184,0|2,0:0|0:0,0:0:0:0:
285,107,50265,6,0,P|255:107|225:110,1,60.0000022888184,0|2,0:0|0:0,0:0:0:0:
168,213,50665,1,0,0:0:0:0:
148,83,50865,1,2,0:0:0:0:
257,181,51065,2,0,P|258:212|259:253,1,60.0000022888184,2|0,0:0|0:0,0:0:0:0:
200,353,51465,1,2,0:0:0:0:
168,213,51665,1,0,0:0:0:0:
200,353,51865,6,0,P|199:322|198:281,1,60.0000022888184,2|0,0:0|0:0,0:0:0:0:
257,181,52265,1,0,0:0:0:0:
281,317,52465,1,2,0:0:0:0:
168,213,52665,2,0,P|135:211|107:214,1,60.0000022888184,2|0,0:0|0:0,0:0:0:0:
308,242,53065,2,0,P|337:244|367:242,1,60.0000022888184,2|0,0:0|0:0,0:0:0:0:
430,96,53465,6,0,P|397:94|369:97,1,60.0000022888184,0|2,0:0|0:0,0:0:0:0:
257,181,53865,1,0,0:0:0:0:
204,73,54065,1,2,0:0:0:0:
354,104,54265,2,0,P|324:106|294:105,1,60.0000022888184,2|0,0:0|0:0,0:0:0:0:
144,71,54665,2,0,P|174:70|204:73,1,60.0000022888184,2|0,0:0|0:0,0:0:0:0:
257,181,55065,5,0,0:0:0:0:
354,104,55265,1,2,0:0:0:0:
399,225,55465,2,0,P|399:257|397:288,1,60.0000022888184,0|2,0:0|0:0,0:0:0:0:
246,260,55865,2,0,P|276:260|306:259,1,60.0000022888184,2|0,0:0|0:0,0:0:0:0:
459,225,56265,2,0,P|429:224|399:225,1,60.0000022888184,2|0,0:0|0:0,0:0:0:0:
272,121,56665,5,0,0:0:0:0:
272,121,57065,2,0,P|270:150|269:180,1,60.0000022888184,2|0,0:0|0:0,0:0:0:0:
164,249,57465,2,0,P|162:219|162:190,1,60.0000022888184,2|0,0:0|0:0,0:0:0:0:
253,102,57865,1,2,0:0:0:0:
307,235,58065,1,0,0:0:0:0:
433,160,58265,6,0,P|403:160|374:164,1,60.0000022888184,2|0,0:0|0:0,0:0:0:0:
330,312,58665,2,0,P|300:312|270:308,1,60.0000022888184,2|0,0:0|0:0,0:0:0:0:
192,170,59065,1,2,0:0:0:0:
307,235,59265,1,0,0:0:0:0:
195,344,59465,2,0,P|192:314|192:284,1,60.0000022888184,2|0,0:0|0:0,0:0:0:0:
276,157,59865,6,0,P|316:153|360:154,1,60.0000022888184,4|0,0:3|0:0,0:0:0:0:
410,67,60265,2,0,P|365:68|325:65,1,60.0000022888184,4|0,0:3|0:0,0:0:0:0:
261,42,60665,2,0,P|202:40|136:46,1,120.000004577637,4|8,0:3|0:0,0:0:0:0:
62,157,61265,1,8,0:0:0:0:
62,157,61365,1,8,0:0:0:0:
62,157,61465,6,0,L|65:243,1,80,4|0,0:0|0:0,0:0:0:0:
165,325,61865,1,8,0:0:0:0:
283,268,62065,1,2,0:0:0:0:
283,268,62165,1,0,0:0:0:0:
283,268,62265,2,0,P|283:226|279:184,1,80,0|2,0:0|0:0,0:0:0:0:
159,231,62665,1,8,0:0:0:0:
231,109,62865,6,0,P|268:106|313:107,1,80,2|0,0:0|0:0,0:0:0:0:
400,215,63265,1,2,0:0:0:0:
267,288,63465,2,8,P|263:248|263:208,1,80,8|2,0:0|0:0,0:0:0:0:
276,185,63765,1,0,0:0:0:0:
276,185,63865,1,2,0:0:0:0:
387,103,64065,1,0,0:0:0:0:
423,247,64265,2,0,P|383:247|343:244,1,80,8|0,0:0|0:0,0:0:0:0:
282,103,64665,6,0,P|242:102|202:105,1,80,2|0,0:0|0:0,0:0:0:0:
114,219,65065,1,8,0:0:0:0:
248,267,65265,1,2,0:0:0:0:
248,267,65365,1,0,0:0:0:0:
248,267,65465,2,0,L|246:227|244:187,1,80,0|2,0:0|0:0,0:0:0:0:
126,58,65865,2,0,P|124:97|122:137,1,80,8|2,0:0|0:0,0:0:0:0:
248,267,66265,6,0,P|246:307|242:352,1,80,2|0,0:0|0:0,0:0:0:0:
111,279,66665,1,8,0:0:0:0:
206,181,66865,1,2,0:0:0:0:
206,181,66965,1,0,0:0:0:0:
206,181,67065,2,0,P|245:178|285:179,1,80,0|2,0:0|0:0,0:0:0:0:
452,247,67465,2,0,P|412:248|372:245,1,80,10|2,0:0|0:0,0:0:0:0:
304,202,67765,1,0,0:0:0:0:
285,179,67865,6,0,P|281:136|283:99,1,80,6|0,0:0|0:0,0:0:0:0:
376,6,68265,1,8,0:0:0:0:
440,134,68465,1,2,0:0:0:0:
440,134,68565,1,0,0:0:0:0:
440,134,68665,2,0,P|400:137|360:137,1,80,0|2,0:0|0:0,0:0:0:0:
244,63,69065,2,0,P|204:59|164:59,1,80,8|0,0:0|0:0,0:0:0:0:
57,178,69465,6,0,P|57:220|60:261,1,80,2|0,0:0|0:0,0:0:0:0:
157,345,69865,1,8,0:0:0:0:
229,221,70065,1,2,0:0:0:0:
229,221,70165,1,0,0:0:0:0:
229,221,70265,2,0,P|267:218|311:218,1,80,0|2,0:0|0:0,0:0:0:0:
439,133,70665,2,0,P|399:133|360:131,1,80,8|0,0:0|0:0,0:0:0:0:
244,63,71065,6,0,P|204:63|164:65,1,80,2|0,0:0|0:0,0:0:0:0:
88,202,71465,2,0,P|127:204|167:204,1,80,8|2,0:0|0:0,0:0:0:0:
198,197,71765,1,0,0:0:0:0:
198,197,71865,1,0,0:0:0:0:
244,63,72065,1,2,0:0:0:0:
381,149,72265,2,0,P|341:149|301:151,1,80,8|2,0:0|0:0,0:0:0:0:
215,175,72565,1,0,0:0:0:0:
198,197,72665,6,0,P|195:238|195:283,1,80,2|0,0:0|0:0,0:0:0:0:
311,337,73065,1,8,0:0:0:0:
384,228,73265,1,2,0:0:0:0:
384,228,73365,1,0,0:0:0:0:
384,228,73465,2,0,P|383:188|381:149,1,80,0|2,0:0|0:0,0:0:0:0:
244,63,73865,5,8,0:0:0:0:
220,52,73965,1,8,0:0:0:0:
194,49,74065,1,4,0:0:0:0:
168,54,74165,1,4,2:3:0:0:
145,65,74265,6,0,P|140:105|139:154,1,80,6|2,0:0|0:0,0:0:0:0:
213,272,74665,1,8,0:0:0:0:
320,152,74865,1,2,0:0:0:0:
320,152,74965,1,0,0:0:0:0:
320,152,75065,2,0,P|280:152|240:155,1,80,0|2,0:0|0:0,0:0:0:0:
134,252,75465,1,8,0:0:0:0:
290,308,75665,6,0,L|289:268|288:228,1,80,2|0,0:0|0:0,0:0:0:0:
405,116,76065,2,0,P|404:155|403:195,1,80,2|8,0:0|0:0,0:0:0:0:
290,308,76465,1,2,0:0:0:0:
290,308,76565,1,0,0:0:0:0:
290,308,76665,1,0,0:0:0:0:
235,169,76865,1,2,0:0:0:0:
128,286,77065,2,0,P|167:288|207:284,1,80,8|2,0:0|0:0,0:0:0:0:
274,235,77365,1,0,0:0:0:0:
293,209,77465,6,0,P|294:168|294:128,1,80,2|0,0:0|0:0,0:0:0:0:
148,84,77865,2,0,P|147:123|149:163,1,80,10|0,0:0|0:0,0:0:0:0:
159,190,78165,1,0,0:0:0:0:
159,190,78265,1,2,0:0:0:0:
235,53,78465,1,0,0:0:0:0:
383,117,78665,2,0,P|343:119|303:118,1,80,8|0,0:0|0:0,0:0:0:0:
148,84,79065,6,0,P|108:81|68:82,1,80,2|0,0:0|0:0,0:0:0:0:
159,190,79465,1,8,0:0:0:0:
235,53,79665,1,2,0:0:0:0:
235,53,79765,1,0,0:0:0:0:
235,53,79865,2,0,P|236:93|236:139,1,80,0|2,0:0|0:0,0:0:0:0:
152,284,80265,2,0,P|151:244|153:204,1,80,8|2,0:0|0:0,0:0:0:0:
211,148,80565,1,0,0:0:0:0:
236,132,80665,6,0,P|276:128|320:127,1,80,6|0,0:0|0:0,0:0:0:0:
422,205,81065,1,8,0:0:0:0:
288,288,81265,1,2,0:0:0:0:
288,288,81365,1,0,0:0:0:0:
288,288,81465,2,0,P|285:248|284:208,1,80,0|2,0:0|0:0,0:0:0:0:
240,52,81865,2,0,P|238:91|236:131,1,80,8|2,0:0|0:0,0:0:0:0:
166,275,82265,6,0,P|164:236|162:196,1,80,2|0,0:0|0:0,0:0:0:0:
107,87,82665,1,8,0:0:0:0:
80,235,82865,1,2,0:0:0:0:
80,235,82965,1,0,0:0:0:0:
80,235,83065,1,0,0:0:0:0:
182,145,83265,1,2,0:0:0:0:
245,280,83465,2,0,P|205:281|166:275,1,80,8|2,0:0|0:0,0:0:0:0:
99,214,83765,1,0,0:0:0:0:
91,190,83865,6,0,P|87:147|88:110,1,80,2|0,0:0|0:0,0:0:0:0:
195,39,84265,1,8,0:0:0:0:
268,168,84465,1,2,0:0:0:0:
268,168,84565,1,0,0:0:0:0:
268,168,84665,2,0,P|307:170|351:171,1,80,0|2,0:0|0:0,0:0:0:0:
487,264,85065,2,0,P|447:265|408:268,1,80,8|2,0:0|0:0,0:0:0:0:
264,343,85465,6,0,P|224:342|184:339,1,80,2|0,0:0|0:0,0:0:0:0:
84,224,85865,1,8,0:0:0:0:
228,159,86065,1,2,0:0:0:0:
228,159,86165,1,0,0:0:0:0:
228,159,86265,2,0,P|230:198|230:241,1,80,0|2,0:0|0:0,0:0:0:0:
221,269,86565,1,0,0:0:0:0:
221,269,86665,1,8,0:0:0:0:
364,352,86865,5,2,0:0:0:0:
364,352,86965,1,0,0:0:0:0:
364,352,87065,2,0,P|366:312|366:270,1,80,6|2,0:0|0:0,0:0:0:0:
309,127,87465,1,10,0:0:0:0:
221,269,87665,2,0,P|179:274|108:271,1,80,6|0,0:0|0:0,0:0:0:0:
38,136,88065,2,0,P|97:132|154:138,1,80,6|2,0:0|0:0,0:0:0:0:
221,269,88465,1,6,0:0:0:0:
