osu file format v9

[General]
AudioFilename: Lia & riya - Chiisana Tenohira Duo.mp3
AudioLeadIn: 2000
PreviewTime: 197255
Countdown: 0
SampleSet: Soft
StackLeniency: 0.7
Mode: 0
LetterboxInBreaks: 0

[Editor]
DistanceSpacing: 0.8
BeatDivisor: 4
GridSize: 4

[Metadata]
Title:Chiisana Tenohira Duo
Artist:Lia & riya
Creator:Darksonic
Version:Normal
Source:Clannad
Tags:kyoto animation furukawa nagisa fujibayashi ryou kyou ichinose kotomi sakagami tomoyo ibuki fuuko

[Difficulty]
HPDrainRate:3
CircleSize:4
OverallDifficulty:3
ApproachRate:4
SliderMultiplier:1.2
SliderTickRate:1

[Events]
//Background and Video events
0,0,"BG.jpg"
//Break Periods
//Storyboard Layer 0 (Background)
//Storyboard Layer 1 (Fail)
//Storyboard Layer 2 (Pass)
//Storyboard Layer 3 (Foreground)
//Storyboard Sound Samples
//Background Colour Transformations
3,100,163,162,255

[TimingPoints]
474,599.700149925038,4,2,1,30,1,0
17265,-100,4,2,0,5,0,0
19677,600,4,2,1,30,1,0
36777,-100,4,2,0,5,0,0
38868,601.202404809619,4,2,1,30,1,0
74905,600.901352028042,4,2,1,30,1,0
101340,599.580293794344,4,2,1,30,1,0
120510,601.202404809619,4,2,1,40,1,1
138546,-100,4,2,1,30,0,0
139735,599.880023995201,4,2,1,40,1,1
158927,600.660726799479,4,2,1,30,1,0
178598,-100,4,2,1,5,0,0
178898,-100,4,2,1,30,0,0
179799,-100,4,2,1,5,0,0
180100,-100,4,2,1,30,0,0
192865,-100,4,2,1,25,0,0
193765,-100,4,2,1,20,0,0
194665,-100,4,2,1,15,0,0
195565,-100,4,2,1,10,0,0
196465,-100,4,2,1,5,0,0
197615,600,4,2,1,30,1,0
198815,-100,4,2,1,40,0,1
216815,-100,4,2,1,30,0,0
218015,-100,4,2,1,40,0,1
237215,-133.333333333333,4,2,1,25,0,0
250460,631.578947368421,4,2,1,25,1,0
250460,-133.333333333333,4,2,1,25,0,0
251091,666.666666666667,4,2,1,25,1,0
251091,-133.333333333333,4,2,1,25,0,0
251757,705.882352941176,4,2,1,25,1,0
251757,-133.333333333333,4,2,1,25,0,0
253075,705.882352941176,4,2,1,30,1,0
253075,-133.333333333333,4,2,1,30,0,0
254580,810.810810810811,4,2,1,25,1,0
255390,-100,4,2,1,20,0,0
256201,-100,4,2,1,15,0,0
257012,-100,4,2,1,10,0,0
257823,606.060606060606,4,2,1,5,1,0
258429,-100,4,2,1,25,0,0
265670,600,4,2,1,25,1,0
272368,705.882352941176,4,2,1,25,1,0
273779,750,4,2,1,15,1,0
274567,600,4,2,1,15,1,0
274567,-133.333333333333,4,2,1,15,0,0
276217,-100,4,2,1,5,0,0

[Colours]
Combo1 : 0,128,255
Combo2 : 224,224,224
Combo3 : 247,217,49
Combo4 : 0,255,255

[HitObjects]
256,116,474,2,0,B|256:56,2,60,0|0|2
164,148,1673,1,0
128,236,2273,1,2
164,324,2872,1,0
256,356,3472,1,2
348,324,4072,1,0
384,236,4671,1,2
348,148,5271,6,0,B|320:129|292:148,2,60,2|0|2
383,237,6471,2,0,B|380:300|304:316,1,120,0|2
208,316,7670,2,0,B|132:300|128:237,1,120,0|2
128,144,8869,2,0,B|132:84|208:68,1,120,0|2
228,164,10069,6,0,B|256:175|256:175|284:164,2,60,2|0|2
164,236,11268,1,0
256,264,11868,1,2
348,236,12468,1,0
256,208,13067,1,2
164,236,13667,1,0
256,264,14267,1,2
348,236,14866,6,0,B|380:236|400:208,2,60,2|0|2
316,328,16066,2,0,B|256:328|256:328|204:296,1,120,0|2
256,192,17265,12,2,19677
352,192,21477,6,0,B|412:192,2,60,0|0|2
160,192,23277,1,2
352,192,24477,1,2
256,336,26277,6,0,B|256:216,1,120,0|2
200,32,28077,2,0,B|256:70|312:32,2,120,0|2|0
304,192,30477,5,0
256,276,31077,1,2
208,192,31677,1,0
360,72,32877,6,0,B|424:72|449:140,2,120,0|2|0
256,232,35277,1,2
208,148,35877,2,0,B|148:148,1,60,0|2
256,192,36777,12,0,38868
256,144,40070,5,2
324,212,40671,2,0,B|344:272|304:328,1,120,0|2
206,325,41874,2,0,B|168:272|188:212,1,120,0|2
292,52,43677,6,0,B|256:100|256:100|220:52,1,120,2|0
180,140,44880,1,2
220,228,45481,2,0,B|256:180|256:180|292:228,1,120,0|2
332,140,46683,1,0
412,192,47284,2,0,B|412:252,2,60,2|0|0
332,140,48487,6,0,B|292:96|223:96,1,120,2|0
180,180,49689,2,0,B|220:224|288:223,1,120,2|0
384,240,50892,1,2
288,223,51493,6,0,B|264:279|264:279|204:279,1,120,0|2
168,192,52695,1,0
116,112,53296,1,2
212,120,53898,6,0,B|272:120,2,60,0|0|2
256,308,55701,1,2
290,135,56904,2,0,B|290:97|256:76|221:97|221:135,2,120,2|0|2
372,188,58707,6,0,B|316:188|294:267,1,120,0|2
256,356,59910,1,0
217,267,60511,2,0,B|196:188|140:188,1,120,2|0
60,236,61713,2,0,B|28:228|12:192|28:156|60:148,1,120,2|0
152,128,62916,6,0,B|128:64|57:65,2,120,2|0|2
216,200,64719,2,0,B|256:245|256:245|296:200,1,120,0|2
360,128,65922,1,0
284,72,66523,2,0,B|256:52|228:72,2,60,2|0|0
288,176,67725,6,0,B|256:227|256:227|224:176,1,120,2|0
156,244,68928,1,2
200,328,69529,2,0,B|256:368|312:328,2,120,0|2|0
200,232,71332,2,0,B|256:192|312:232,2,120,2|0|2
120,288,73136,6,0,B|80:232|120:176,1,120,0|2
208,140,74338,1,0
304,140,74905,1,2
392,176,75505,2,0,B|432:232|392:288,1,120,0|2
304,116,77308,6,0,B|320:52|385:35,2,120,2|0|2
208,116,79111,2,0,B|192:52|126:35,2,120,0|2|0
200,212,80914,2,0,B|256:249|312:212,1,120,2|0
384,148,82115,6,0,B|421:92|384:36,2,120,2|0|2
308,92,83918,2,0,B|256:121|256:121|204:92,1,120,0|2
204,188,85120,2,0,B|256:217|256:217|308:188,1,120,0|2
384,124,86322,2,0,B|444:124,2,60,2|0|2
352,216,87523,6,0,B|352:268|304:268|303:323,1,120,0|2
256,240,88725,1,0
208,323,89326,2,0,B|208:268|160:268|160:216,1,120,2|0
212,136,90528,2,0,B|224:101|256:91|287:101|300:136,1,120,2|0
300,232,91730,6,0,B|286:267|255:277|223:267|211:233,2,120,2|0|2
344,148,93532,2,0,B|317:76|256:56|194:76|168:148,1,240,2|0
256,192,95335,6,0,B|256:252,2,60,0|2|0
256,144,96236,1,2
256,192,96537,12,2,98941
120,68,100142,6,0,B|159:68|159:68|196:94|196:94|232:94,1,120
180,176,101340,1,2
148,264,101939,2,0,B|148:332,1,60,0|2
268,252,103138,2,0,B|320:200|372:252,2,120,2|0|2
188,304,104937,6,0,B|136:252|188:200,2,120,0|2|0
276,340,106736,2,0,B|336:340,1,60,2|0
416,288,107635,1,0
440,240,107935,2,0,B|400:192|400:192|342:192,2,120,2|0|0
364,296,109734,6,0,B|300:296|257:342,2,120,0|2|0
364,200,111532,2,0,B|364:136,1,60,2|0
268,144,112432,1,0
220,144,112732,2,0,B|208:108|168:108|168:108|115:108,2,120,2|0|2
220,240,114530,2,0,B|208:276|168:276|168:276|115:275,2,120,2|2|2
256,152,116329,5,0
292,240,116929,1,2
256,152,117528,2,0,B|256:32,2,120,2|0|2
204,232,119327,6,0,B|256:262|256:262|308:232,1,120
256,152,120510,1,4
160,160,121111,6,0,B|160:92|218:62,1,120,0|10
256,152,122313,1,2
293,62,122914,2,0,B|352:92|352:160,1,120,2|2
312,248,124117,2,0,B|256:285|200:248,2,120,10|0|2
404,216,125920,6,0,B|441:160|404:104,1,120,0|10
324,152,127123,2,0,B|310:86|244:72,2,120,2|2|0
228,156,128926,2,0,B|214:222|148:236,2,120,10|2|0
208,64,130730,6,0,B|256:28|256:28|304:64,1,120,0|10
304,160,131932,2,0,B|344:181|344:233|304:254,1,120,0|2
209,255,133135,2,0,B|167:233|167:181|208:160,2,120,0|10|2
200,352,134938,2,0,B|256:390|312:352,1,120,2|0
378,283,136141,6,0,B|342:223|279:223,1,120,10|0
279,174,137043,2,0,B|279:112|219:76,1,120,2|0
172,64,137944,1,0
80,36,138546,6,0,B|80:156,1,120,8|0
168,192,139735,1,4
96,248,140334,6,0,B|156:280|212:268,1,120,0|10
256,184,141534,1,2
300,268,142134,2,0,B|356:280|416:248,1,120,2|2
416,152,143334,2,0,B|356:120|300:132,2,120,10|0|2
388,244,145133,6,0,B|328:244,1,60,0|2
256,120,146333,2,0,B|256:240,2,120,0|2|0
200,44,148133,2,0,B|256:6|312:44,2,120,10|0|10
156,128,149932,6,0,B|216:148|216:148|219:204,1,120,0|10
256,292,151132,1,2
292,204,151732,2,0,B|296:148|296:148|356:128,1,120,0|2
428,64,152932,2,0,B|473:66|495:113|467:149,2,120,10|2|2
368,136,154732,1,0
272,124,155331,2,0,B|243:162|265:209|310:211,1,120,8|0
256,192,156531,12,0,158927
256,328,160128,5,2
200,144,161329,2,0,B|256:107|312:144,1,120,0|2
312,239,162530,2,0,B|256:277|200:240,1,120,2|2
256,192,163732,12,8,167336
208,136,168537,6,0,B|171:192|208:248,1,120,0|2
304,248,169738,2,0,B|341:192|303:135,1,120,0|2
300,40,170940,2,0,B|256:81|256:81|212:40,1,120,0|2
204,136,172141,2,0,B|236:172|276:172|308:136,1,120,2|2
256,192,173342,12,8,176946
140,188,178148,6,0,B|220:140|292:244|372:192,2,240,2|2|2
56,140,181151,2,0,B|20:172|20:212|56:244,1,120,0|2
256,192,182352,12,0,185356
204,112,186557,6,0,B|256:59|308:112,1,120,2|0
256,192,187758,1,2
308,271,188359,2,0,B|256:325|204:272,1,120,0|2
256,192,189560,1,0
208,108,190161,2,0,B|256:72|256:72|304:108,2,120,2|0|2
256,192,191963,12,0,196468
256,132,197615,6,0,B|256:264,2,120,0|0|4
348,164,199415,5,2
308,252,200015,2,0,B|256:199|204:252,1,120,10|0
124,304,201215,2,0,B|71:252|124:200,1,120,2|2
204,148,202415,2,0,B|256:95|308:148,2,120,8|2|0
204,244,204215,6,0,B|256:297|308:244,1,120,2|8
388,192,205415,2,0,B|452:160|456:92,2,120,2|2|0
324,120,207215,2,0,B|260:88|256:20,2,120,8|0|4
260,192,209015,6,0,B|196:224|192:284,1,120,0|10
96,284,210215,2,0,B|92:223|28:191,1,120,0|2
88,116,211415,1,0
180,144,212015,2,0,B|220:120|256:172|296:146,2,120,10|2|2
140,232,213815,6,0,B|148:296|212:324,1,120,0|10
302,322,215015,2,0,B|364:296|372:232,2,120,0|2|0
256,236,216815,6,0,B|256:116,2,120,8|0|12
164,204,218615,5,2
208,292,219215,2,0,B|228:332|284:332|304:292,1,120,8|0
348,204,220415,1,2
256,172,221015,1,2
164,204,221615,6,0,B|104:212|88:287,2,120,10|0|2
212,120,223415,2,0,B|256:79|256:79|300:120,1,120,0|10
348,204,224615,2,0,B|408:212|423:287,2,120,2|2|0
308,292,226415,6,0,B|256:345|204:292,2,120,8|0|4
256,212,228215,5,0
204,132,228815,2,0,B|256:79|308:132,1,120,10|0
304,228,230015,2,0,B|357:280|304:332,1,120,2|0
208,332,231215,2,0,B|155:280|208:228,2,120,10|2|2
288,280,233015,5,0
332,196,233615,2,0,B|328:128|279:91,1,120,10|0
232,91,234515,2,0,B|184:128|180:196,1,120,2|2
180,244,235415,1,0
196,340,236015,6,0,B|316:340,2,120,8|0|4
148,264,237815,2,0,B|148:212,1,45.0000017166138,2|2
188,136,238715,1,0
220,104,239015,2,0,B|256:76|256:76|292:104,2,90.0000034332277,0|2|0
214,197,240815,6,0,B|256:212|256:212|297:197,2,90.0000034332277,0|2|0
236,284,242615,2,0,B|256:302|276:284,1,45.0000017166138,0|2
338,348,243515,1,0
376,324,243815,2,0,B|412:284|376:244,1,90.0000034332277,0|2
284,88,245615,6,0,B|260:77|255:56|255:56|249:77|226:88,2,90.0000034332277,0|2|0
256,172,247415,1,2
296,252,248015,2,0,B|256:288|216:252,1,90.0000034332277,0|2
256,172,249215,2,0,B|296:136|336:172,1,90.0000034332277,0|2
380,252,250460,6,0,B|420:288|460:252,1,90.0000034332277,2|2
420,176,251757,1,2
296,64,253075,2,0,B|256:85|256:85|216:64,1,90.0000034332277,2|0
256,192,254580,12,2,257823
256,84,258429,6,0,B|256:144,1,60,0|2
88,212,259641,2,0,B|112:269|177:283,1,120,0|2
256,192,260853,1,2
334,283,261459,2,0,B|399:269|424:212,2,120,2|0|2
256,192,263277,6,0,B|256:132,1,60,0|2
204,304,264489,2,0,B|240:296|240:296|256:330|280:296|280:296|308:304,1,120,0|2
336,192,265670,1,2
308,76,266270,6,0,B|280:84|280:84|256:50|240:84|240:84|204:76,2,120,2|0|2
424,48,268070,2,0,B|472:84|472:84|472:144,1,120,0|2
472,240,269270,2,0,B|472:300|472:300|424:336,2,120,2|2|2
360,192,271070,6,0,B|240:192,1,120,2|2
120,192,272368,1,2
320,88,273779,5,2
256,188,274567,2,0,B|256:255,1,67.5000025749207,0|2
256,192,276217,12,0,279667
