osu file format v9

[General]
AudioFilename: Lia & riya - Chiisana Tenohira Duo.mp3
AudioLeadIn: 2000
PreviewTime: 197255
Countdown: 0
SampleSet: Soft
StackLeniency: 0.7
Mode: 0
LetterboxInBreaks: 0

[Editor]
DistanceSpacing: 1.2
BeatDivisor: 4
GridSize: 4

[Metadata]
Title:Chiisana Tenohira Duo
Artist:Lia & riya
Creator:Darksonic
Version:Hard
Source:Clannad
Tags:kyoto animation furukawa nagisa fujibayashi ryou kyou ichinose kotomi sakagami tomoyo ibuki fuuko

[Difficulty]
HPDrainRate:6
CircleSize:5
OverallDifficulty:6
ApproachRate:6
SliderMultiplier:1.4
SliderTickRate:1

[Events]
//Background and Video events
0,0,"BG.jpg"
//Break Periods
//Storyboard Layer 0 (Background)
//Storyboard Layer 1 (Fail)
//Storyboard Layer 2 (Pass)
//Storyboard Layer 3 (Foreground)
//Storyboard Sound Samples
//Background Colour Transformations
3,100,163,162,255

[TimingPoints]
474,599.700149925038,4,2,1,30,1,0
17265,-100,4,2,0,5,0,0
19677,600,4,2,1,30,1,0
36777,-100,4,2,0,5,0,0
38868,601.202404809619,4,2,1,30,1,0
74905,600.901352028042,4,2,1,30,1,0
101340,599.580293794344,4,2,1,30,1,0
120510,601.202404809619,4,2,1,40,1,1
126221,-100,4,2,2,40,0,1
126822,-100,4,2,1,40,0,1
131031,-100,4,2,2,40,0,1
131632,-100,4,2,1,40,0,1
138546,-100,4,2,1,30,0,0
139735,599.880023995201,4,2,1,40,1,1
140634,-100,4,2,2,40,0,1
141234,-100,4,2,1,40,0,1
145433,-100,4,2,2,40,0,1
146033,-100,4,2,1,40,0,1
150232,-100,4,2,2,40,0,1
150832,-100,4,2,1,40,0,1
158927,600.660726799479,4,2,1,30,1,0
192865,-100,4,2,1,25,0,0
193765,-100,4,2,1,20,0,0
194665,-100,4,2,1,15,0,0
195565,-100,4,2,1,10,0,0
196465,-100,4,2,1,5,0,0
197615,600,4,2,1,30,1,0
198815,-100,4,2,1,40,0,1
199715,-100,4,2,2,40,0,1
200315,-100,4,2,1,40,0,1
204515,-100,4,2,2,40,0,1
205115,-100,4,2,1,40,0,1
209315,-100,4,2,2,40,0,1
209915,-100,4,2,1,40,0,1
216815,-100,4,2,1,30,0,0
218015,-100,4,2,1,40,0,1
218915,-100,4,2,2,40,0,1
219515,-100,4,2,1,40,0,1
223715,-100,4,2,2,40,0,1
224315,-100,4,2,1,40,0,1
237215,-133.333333333333,4,2,1,25,0,0
250460,631.578947368421,4,2,1,25,1,0
250460,-133.333333333333,4,2,1,25,0,0
251091,666.666666666667,4,2,1,25,1,0
251091,-133.333333333333,4,2,1,25,0,0
251757,705.882352941176,4,2,1,25,1,0
251757,-133.333333333333,4,2,1,25,0,0
253075,705.882352941176,4,2,1,30,1,0
253075,-133.333333333333,4,2,1,30,0,0
254580,810.810810810811,4,2,1,25,1,0
255390,-100,4,2,1,20,0,0
256201,-100,4,2,1,15,0,0
257012,-100,4,2,1,10,0,0
257823,606.060606060606,4,2,1,10,1,0
258429,-100,4,2,1,25,0,0
265670,600,4,2,1,25,1,0
272368,705.882352941176,4,2,1,25,1,0
273779,750,4,2,1,15,1,0
274567,600,4,2,1,15,1,0
274567,-133.333333333333,4,2,1,15,0,0
276217,-100,4,2,1,5,0,0

[Colours]
Combo1 : 0,128,255
Combo2 : 224,224,224
Combo3 : 247,217,49
Combo4 : 0,255,255

[HitObjects]
80,96,474,1,2
128,148,773,1,0
192,176,1073,2,0,B|248:216|323:215,1,140,2|0
384,92,2273,2,0,B|328:52|252:52,1,140,2|0
140,140,3472,2,0,B|140:192|140:192|96:208|96:262,2,140,2|2|2
248,228,5271,5,2
316,208,5571,1,0
384,192,5871,2,0,B|440:240|440:240|440:306,1,140,2|0
312,368,7070,2,0,B|256:320|256:320|256:253,1,140,2|0
369,171,8270,2,0,B|345:107|256:75|167:107|143:171,1,280,2|2
256,252,10069,6,0,B|256:322,2,70,2|0|2
128,192,11268,1,0
184,64,11868,1,2
328,64,12468,1,0
384,192,13067,1,2
328,320,13667,1,0
184,320,14267,1,2
228,188,14866,6,0,B|256:151|284:188,2,70,2|0|2
312,300,16066,2,0,B|255:374|199:300,1,140,2|2
256,192,17265,12,0,19064
256,48,19677,5,2
312,284,21477,1,2
256,328,21777,1,0
200,284,22077,2,0,B|140:240|122:170,1,140,2|0
256,124,23277,1,2
256,124,24477,1,2
190,280,26277,6,0,B|256:240|322:280,1,140,2|2
322,104,28077,2,0,B|256:144|190:104,2,140,0|2|0
400,76,30477,5,0
476,192,31077,1,2
400,308,31677,1,0
292,48,32877,2,0,B|256:108|256:108|220:48,2,140,0|2|0
52,192,35277,5,2
164,276,35877,1,2
228,300,36177,1,0
256,192,36777,12,0,38577
120,164,38868,6,0,B|148:96|216:67,1,140,2|0
256,128,39769,1,0
296,67,40070,2,0,B|364:96|392:164,1,140,2|0
256,204,41272,2,0,B|256:344,1,140,2|0
256,204,42475,2,0,B|256:64,1,140,2|0
392,88,43677,6,0,B|440:104|440:152|440:152|440:206,1,140,2|0
369,206,44579,1,0
299,206,44880,2,0,B|299:260|299:260|299:308|347:324,1,140,2|0
213,206,46082,2,0,B|213:260|213:260|213:308|165:324,1,140,2|0
116,192,47284,1,2
168,148,47585,1,0
232,124,47886,1,0
372,104,48487,6,0,B|372:184|301:216,1,140,2|0
184,288,49689,2,0,B|83:191,1,140
138,148,50591,2,0,B|192:148|192:148|240:148|256:100,1,140,2|0
256,101,51493,2,0,B|272:149|320:149|320:149|374:149,1,140,2|0
460,40,52695,2,0,B|460:110,1,70,2|0
460,180,53296,5,2
348,260,53898,1,2
300,312,54198,1,0
236,344,54499,1,2
256,64,55701,5,2
156,324,56904,1,2
256,228,57505,1,0
356,324,58106,6,0,B|436:280|428:212,1,140,2|0
356,232,59008,1,0
320,172,59308,2,0,B|345:84|291:41,1,140,2|0
240,172,60511,2,0,B|214:259|268:302,1,140,2|0
316,348,61413,1,0
368,300,61713,1,2
344,164,62314,2,0,B|316:96|241:75,1,140,0|2
112,124,63517,5,0
68,176,63817,1,0
92,240,64118,1,2
196,148,64719,2,0,B|256:112|256:112|316:148,2,140,0|2|0
208,288,66523,1,2
256,236,66823,1,0
304,288,67124,1,0
404,192,67725,6,0,B|360:146|360:146|324:160|285:145,1,140,2|0
172,64,68928,2,0,B|104:84|74:157,1,140,2|0
74,226,69829,2,0,B|104:300|172:320,1,140,2|0
340,192,71332,2,0,B|200:192,2,140,2|2|2
356,52,73136,5,0
292,84,73437,1,2
220,84,73737,1,0
156,52,74038,1,2
256,152,74639,1,0
256,215,74905,1,2
192,340,75505,2,0,B|256:290|320:340,1,140,0|2
408,76,77308,6,0,B|380:152|304:158,1,140,0|2
256,108,78209,1,2
208,159,78510,2,0,B|132:165|104:241,1,140,0|2
204,340,79712,6,0,B|325:270,1,140,0|2
376,318,80613,1,2
415,259,80914,1,0
379,196,81214,1,2
308,201,81514,1,2
256,72,82115,6,0,B|208:72|208:72|174:39|174:39|129:39,1,140,0|2
92,96,83017,1,2
56,160,83317,2,0,B|104:160|104:160|138:193|138:193|182:193,1,140,0|2
456,160,84519,6,0,B|408:160|408:160|374:193|374:193|329:193,1,140,0|2
324,124,85420,1,2
280,76,85721,2,0,B|200:76|158:136,1,140,0|2
88,256,86923,6,0,B|168:256|209:195,1,140,2|0
256,144,87824,1,0
302,195,88124,2,0,B|344:256|424:256,1,140,2|2
432,116,89326,6,0,B|412:68|340:68|320:116,1,140,2|0
256,88,90227,1,0
192,116,90528,2,0,B|172:68|100:68|80:116,1,140,2|0
136,156,91429,1,0
80,196,91730,6,0,B|100:244|172:244|192:196,1,140,2|0
236,140,92631,2,0,B|284:160|284:232|236:252,1,140,2|0
256,192,93532,12,2,94734
156,156,95335,6,0,B|188:131|220:156,1,70,0|2
356,156,95936,2,0,B|324:131|292:156,1,70,0|2
256,192,96537,12,0,98941
148,268,100142,5,2
188,328,100443,1,0
256,340,100743,1,0
324,328,101044,1,0
364,268,101340,2,0,B|432:256|431:159,1,140,2|0
372,124,102239,2,0,B|304:136|304:232,1,140,2|0
268,292,103138,5,2
208,256,103438,1,0
180,192,103738,1,2
208,128,104038,1,0
268,92,104337,1,2
268,92,104937,5,2
208,128,105237,1,0
180,192,105537,1,0
208,256,105836,1,0
268,292,106136,1,2
364,192,106736,6,0,B|432:192,1,70,0|2
148,192,107635,2,0,B|80:192,1,70,0|2
108,128,108235,1,0
156,80,108534,2,0,B|160:40|206:29|252:40|256:80,1,140,2|0
428,112,109734,5,2
372,156,110033,1,0
428,200,110333,1,2
372,244,110633,1,0
428,288,110933,6,0,B|368:324|368:324|297:324,1,140,2|0
298,253,111832,2,0,B|227:253|227:253|167:217,1,140,2|0
184,148,112732,1,2
168,217,113031,1,0
100,200,113331,1,2
168,217,113631,1,0
168,217,113931,1,2
212,348,114530,6,0,B|228:300|256:352|256:352|284:300|300:348,2,140,2|2|2
256,216,116329,1,0
216,84,116929,2,0,B|256:28|256:28|327:28,1,140,2|0
396,28,117828,1,2
328,152,118428,1,2
140,248,119327,5,0
87,338,119627,1,0
78,235,119926,1,0
148,313,120226,1,0
46,290,120510,1,4
168,224,121111,5,0
232,252,121411,1,0
300,256,121712,1,8
360,216,122013,6,0,B|336:184|305:173,1,70,2|2
248,136,122614,1,0
192,96,122914,2,0,B|216:64|246:53,1,70,2|0
316,36,123516,2,0,B|360:76|360:108|360:108|360:161,1,140,2|8
392,224,124417,2,0,B|462:224,2,70,0|2|0
324,224,125319,6,0,B|184:224,1,140,0|2
140,280,126221,2,0,B|108:268|90:224|108:180|140:168,1,140
204,140,127123,1,2
256,188,127423,1,0
296,132,127724,2,0,B|328:144|346:188|328:232|296:244,1,140,0|2
160,212,128926,5,8
69,264,129227,1,0
121,354,129528,1,0
212,302,129828,1,0
160,212,130129,6,0,B|176:140|224:84,1,140,2|0
290,87,131031,2,0,B|336:140|352:212,1,140,2|0
288,236,131932,1,2
256,172,132233,1,0
224,236,132534,1,2
256,300,132834,1,0
288,236,133135,2,0,B|328:232|345:268,1,70,2|0
408,236,133736,2,0,B|373:163|293:171,2,140,10|2|0
296,320,135540,5,2
256,260,135840,1,0
216,320,136141,2,0,B|152:280|112:226,1,140,10|0
160,176,137043,2,0,B|120:229|56:269,1,140,2|0
196,248,138245,1,0
292,208,138546,5,2
328,108,138846,1,0
244,44,139147,1,0
140,64,139447,1,0
128,168,139735,6,0,B|168:240|121:299,1,140,6|0
184,332,140634,2,0,B|256:372|315:325,1,140,2|0
304,256,141534,1,2
372,238,141834,1,0
380,308,142134,1,2
315,326,142434,1,0
304,256,142734,6,0,B|244:220|244:220|173:220,1,140,2|8
174,150,143634,2,0,B|174:80,2,70,0|2|0
173,220,144534,6,0,B|96:232|64:298,1,140,2|0
116,348,145433,2,0,B|193:336|225:269,1,140,2|0
220,200,146333,1,2
292,200,146633,1,0
304,132,146933,2,0,B|256:39|208:132,1,140,2|0
72,100,148133,5,8
156,164,148433,1,0
168,60,148733,1,0
72,100,149033,1,0
156,164,149333,6,0,B|192:188|192:220|192:220|192:291,1,140,2|0
262,291,150232,2,0,B|262:219|262:219|262:187|298:163,1,140,2|0
356,124,151132,1,2
396,180,151432,1,0
442,232,151732,1,2
396,284,152032,1,0
360,344,152332,2,0,B|326:330|292:344,1,70,2|0
220,344,152932,2,0,B|152:372|84:344,2,140,8|2|0
256,208,154732,5,2
208,156,155031,1,0
256,104,155331,2,0,B|322:63|388:104,1,140,8|2
440,56,156231,2,0,B|371:93|374:171,1,140,0|2
256,192,156981,12,0,158927
200,120,159527,5,0
256,76,159827,1,0
312,120,160128,1,2
312,264,160728,5,0
256,308,161029,1,0
200,264,161329,2,0,B|172:240|136:232,2,70,2|0|0
256,308,162230,1,0
312,264,162530,2,0,B|368:216|435:201,2,140,2|2|0
256,192,163882,12,8,167336
359,230,168537,6,0,B|360:308|360:308|336:336|304:314,1,140,0|2
256,264,169438,1,0
207,314,169738,2,0,B|176:336|152:308|152:308|152:230,1,140,0|2
152,160,170639,1,0
212,120,170940,2,0,B|282:120,2,70,0|0|2
332,192,172141,5,10
256,308,172742,1,2
180,192,173342,1,2
256,192,173493,12,8,176946
164,160,178148,6,0,B|156:84|224:43,1,140,0|2
256,108,179049,1,0
287,43,179349,2,0,B|356:84|347:160,1,140,0|2
348,230,180250,1,0
292,276,180550,5,0
224,268,180851,1,0
168,224,181151,1,2
156,292,181451,1,0
224,268,181752,2,0,B|256:208|256:208|256:135,1,140,2|2
256,192,182502,12,0,185356
256,264,186557,6,0,B|256:334,2,70,8|0|0
256,192,187458,1,0
312,148,187758,2,0,B|292:100|220:100|200:148,1,140,2|0
256,190,188659,1,0
200,232,188960,2,0,B|220:280|292:280|312:232,1,140,2|0
256,190,189861,1,0
291,129,190161,6,0,B|323:109|356:106,2,70,2|0|0
221,129,191062,2,0,B|189:109|156:106,2,70,2|0|0
256,192,191963,12,0,196468
216,244,197615,5,0
308,192,197915,1,0
204,192,198215,1,0
292,244,198515,1,0
256,144,198815,6,0,B|320:116|392:120,1,140,6|0
360,184,199715,2,0,B|429:191|490:231,1,140,2|0
440,280,200615,1,2
392,332,200915,1,0
372,264,201215,1,2
440,280,201515,2,0,B|468:256|468:256|468:222,2,70,0|2|0
372,264,202415,5,8
332,208,202715,1,0
280,164,203015,1,2
216,140,203315,1,0
148,131,203615,6,0,B|84:184|95:254,1,140,2|0
24,244,204515,2,0,B|101:273|156:228,1,140,2|0
212,188,205415,2,0,B|244:160|277:175,2,70,2|2|2
256,56,206615,1,2
380,120,207215,5,8
380,224,207515,1,0
296,160,207815,1,0
296,264,208115,1,0
212,200,208415,6,0,B|212:156|212:156|160:136|174:77,1,140,6|0
103,79,209315,2,0,B|117:137|65:157|65:157|65:201,1,140,2|0
104,260,210215,1,2
144,200,210515,1,0
184,260,210815,2,0,B|208:288|239:301,1,70,2|0
192,356,211415,2,0,B|287:253,1,140,2|8
328,120,212615,5,2
184,120,213215,1,0
256,240,213815,2,0,B|256:310,2,70,2|0|8
256,168,214715,2,0,B|256:98,1,70,0|2
188,112,215315,2,0,B|256:84|324:112,1,140,2|2
440,192,216515,1,0
396,244,216815,5,8
300,280,217115,1,0
396,244,217415,1,0
300,196,217715,1,0
396,244,218015,6,0,B|396:176|396:176|338:132,1,140,6|0
268,132,218915,2,0,B|210:175|210:175|210:243,1,140,2|0
280,244,219815,1,2
244,304,220115,1,0
174,304,220415,1,2
136,244,220715,2,0,B|130:204|101:185,2,70,0|2|0
174,304,221615,6,0,B|180:344|208:362,2,70,8|0|2
136,244,222515,1,0
155,176,222815,2,0,B|208:124|220:52,1,140,2|0
292,52,223715,2,0,B|304:124|356:176,1,140,2|0
288,192,224615,2,0,B|256:178|256:178|224:192,2,70,2|0|2
256,328,225815,1,0
368,244,226415,5,8
336,144,226715,1,0
256,76,227015,1,0
176,144,227315,1,0
144,244,227615,6,0,B|188:248|197:283,1,70,4|0
256,324,228215,1,2
314,283,228515,2,0,B|324:248|368:244,1,70,0|8
384,176,229115,2,0,B|418:166|444:202,2,70,2|2|2
316,156,230015,2,0,B|281:165|255:129,1,70,0|2
208,80,230615,2,0,B|192:152|119:182,1,140,2|8
34,284,231815,2,0,B|50:212|122:181,1,140,2|0
216,284,233015,5,2
272,324,233315,1,0
340,332,233615,2,0,B|364:268|364:268|435:268,1,140,10|0
436,200,234515,2,0,B|364:200|364:200|340:136,1,140,2|0
312,72,235415,1,0
172,88,236015,5,8
245,160,236315,1,0
170,234,236615,1,0
96,159,236915,1,0
170,234,237215,6,0,B|166:262|198:274,1,52.5000020027161,4|0
256,292,237815,1,2
314,274,238115,2,0,B|346:262|342:234,1,52.5000020027161,2|0
332,172,238715,1,0
304,116,239015,1,2
256,72,239315,1,0
208,116,239615,1,2
180,172,239915,1,0
224,220,240215,6,0,B|228:280|181:310,1,105.000004005432,2|2
128,276,241115,2,0,B|116:248|86:249,2,52.5000020027161,0|2|0
181,310,242015,6,0,B|193:338|222:336,1,52.5000020027161,2|0
256,280,242615,1,2
290,336,242915,2,0,B|319:338|331:310,1,52.5000020027161,2|0
344,248,243515,1,0
384,200,243815,1,2
344,152,244115,1,0
384,104,244415,2,0,B|348:60|293:54,1,105.000004005432,2|0
256,180,245615,5,2
212,100,245915,1,0
300,100,246215,1,2
256,180,246515,1,0
256,268,246815,6,0,B|308:268,1,52.5000020027161,2|0
340,213,247415,1,2
368,156,247715,2,0,B|420:156,1,52.5000020027161,2|0
452,212,248315,2,0,B|468:236|467:261,2,52.5000020027161,0|2|0
421,156,249215,1,2
384,104,249515,1,0
340,60,249815,2,0,B|317:48|289:48,1,52.5000020027161,2|0
256,112,250460,5,2
168,192,251091,1,2
256,272,251757,1,2
256,112,253075,5,2
232,236,253780,2,0,B|256:255|280:236,1,52.5000020027161,2|0
256,192,254580,12,2,257823
256,280,258429,6,0,B|256:210,1,70,0|2
256,140,259035,1,0
292,80,259338,2,0,B|324:64|360:64,2,70,0|2|0
220,80,260247,2,0,B|188:64|152:64,2,70,2|0|2
320,176,261459,5,2
308,244,261762,1,0
256,292,262065,1,2
204,244,262368,1,0
191,174,262671,6,0,B|172:148|172:148|104:148|88:94,1,140,2|2
140,48,263580,2,0,B|35:141,1,140,2|0
80,196,264489,2,0,B|80:266,2,70,2|0|2
80,196,265670,1,2
168,304,266270,5,2
216,252,266570,1,0
168,304,266870,1,2
216,252,267170,1,0
216,184,267470,6,0,B|188:160|188:122,1,70,2|0
120,108,268070,2,0,B|107:73|126:40,1,70,0|2
196,56,268670,1,0
264,56,268970,6,0,B|334:56,2,70,0|2|0
196,56,269870,1,2
264,56,270170,1,0
196,56,270470,1,2
316,128,271070,5,2
272,200,271670,1,2
200,244,272368,1,2
148,256,273779,5,2
116,180,274567,2,0,B|116:101,1,78.7500030040742,0|2
256,192,276217,12,0,279667
