osu file format v12

[General]
AudioFilename: traumerei.mp3
AudioLeadIn: 0
PreviewTime: 42186
Countdown: 0
SampleSet: Normal
StackLeniency: 0.7
Mode: 0
LetterboxInBreaks: 0
WidescreenStoryboard: 0

[Editor]
DistanceSpacing: 1.2
BeatDivisor: 4
GridSize: 4

[Metadata]
Title:traumerei (TV Size)
TitleUnicode:träumerei (TV Size)
Artist:LiSA
ArtistUnicode:LiSA
Creator:kusano
Version:Normal
Source:Genei o Kakeru Taiyou
Tags:opening kitsuneko il sole penetra le illusioni
BeatmapID:273305
BeatmapSetID:103281

[Difficulty]
HPDrainRate:3
CircleSize:3
OverallDifficulty:3
ApproachRate:4
SliderMultiplier:1
SliderTickRate:1

[Events]
//Background and Video events
0,0,"geneitaiyo.jpg",0,0
Video,0,"video.avi"
//Break Periods
//Storyboard Layer 0 (Background)
//Storyboard Layer 1 (Fail)
//Storyboard Layer 2 (Pass)
//Storyboard Layer 3 (Foreground)
//Storyboard Sound Samples
//Background Colour Transformations
3,100,163,162,255

[TimingPoints]
660,315.789473684211,4,1,1,90,1,0
9502,-100,4,1,1,80,0,0
29712,-100,4,1,1,70,0,0
37291,-100,4,1,1,80,0,0
41081,-100,4,1,1,70,0,0
41396,-100,4,1,1,65,0,0
41712,-100,4,1,1,60,0,0
42028,-100,4,1,1,55,0,0
42344,-100,4,1,1,90,0,1
62554,-100,4,1,1,85,0,0
72660,-100,4,1,1,90,0,1
85291,-100,4,1,1,5,0,1
85370,-100,4,1,1,5,0,0

[Colours]
Combo1 : 252,196,3
Combo2 : 0,236,95
Combo3 : 40,164,255
Combo4 : 243,22,116

[HitObjects]
64,84,4449,2,0,L|272:84,1,200,4|0,0:0|0:0,0:0:0:0:
364,84,5396,2,0,P|412:76|468:88,2,100
340,180,6344,2,0,P|288:188|244:172,1,100
224,72,6975,6,0,P|128:56|36:104,1,200
128,152,7923,2,0,P|68:228|72:328,1,200,0|0,0:0|0:0,0:0:0:0:
164,368,8870,2,0,L|280:360,1,100
332,288,9502,6,0,P|428:264|520:304,1,200,4|8,0:0|0:0,0:0:0:0:
356,180,10765,2,0,P|260:204|168:172,1,200,2|10,0:0|0:0,0:0:0:0:
116,88,11712,1,0,0:0:0:0:
20,60,12028,6,0,P|4:108|8:164,1,100,0|0,0:0|0:0,0:0:0:0:
48,248,12660,2,0,P|96:264|152:260,1,100,8|0,0:0|0:0,0:0:0:0:
192,244,13133,2,0,P|256:196|324:180,1,150,2|10,0:0|0:0,0:0:0:0:
404,240,13923,2,0,L|392:348,1,100
292,344,14554,6,0,P|196:364|100:328,1,200,0|8,0:0|0:0,0:0:0:0:
40,140,15817,2,0,L|148:136,1,100,2|0,0:0|0:0,0:0:0:0:
204,60,16449,2,0,L|312:64,1,100,10|0,0:0|0:0,0:0:0:0:
404,72,17081,5,0,0:0:0:0:
500,104,17396,2,0,P|520:144|516:208,2,100,0|8|0,0:0|0:0|0:0,0:0:0:0:
421,167,18344,2,0,P|325:187|233:143,1,200,0|8,0:0|0:0,0:0:0:0:
161,77,19291,1,0,0:0:0:0:
60,80,19607,6,0,P|4:160|0:264,1,200,4|8,0:0|0:0,0:0:0:0:
164,364,20870,2,0,L|268:360,1,100,2|0,0:0|0:0,0:0:0:0:
312,272,21502,2,0,L|416:276,2,100,10|0|0,0:0|0:0|0:0,0:0:0:0:
240,204,22449,6,0,P|144:184|48:216,1,200
212,96,23712,2,0,P|308:116|404:84,1,200,2|0,0:0|0:0,0:0:0:0:
500,108,24660,6,0,L|508:224,1,100,0|0,0:0|0:0,0:0:0:0:
512,308,25291,1,8,0:0:0:0:
336,212,25923,2,0,L|228:208,1,100,2|0,0:0|0:0,0:0:0:0:
152,264,26554,2,0,P|56:280|-16:212,1,200,10|0,0:0|0:0,0:0:0:0:
116,68,27817,6,0,L|316:60,1,200,8|0,0:0|0:0,0:0:0:0:
404,108,28765,2,0,L|516:112,2,100,0|8|0,0:0|0:0|0:0,0:0:0:0:
312,148,29712,6,0,P|216:120|128:160,1,200,4|8,0:0|0:0,0:0:0:0:
156,356,30975,2,0,L|356:352,1,200,0|8,0:0|0:0,0:0:0:0:
488,204,32238,6,0,P|508:104|476:12,1,200,0|8,0:0|0:0,0:0:0:0:
284,68,33502,2,0,L|76:64,1,200,0|8,0:0|0:0,0:0:0:0:
0,120,34449,1,0,0:0:0:0:
88,164,34765,6,0,P|128:244|116:352,1,200,0|8,0:0|0:0,0:0:0:0:
264,220,36028,2,0,P|360:196|452:232,1,200,0|8,0:0|0:0,0:0:0:0:
492,324,36975,1,0,0:0:0:0:
400,364,37291,6,0,L|296:368,1,100,4|8,0:0|0:0,0:0:0:0:
216,312,37923,2,0,L|112:308,1,100,0|8,0:0|0:0,0:0:0:0:
16,300,38554,1,0,0:0:0:0:
76,220,38870,1,8,0:0:0:0:
28,132,39186,1,0,0:0:0:0:
88,52,39502,1,8,0:0:0:0:
184,72,39817,6,0,L|392:68,1,200,4|0,0:0|0:0,0:0:0:0:
344,264,41081,2,0,L|444:260,1,100
484,168,41712,2,0,L|384:164,1,100
284,168,42344,6,0,P|236:160|176:156,1,100,4|0,0:0|0:0,0:0:0:0:
84,168,42975,1,8,0:0:0:0:
28,252,43291,1,0,0:0:0:0:
76,340,43607,2,0,L|180:344,1,100
260,292,44238,2,0,P|356:276|452:312,1,200,8|4,0:0|0:0,0:0:0:0:
288,192,45502,6,0,P|276:144|280:88,1,100,8|0,0:0|0:0,0:0:0:0:
356,32,46133,2,0,L|468:20,2,100,0|0|8,0:0|0:0|0:0,0:0:0:0:
280,94,47081,1,0,0:0:0:0:
200,36,47396,6,0,P|104:20|4:48,1,200,4|8,0:0|0:0,0:0:0:0:
0,148,48344,1,0,0:0:0:0:
102,143,48660,2,0,L|106:251,1,100,0|0,0:0|0:0,0:0:0:0:
204,272,49291,2,0,L|200:380,2,100,8|0|4,0:0|0:0|0:0,0:0:0:0:
296,120,50554,6,0,P|376:64|484:60,1,200,8|0,0:0|0:0,0:0:0:0:
512,152,51502,2,0,L|508:268,1,100,0|8,0:0|0:0,0:0:0:0:
504,352,52133,1,0,0:0:0:0:
408,320,52449,6,0,L|300:316,2,100,4|0|8,0:0|0:0|0:0,0:0:0:0:
484,256,53396,1,0,0:0:0:0:
420,180,53712,2,0,L|216:172,1,200,0|8,0:0|0:0,0:0:0:0:
120,168,54660,1,0,0:0:0:0:
24,192,54975,6,0,P|8:144|12:92,1,100,4|0,0:0|0:0,0:0:0:0:
88,32,55607,2,0,L|204:24,1,100,8|0,0:0|0:0,0:0:0:0:
276,72,56238,1,0,0:0:0:0:
360,20,56554,1,0,0:0:0:0:
456,44,56870,2,0,P|500:124|492:232,1,200,8|4,0:0|0:0,0:0:0:0:
328,344,58133,6,0,L|220:340,1,100,8|0,0:0|0:0,0:0:0:0:
164,264,58765,2,0,P|68:284|-8:224,1,200,0|8,0:0|0:0,0:0:0:0:
116,68,60028,6,0,P|208:32|308:48,1,200,4|8,0:0|0:0,0:0:0:0:
388,104,60975,1,0,0:0:0:0:
320,176,61291,2,0,L|208:180,1,100
180,272,61923,2,0,L|292:276,1,100,8|0,0:0|0:0,0:0:0:0:
380,280,62554,5,6,0:0:0:0:
488,112,63186,1,8,0:0:0:0:
292,80,63817,2,0,P|196:60|96:68,1,200,2|8,0:0|0:0,0:0:0:0:
16,128,64765,1,0,0:0:0:0:
44,224,65081,5,6,0:0:0:0:
184,360,65712,1,8,0:0:0:0:
372,304,66344,2,0,P|408:212|400:112,1,200,2|8,0:0|0:0,0:0:0:0:
324,48,67291,1,0,0:0:0:0:
228,72,67607,6,0,L|112:68,1,100,6|0,0:0|0:0,0:0:0:0:
88,160,68238,2,0,L|204:164,1,100,8|0,0:0|0:0,0:0:0:0:
264,228,68870,2,0,L|380:224,1,100,2|0,0:0|0:0,0:0:0:0:
408,136,69502,2,0,L|292:132,1,100,8|0,0:0|0:0,0:0:0:0:
228,72,70133,5,4,0:0:0:0:
64,188,70765,2,0,L|48:296,2,100,8|0|4,0:0|0:0|0:0,0:0:0:0:
80,88,71712,1,0,0:0:0:0:
160,148,72028,1,8,0:0:0:0:
240,208,72344,1,0,0:0:0:0:
320,268,72660,6,0,L|440:264,1,100,4|0,0:0|0:0,0:0:0:0:
468,176,73291,2,0,L|368:172,1,100,8|0,0:0|0:0,0:0:0:0:
288,112,73923,2,0,P|200:64|100:52,1,200,0|8,0:0|0:0,0:0:0:0:
16,104,74870,6,0,L|4:216,2,100,0|4|0,0:0|0:0|0:0,0:0:0:0:
104,152,75817,2,0,L|114:251,1,100,8|0,0:0|0:0,0:0:0:0:
176,332,76449,2,0,P|272:356|356:308,1,200,0|8,0:0|0:0,0:0:0:0:
300,116,77712,6,0,L|188:108,2,100,4|0|8,0:0|0:0|0:0,0:0:0:0:
392,76,78660,1,0,0:0:0:0:
480,120,78975,2,0,P|508:212|492:316,1,200,0|8,0:0|0:0,0:0:0:0:
404,360,79923,1,0,0:0:0:0:
316,312,80238,6,0,L|204:308,1,100,4|0,0:0|0:0,0:0:0:0:
140,244,80870,2,0,L|28:240,1,100,8|0,0:0|0:0,0:0:0:0:
0,148,81502,2,0,L|112:144,1,100,0|0,0:0|0:0,0:0:0:0:
156,60,82133,2,0,L|356:52,1,200,8|4,0:0|0:0,0:0:0:0:
476,144,83238,6,0,L|484:308,2,150,8|8|8,0:0|0:0|0:0,0:0:0:0:
368,40,84660,2,0,L|256:36,1,100,8|8,0:0|0:0,0:0:0:0:
256,192,85291,12,0,88212,0:0:0:0:
