osu file format v12

[General]
AudioFilename: traumerei.mp3
AudioLeadIn: 0
PreviewTime: 42186
Countdown: 0
SampleSet: Normal
StackLeniency: 0.7
Mode: 0
LetterboxInBreaks: 0
WidescreenStoryboard: 0

[Editor]
DistanceSpacing: 1.2
BeatDivisor: 4
GridSize: 4

[Metadata]
Title:traumerei (TV Size)
TitleUnicode:träumerei (TV Size)
Artist:LiSA
ArtistUnicode:LiSA
Creator:kusano
Version:Insane
Source:Genei o Kakeru Taiyou
Tags:opening kitsuneko il sole penetra le illusioni
BeatmapID:272291
BeatmapSetID:103281

[Difficulty]
HPDrainRate:7
CircleSize:4
OverallDifficulty:8
ApproachRate:9
SliderMultiplier:1.7
SliderTickRate:1

[Events]
//Background and Video events
0,0,"geneitaiyo.jpg",0,0
Video,0,"video.avi"
//Break Periods
//Storyboard Layer 0 (Background)
//Storyboard Layer 1 (Fail)
//Storyboard Layer 2 (Pass)
//Storyboard Layer 3 (Foreground)
//Storyboard Sound Samples
//Background Colour Transformations
3,100,163,162,255

[TimingPoints]
660,315.789473684211,4,1,1,70,1,0
9502,-100,4,1,1,80,0,0
29712,-133.333333333333,4,1,1,70,0,0
37291,-100,4,1,1,80,0,0
41081,-133.333333333333,4,1,1,55,0,0
41396,-133.333333333333,4,1,1,50,0,0
41712,-133.333333333333,4,1,1,40,0,0
42028,-133.333333333333,4,1,1,47,0,0
42344,-90.9090909090909,4,1,1,90,0,1
62554,-90.9090909090909,4,1,1,85,0,0
72660,-90.9090909090909,4,1,1,90,0,1
85370,-90.9090909090909,4,1,1,5,0,0

[Colours]
Combo1 : 252,196,3
Combo2 : 0,236,95
Combo3 : 40,164,255
Combo4 : 243,22,116

[HitObjects]
128,80,4449,1,4,0:0:0:0:
44,120,4607,2,0,P|16:196|40:280,1,170,0|0,0:0|0:0,0:0:0:0:
124,320,5081,2,0,L|220:328,1,85,0|0,0:0|0:0,0:0:0:0:
120,160,5396,1,4,0:0:0:0:
176,236,5554,2,0,P|260:224|352:236,1,170,0|0,0:0|0:0,0:0:0:0:
388,320,6028,2,0,L|292:328,1,85,0|0,0:0|0:0,0:0:0:0:
468,192,6344,6,0,L|472:276,1,85,4|0,0:0|0:0,0:0:0:0:
392,128,6660,2,0,L|388:44,1,85
332,208,6975,2,0,P|264:248|176:236,1,170,4|0,0:0|0:0,0:0:0:0:
108,172,7449,1,0,0:0:0:0:
332,208,7607,1,0,0:0:0:0:
304,120,7765,1,0,0:0:0:0:
148,256,7923,6,0,P|140:300|140:352,1,85,4|0,0:0|0:0,0:0:0:0:
108,172,8238,2,0,P|112:128|112:88,1,85,0|0,0:0|0:0,0:0:0:0:
56,248,8554,2,0,P|48:292|48:344,1,85
20,164,8870,1,0,0:0:0:0:
68,84,9028,1,0,0:0:0:0:
84,60,9107,1,0,0:0:0:0:
108,44,9186,1,0,0:0:0:0:
136,36,9265,1,0,0:0:0:0:
164,32,9344,1,0,0:0:0:0:
192,36,9423,1,0,0:0:0:0:
220,48,9502,6,0,L|308:44,1,85,6|0,0:0|0:0,0:0:0:0:
428,128,9817,2,0,L|340:132,1,85,8|0,0:0|0:0,0:0:0:0:
248,136,10133,1,0,0:0:0:0:
304,212,10291,2,0,L|392:216,1,85,0|8,0:0|0:0,0:0:0:0:
248,136,10607,6,0,P|164:124|80:152,1,170
28,244,11081,2,0,P|112:232|196:260,1,170,8|2,0:0|0:0,0:0:0:0:
252,328,11554,1,0,0:0:0:0:
248,136,11712,1,8,0:0:0:0:
304,212,11870,1,0,0:0:0:0:
216,248,12028,6,0,P|176:252|132:248,1,85,2|0,0:0|0:0,0:0:0:0:
304,212,12344,2,0,P|344:208|388:212,1,85,8|0,0:0|0:0,0:0:0:0:
248,136,12660,2,0,P|204:140|164:136,1,85
163,135,12975,1,8,0:0:0:0:
304,212,13133,6,0,B|368:248|400:184|472:216,1,170,0|0,0:0|0:0,0:0:0:0:
344,136,13607,1,8,0:0:0:0:
428,292,13765,1,0,0:0:0:0:
344,136,13923,1,2,0:0:0:0:
340,292,14081,1,0,0:0:0:0:
470,215,14238,2,0,P|478:175|478:123,1,85,8|0,0:0|0:0,0:0:0:0:
304,212,14554,6,0,P|256:252|192:264,1,127.5,2|0,0:0|0:0,0:0:0:0:
148,248,14870,2,0,P|108:240|60:240,1,85,8|0,0:0|0:0,0:0:0:0:
216,184,15186,1,0,0:0:0:0:
200,324,15344,1,0,0:0:0:0:
292,304,15502,1,8,0:0:0:0:
216,184,15660,1,0,0:0:0:0:
288,124,15817,6,0,P|328:104|372:96,1,85,2|0,0:0|0:0,0:0:0:0:
476,232,16133,2,0,P|396:248|352:180,1,170,8|2,0:0|0:0,0:0:0:0:
476,232,16607,1,0,0:0:0:0:
440,144,16765,2,0,L|444:56,1,85,8|0,0:0|0:0,0:0:0:0:
384,268,17081,6,0,B|312:312|284:236|216:272,1,170,2|8,0:0|0:0,0:0:0:0:
384,268,17554,1,0,0:0:0:0:
256,344,17712,2,0,P|216:348|168:336,1,85
336,200,18028,1,8,0:0:0:0:
256,344,18186,1,0,0:0:0:0:
256,344,18265,1,0,0:0:0:0:
256,344,18344,1,0,0:0:0:0:
216,260,18502,5,0,0:0:0:0:
164,336,18660,1,8,0:0:0:0:
300,272,18817,1,0,0:0:0:0:
132,256,18975,1,4,0:0:0:0:
256,180,19133,1,0,0:0:0:0:
276,148,19212,1,0,0:0:0:0:
308,128,19291,1,8,0:0:0:0:
344,120,19370,1,0,0:0:0:0:
380,128,19449,1,0,0:0:0:0:
408,152,19528,1,0,0:0:0:0:
428,184,19607,6,0,L|424:276,1,85,6|0,0:0|0:0,0:0:0:0:
172,180,19923,2,0,L|168:95,1,85,8|0,0:0|0:0,0:0:0:0:
116,16,20238,1,0,0:0:0:0:
24,32,20396,2,0,B|32:64|32:64|20:117,1,85,0|8,0:0|0:0,0:0:0:0:
80,188,20712,6,0,B|92:256|164:272,1,127.5
212,276,21028,2,0,P|256:264|308:264,1,85,0|8,0:0|0:0,0:0:0:0:
376,312,21344,1,0,0:0:0:0:
264,200,21502,1,2,0:0:0:0:
296,288,21660,1,0,0:0:0:0:
180,196,21817,1,8,0:0:0:0:
344,168,21975,5,0,0:0:0:0:
344,168,22054,1,0,0:0:0:0:
344,168,22133,2,0,P|396:160|444:164,1,85,2|0,0:0|0:0,0:0:0:0:
272,112,22449,2,0,P|188:120|104:100,1,170,8|0,0:0|0:0,0:0:0:0:
196,36,22923,1,0,0:0:0:0:
180,196,23081,1,8,0:0:0:0:
108,136,23238,6,0,P|72:116|24:108,1,85,0|2,0:0|0:0,0:0:0:0:
20,248,23554,2,0,P|56:228|104:220,1,85,0|8,0:0|0:0,0:0:0:0:
176,316,23870,2,0,P|128:324|80:304,1,85,0|2,0:0|0:0,0:0:0:0:
248,260,24186,1,0,0:0:0:0:
400,288,24344,2,0,L|408:200,1,85,8|0,0:0|0:0,0:0:0:0:
384,112,24660,6,0,P|308:80|220:80,1,170,2|8,0:0|0:0,0:0:0:0:
136,120,25133,1,0,0:0:0:0:
136,120,25212,1,0,0:0:0:0:
136,120,25291,2,0,L|36:112,1,85,0|0,0:0|0:0,0:0:0:0:
144,32,25607,1,8,0:0:0:0:
216,164,25765,6,0,L|320:172,1,85,0|2,0:0|0:0,0:0:0:0:
384,112,26081,2,0,L|488:104,1,85,0|8,0:0|0:0,0:0:0:0:
308,172,26396,1,0,0:0:0:0:
470,105,26554,1,2,0:0:0:0:
420,24,26712,1,0,0:0:0:0:
308,172,26870,1,8,0:0:0:0:
392,224,27028,5,0,0:0:0:0:
392,224,27107,1,0,0:0:0:0:
392,224,27186,2,0,L|388:312,1,85,2|0,0:0|0:0,0:0:0:0:
288,260,27502,2,0,P|204:240|124:264,1,170,8|0,0:0|0:0,0:0:0:0:
0,188,27975,2,0,P|40:196|88:188,1,85,0|8,0:0|0:0,0:0:0:0:
164,140,28291,6,0,L|160:52,1,85,0|0,0:0|0:0,0:0:0:0:
204,224,28607,2,0,L|208:312,1,85,0|8,0:0|0:0,0:0:0:0:
256,144,28923,1,0,0:0:0:0:
256,144,29002,1,0,0:0:0:0:
256,144,29081,1,0,0:0:0:0:
320,76,29238,1,0,0:0:0:0:
408,104,29396,1,8,0:0:0:0:
320,76,29554,1,0,0:0:0:0:
344,168,29712,6,0,P|352:228|348:296,1,127.500004863739,4|0,0:0|0:0,0:0:0:0:
284,348,30186,1,0,0:0:0:0:
220,296,30344,2,0,L|148:288,1,63.7500024318696,8|0,0:0|0:0,0:0:0:0:
32,312,30660,2,0,L|24:240,1,63.7500024318696
96,92,30975,6,0,P|120:144|116:216,1,127.500004863739,0|0,0:0|0:0,0:0:0:0:
288,96,31607,2,0,P|352:88|416:104,1,127.500004863739,8|0,0:0|0:0,0:0:0:0:
280,220,32238,6,0,P|220:208|152:224,1,127.500004863739,0|0,0:0|0:0,0:0:0:0:
100,284,32712,1,0,0:0:0:0:
144,356,32870,2,0,P|204:372|268:352,1,127.500004863739,8|0,0:0|0:0,0:0:0:0:
328,300,33344,1,0,0:0:0:0:
412,288,33502,6,0,L|420:360,1,63.7500024318696,0|0,0:0|0:0,0:0:0:0:
360,220,33817,2,0,L|352:148,1,63.7500024318696,0|0,0:0|0:0,0:0:0:0:
340,76,34133,1,8,0:0:0:0:
476,140,34291,1,0,0:0:0:0:
476,140,34370,1,0,0:0:0:0:
476,140,34449,2,0,L|472:212,1,63.7500024318696
328,300,34765,6,0,P|264:280|200:288,1,127.500004863739,4|0,0:0|0:0,0:0:0:0:
128,316,35238,2,0,L|52:312,1,63.7500024318696,0|8,0:0|0:0,0:0:0:0:
208,120,35712,2,0,L|284:116,1,63.7500024318696
128,164,36028,6,0,P|64:152|4:168,1,127.500004863739
72,248,36502,1,0,0:0:0:0:
204,268,36660,2,0,L|216:200,1,63.7500024318696,8|0,0:0|0:0,0:0:0:0:
128,316,36975,1,0,0:0:0:0:
128,316,37054,1,0,0:0:0:0:
128,316,37133,1,0,0:0:0:0:
292,244,37291,6,0,L|296:152,1,85,4|0,0:0|0:0,0:0:0:0:
452,88,37607,2,0,L|456:180,1,85,8|0,0:0|0:0,0:0:0:0:
360,300,37923,2,0,P|304:328|240:316,1,127.5
208,284,38238,1,8,0:0:0:0:
296,160,38396,1,8,0:0:0:0:
448,212,38554,6,0,L|444:308,1,85,0|0,0:0|0:0,0:0:0:0:
208,192,38870,2,0,P|198:149|208:96,1,85,8|0,0:0|0:0,0:0:0:0:
124,236,39186,2,0,L|120:332,1,85
296,160,39502,2,0,B|256:92|180:104|180:104|168:60,1,170,8|4,0:0|0:0,0:0:0:0:
208,192,39975,5,0,0:0:0:0:
212,212,40054,1,0,0:0:0:0:
216,232,40133,1,8,0:0:0:0:
296,160,40291,1,8,0:0:0:0:
181,308,40449,1,0,0:0:0:0:
160,305,40528,1,0,0:0:0:0:
140,302,40607,1,0,0:0:0:0:
120,300,40686,1,0,0:0:0:0:
100,297,40765,1,8,0:0:0:0:
79,295,40844,1,0,0:0:0:0:
59,292,40923,1,0,0:0:0:0:
39,289,41002,1,0,0:0:0:0:
19,287,41081,6,0,L|12:208,1,63.7500024318696,0|2,0:0|0:0,0:0:0:0:
100,144,41396,2,0,L|96:224,1,63.7500024318696,0|2,0:0|0:0,0:0:0:0:
16,124,41712,2,0,L|12:44,1,63.7500024318696,0|2,0:0|0:0,0:0:0:0:
176,184,42028,2,0,L|180:264,1,63.7500024318696,0|2,0:0|0:0,0:0:0:0:
176,96,42344,6,0,B|208:40|264:44|264:44|312:60,1,140.25000428009,4|0,0:0|0:0,0:0:0:0:
340,68,42660,2,0,L|452:64,1,93.5000028533936,8|0,0:0|0:0,0:0:0:0:
270,188,42975,2,0,L|158:184,1,93.5000028533936,0|0,0:0|0:0,0:0:0:0:
360,156,43291,2,0,L|472:152,1,93.5000028533936,8|0,0:0|0:0,0:0:0:0:
212,256,43607,6,0,P|140:244|68:264,1,140.25000428009,0|0,0:0|0:0,0:0:0:0:
32,288,43923,2,0,L|28:180,1,93.5000028533936,8|0,0:0|0:0,0:0:0:0:
270,188,44238,2,0,B|316:268|256:332|256:332|288:356,1,187.000005706787,0|8,0:0|0:0,0:0:0:0:
372,324,44712,1,0,0:0:0:0:
212,256,44870,6,0,B|164:176|224:116|224:116|194:88,1,187.000005706787,4|8,0:0|0:0,0:0:0:0:
116,48,45344,1,0,0:0:0:0:
270,188,45502,2,0,P|317:197|376:200,1,93.5000028533936,0|0,0:0|0:0,0:0:0:0:
432,136,45817,1,8,0:0:0:0:
270,188,45975,1,0,0:0:0:0:
196,136,46133,6,0,P|104:116|12:144,1,187.000005706787,0|8,0:0|0:0,0:0:0:0:
104,256,46607,2,0,P|152:252|200:260,1,93.5000028533936,0|0,0:0|0:0,0:0:0:0:
148,340,46923,1,0,0:0:0:0:
56,336,47081,1,8,0:0:0:0:
176,216,47238,1,0,0:0:0:0:
240,284,47396,6,0,B|300:328|384:304,1,140.25000428009,4|0,0:0|0:0,0:0:0:0:
416,288,47712,2,0,P|452:260|480:212,1,93.5000028533936,8|0,0:0|0:0,0:0:0:0:
420,144,48028,2,0,L|424:40,1,93.5000028533936,0|0,0:0|0:0,0:0:0:0:
332,192,48344,2,0,L|328:296,1,93.5000028533936,8|0,0:0|0:0,0:0:0:0:
336,100,48660,5,0,0:0:0:0:
416,236,48817,1,0,0:0:0:0:
416,236,48896,1,0,0:0:0:0:
416,236,48975,1,8,0:0:0:0:
264,140,49133,1,0,0:0:0:0:
412,64,49291,2,0,L|512:60,1,93.5000028533936,0|0,0:0|0:0,0:0:0:0:
340,16,49607,2,0,L|240:12,1,93.5000028533936,8|0,0:0|0:0,0:0:0:0:
164,56,49923,6,0,L|64:52,1,93.5000028533936,4|0,0:0|0:0,0:0:0:0:
4,120,50238,1,8,0:0:0:0:
164,56,50396,1,0,0:0:0:0:
88,136,50554,6,0,L|84:236,1,93.5000028533936,4|0,0:0|0:0,0:0:0:0:
152,296,50870,1,8,0:0:0:0:
88,136,51028,1,0,0:0:0:0:
172,212,51186,6,0,L|272:216,1,93.5000028533936,4|0,0:0|0:0,0:0:0:0:
332,148,51502,1,8,0:0:0:0:
172,212,51660,1,0,0:0:0:0:
88,136,51817,1,4,0:0:0:0:
12,192,51975,1,8,0:0:0:0:
0,232,52054,1,8,0:0:0:0:
0,272,52133,1,8,0:0:0:0:
8,312,52212,1,0,0:0:0:0:
32,344,52291,1,8,0:0:0:0:
68,364,52370,1,0,0:0:0:0:
108,372,52449,6,0,B|168:380|204:336|204:336|252:352,1,140.25000428009,4|0,0:0|0:0,0:0:0:0:
284,360,52765,2,0,L|400:356,1,93.5000028533936,8|0,0:0|0:0,0:0:0:0:
244,264,53081,2,0,L|337:260,1,93.5000028533936,0|0,0:0|0:0,0:0:0:0:
136,292,53396,2,0,L|42:288,1,93.5000028533936,8|0,0:0|0:0,0:0:0:0:
264,184,53712,6,0,B|320:160|368:192|368:192|408:172,1,140.25000428009,0|0,0:0|0:0,0:0:0:0:
440,152,54028,2,0,P|447:198|448:260,1,93.5000028533936,8|0,0:0|0:0,0:0:0:0:
188,208,54344,2,0,B|144:132|192:68|192:68|152:28,1,187.000005706787,0|8,0:0|0:0,0:0:0:0:
76,56,54817,1,0,0:0:0:0:
264,184,54975,6,0,L|368:180,1,93.5000028533936,4|0,0:0|0:0,0:0:0:0:
308,100,55291,1,8,0:0:0:0:
252,276,55449,1,0,0:0:0:0:
180,216,55607,2,0,L|76:212,1,93.5000028533936,0|0,0:0|0:0,0:0:0:0:
252,276,55923,2,0,P|320:264|388:288,1,140.25000428009,8|0,0:0|0:0,0:0:0:0:
420,316,56238,6,0,P|464:328|512:324,1,93.5000028533936,0|0,0:0|0:0,0:0:0:0:
388,208,56554,1,8,0:0:0:0:
304,172,56712,2,0,L|208:136,1,93.5000028533936,0|0,0:0|0:0,0:0:0:0:
460,152,57028,1,0,0:0:0:0:
376,116,57186,2,0,B|356:104|356:104|360:24,1,93.5000028533936,8|0,0:0|0:0,0:0:0:0:
328,272,57502,6,0,P|288:344|192:372,1,187.000005706787,4|8,0:0|0:0,0:0:0:0:
124,312,57975,2,0,L|24:304,1,93.5000028533936,0|0,0:0|0:0,0:0:0:0:
0,216,58291,1,0,0:0:0:0:
72,160,58449,2,0,P|76:112|72:64,1,93.5000028533936,8|0,0:0|0:0,0:0:0:0:
132,224,58765,6,0,P|172:248|224:252,1,93.5000028533936,0|0,0:0|0:0,0:0:0:0:
292,196,59081,1,8,0:0:0:0:
132,224,59238,1,0,0:0:0:0:
244,120,59396,1,0,0:0:0:0:
208,276,59554,1,0,0:0:0:0:
156,136,59712,2,0,P|168:64|228:36,1,140.25000428009,8|0,0:0|0:0,0:0:0:0:
272,36,60028,6,0,L|376:44,1,93.5000028533936,4|0,0:0|0:0,0:0:0:0:
476,172,60344,2,0,L|382:164,1,93.5000028533936,8|0,0:0|0:0,0:0:0:0:
292,196,60660,2,0,P|264:276|296:372,1,187.000005706787,0|8,0:0|0:0,0:0:0:0:
244,120,61133,1,0,0:0:0:0:
184,52,61291,6,0,L|84:44,1,93.5000028533936,4|0,0:0|0:0,0:0:0:0:
8,148,61607,2,0,L|102:156,1,93.5000028533936,8|0,0:0|0:0,0:0:0:0:
144,280,61923,1,0,0:0:0:0:
172,276,62002,1,0,0:0:0:0:
200,272,62081,1,0,0:0:0:0:
228,268,62160,1,0,0:0:0:0:
256,264,62238,2,0,L|352:252,1,93.5000028533936,8|0,0:0|0:0,0:0:0:0:
444,240,62554,6,0,L|452:128,1,93.5000028533936,6|0,0:0|0:0,0:0:0:0:
456,52,62870,1,8,0:0:0:0:
368,84,63028,2,0,L|264:80,1,93.5000028533936
180,76,63344,1,0,0:0:0:0:
136,188,63502,6,0,L|240:192,1,93.5000028533936,8|0,0:0|0:0,0:0:0:0:
96,108,63817,2,0,L|0:104,1,93.5000028533936,2|0,0:0|0:0,0:0:0:0:
180,76,64133,1,8,0:0:0:0:
136,188,64291,1,0,0:0:0:0:
224,156,64449,2,0,P|312:144|408:176,1,187.000005706787,8|8,0:0|0:0,0:0:0:0:
476,232,64923,1,0,0:0:0:0:
392,272,65081,6,0,L|388:368,1,93.5000028533936,6|0,0:0|0:0,0:0:0:0:
400,184,65396,2,0,L|404:88,1,93.5000028533936,8|0,0:0|0:0,0:0:0:0:
476,232,65712,1,0,0:0:0:0:
316,220,65870,2,0,L|220:212,1,93.5000028533936,0|8,0:0|0:0,0:0:0:0:
132,200,66186,1,0,0:0:0:0:
40,212,66344,6,0,L|36:116,1,93.5000028533936,2|0,0:0|0:0,0:0:0:0:
220,120,66660,2,0,L|224:216,1,93.5000028533936,8|0,0:0|0:0,0:0:0:0:
132,112,66975,2,0,B|152:36|232:36|232:36|204:-8,1,187.000005706787,8|8,0:0|0:0,0:0:0:0:
84,16,67449,1,0,0:0:0:0:
220,120,67607,6,0,L|324:116,1,93.5000028533936,6|0,0:0|0:0,0:0:0:0:
408,112,67923,1,8,0:0:0:0:
368,196,68081,2,0,L|264:200,1,93.5000028533936,0|0,0:0|0:0,0:0:0:0:
180,204,68396,1,0,0:0:0:0:
260,40,68554,2,0,L|364:36,1,93.5000028533936,8|0,0:0|0:0,0:0:0:0:
220,120,68870,6,0,P|128:96|40:128,1,187.000005706787,2|8,0:0|0:0,0:0:0:0:
0,208,69344,1,0,0:0:0:0:
64,276,69502,2,0,P|72:336|72:368,1,93.5000028533936,0|0,0:0|0:0,0:0:0:0:
88,188,69817,2,0,P|88:136|96:96,1,93.5000028533936,8|0,0:0|0:0,0:0:0:0:
156,256,70133,6,0,P|224:316|316:296,1,187.000005706787,4|8,0:0|0:0,0:0:0:0:
272,140,70607,1,0,0:0:0:0:
184,164,70765,2,0,L|84:156,1,93.5000028533936,0|0,0:0|0:0,0:0:0:0:
332,208,71081,2,0,L|432:216,1,93.5000028533936,8|0,0:0|0:0,0:0:0:0:
204,76,71396,6,0,B|268:24|340:76|340:76|376:48,1,187.000005706787,4|8,0:0|0:0,0:0:0:0:
272,140,71870,1,0,0:0:0:0:
116,92,72028,1,0,0:0:0:0:
100,88,72107,1,0,0:0:0:0:
84,84,72186,1,0,0:0:0:0:
68,80,72265,1,0,0:0:0:0:
52,76,72344,2,0,L|12:64,7,23.3750007133484,8|0|0|0|0|0|0|0,0:0|0:0|0:0|0:0|0:0|0:0|0:0|0:0,0:0:0:0:
52,76,72660,6,0,B|12:124|36:176|36:176|24:220,1,140.25000428009,4|0,0:0|0:0,0:0:0:0:
12,252,72975,2,0,L|16:348,1,93.5000028533936,8|0,0:0|0:0,0:0:0:0:
160,188,73291,1,0,0:0:0:0:
220,100,73449,1,0,0:0:0:0:
312,156,73607,2,0,B|372:184|413:140|413:140|448:152,1,140.25000428009,8|0,0:0|0:0,0:0:0:0:
356,97,73923,6,0,P|348:52|352:4,1,93.5000028533936,0|0,0:0|0:0,0:0:0:0:
428,217,74238,2,0,P|432:305|376:385,1,187.000005706787,8|0,0:0|0:0,0:0:0:0:
272,284,74712,1,0,0:0:0:0:
188,320,74870,2,0,L|88:316,1,93.5000028533936,8|0,0:0|0:0,0:0:0:0:
28,252,75186,5,4,0:0:0:0:
188,320,75344,1,0,0:0:0:0:
24,340,75502,1,8,0:0:0:0:
160,236,75660,1,0,0:0:0:0:
104,308,75817,1,0,0:0:0:0:
88,188,75975,1,0,0:0:0:0:
88,188,76054,1,0,0:0:0:0:
88,188,76133,2,0,P|80:140|92:84,1,93.5000028533936,8|0,0:0|0:0,0:0:0:0:
148,24,76449,6,0,L|256:20,1,93.5000028533936,0|0,0:0|0:0,0:0:0:0:
340,16,76765,1,8,0:0:0:0:
264,144,76923,2,0,L|156:140,1,93.5000028533936,0|0,0:0|0:0,0:0:0:0:
92,96,77238,1,0,0:0:0:0:
168,224,77396,1,8,0:0:0:0:
248,64,77554,1,0,0:0:0:0:
336,96,77712,6,0,P|404:76|472:96,1,140.25000428009,4|0,0:0|0:0,0:0:0:0:
508,120,78028,1,8,0:0:0:0:
432,252,78186,1,0,0:0:0:0:
432,252,78265,1,0,0:0:0:0:
432,252,78344,2,0,L|436:356,1,93.5000028533936,0|0,0:0|0:0,0:0:0:0:
436,168,78660,2,0,L|432:64,1,93.5000028533936,8|0,0:0|0:0,0:0:0:0:
344,252,78975,5,0,0:0:0:0:
264,200,79133,2,0,P|217:191|164:192,1,93.5000028533936,0|8,0:0|0:0,0:0:0:0:
344,164,79449,2,0,P|364:124|372:72,1,93.5000028533936,0|0,0:0|0:0,0:0:0:0:
312,8,79765,2,0,L|212:4,1,93.5000028533936,0|8,0:0|0:0,0:0:0:0:
104,144,80081,1,0,0:0:0:0:
184,96,80238,6,0,L|284:92,1,93.5000028533936,4|0,0:0|0:0,0:0:0:0:
192,252,80554,2,0,L|92:248,1,93.5000028533936,8|0,0:0|0:0,0:0:0:0:
264,200,80870,2,0,P|356:184|444:212,1,187.000005706787,0|8,0:0|0:0,0:0:0:0:
348,344,81344,5,0,0:0:0:0:
276,284,81502,1,4,0:0:0:0:
276,284,81581,1,0,0:0:0:0:
276,284,81660,1,0,0:0:0:0:
204,344,81817,1,8,0:0:0:0:
192,252,81975,1,0,0:0:0:0:
116,308,82133,1,8,0:0:0:0:
96,312,82212,1,0,0:0:0:0:
76,312,82291,1,0,0:0:0:0:
56,308,82370,1,0,0:0:0:0:
36,300,82449,2,0,P|8:264|0:216,1,93.5000028533936,8|0,0:0|0:0,0:0:0:0:
64,148,82765,6,0,L|60:52,1,93.5000028533936,12|0,0:0|0:0,0:0:0:0:
141,4,83081,1,0,0:0:0:0:
232,32,83238,2,0,P|320:12|412:48,1,187.000005706787,8|0,0:0|0:0,0:0:0:0:
352,240,83712,6,0,L|232:232,1,93.5000028533936,8|0,0:0|0:0,0:0:0:0:
180,184,84028,1,0,0:0:0:0:
252,124,84186,2,0,L|372:116,1,93.5000028533936,8|0,0:0|0:0,0:0:0:0:
424,172,84502,1,0,0:0:0:0:
300,316,84660,2,0,L|180:308,1,93.5000028533936,8|0,0:0|0:0,0:0:0:0:
164,160,84975,2,0,P|68:160|20:232,1,187.000005706787,8|4,0:0|0:0,0:0:0:0:
256,192,85370,12,0,88212,0:0:0:0:
