osu file format v12

[General]
AudioFilename: traumerei.mp3
AudioLeadIn: 0
PreviewTime: 42186
Countdown: 0
SampleSet: Normal
StackLeniency: 0.7
Mode: 0
LetterboxInBreaks: 0
WidescreenStoryboard: 0

[Editor]
DistanceSpacing: 1.2
BeatDivisor: 4
GridSize: 4

[Metadata]
Title:traumerei (TV Size)
TitleUnicode:träumerei (TV Size)
Artist:LiSA
ArtistUnicode:LiSA
Creator:kusano
Version:Easy
Source:Genei o Kakeru Taiyou
Tags:opening kitsuneko il sole penetra le illusioni
BeatmapID:272322
BeatmapSetID:103281

[Difficulty]
HPDrainRate:2
CircleSize:2
OverallDifficulty:2
ApproachRate:3
SliderMultiplier:0.7
SliderTickRate:1

[Events]
//Background and Video events
0,0,"geneitaiyo.jpg",0,0
Video,0,"video.avi"
//Break Periods
//Storyboard Layer 0 (Background)
//Storyboard Layer 1 (Fail)
//Storyboard Layer 2 (Pass)
//Storyboard Layer 3 (Foreground)
//Storyboard Sound Samples
//Background Colour Transformations
3,100,163,162,255

[TimingPoints]
660,315.789473684211,4,1,1,90,1,0
9502,-100,4,1,1,80,0,0
41081,-100,4,1,1,65,0,0
42344,-100,4,1,1,90,0,1
62554,-100,4,1,1,85,0,0
72660,-100,4,1,1,90,0,1
85291,-100,4,1,1,5,0,1
85370,-100,4,1,1,5,0,0

[Colours]
Combo1 : 252,196,3
Combo2 : 0,236,95
Combo3 : 40,164,255
Combo4 : 243,22,116

[HitObjects]
156,288,4449,2,0,P|252:328|344:288,2,210,4|0|0,0:0|0:0|0:0,0:0:0:0:
252,188,6975,2,0,P|156:148|64:188,2,210,4|0|0,0:0|0:0|0:0,0:0:0:0:
392,192,9502,5,4,0:0:0:0:
468,76,10133,2,0,P|416:36|340:32,1,140,8|2,0:0|0:0,0:0:0:0:
204,56,11396,2,0,L|52:56,1,140,10|0,0:0|0:0,0:0:0:0:
60,196,12660,2,0,L|212:196,1,140,8|2,0:0|0:0,0:0:0:0:
328,144,13923,1,10,0:0:0:0:
460,196,14554,5,0,0:0:0:0:
456,336,15186,2,0,P|388:352|320:336,1,140,8|2,0:0|0:0,0:0:0:0:
200,264,16449,1,10,0:0:0:0:
56,260,17081,2,0,P|12:168|60:76,1,210
128,76,18344,2,0,L|280:76,2,140,0|8|4,0:0|0:0|0:0,0:0:0:0:
12,152,20238,6,0,P|-12:216|8:284,1,140,8|2,0:0|0:0,0:0:0:0:
148,288,21502,2,0,L|292:288,1,140,10|0,0:0|0:0,0:0:0:0:
428,288,22765,2,0,L|500:288,2,70,8|0|2,0:0|0:0|0:0,0:0:0:0:
364,164,24028,2,0,P|300:140|236:164,1,140,10|0,0:0|0:0,0:0:0:0:
232,304,25291,6,0,P|168:324|100:304,1,140,8|2,0:0|0:0,0:0:0:0:
56,172,26554,1,10,0:0:0:0:
116,48,27186,2,0,P|180:28|248:48,1,140,0|8,0:0|0:0,0:0:0:0:
388,52,28449,2,0,L|460:52,2,70,0|0|8,0:0|0:0|0:0,0:0:0:0:
316,172,29712,6,0,P|292:236|316:304,1,140,4|8,0:0|0:0,0:0:0:0:
452,304,30975,2,0,L|452:164,1,140,0|8,0:0|0:0,0:0:0:0:
452,24,32238,2,0,P|384:4|316:24,1,140,0|8,0:0|0:0,0:0:0:0:
216,112,33502,2,0,P|148:128|80:112,2,140,0|8|4,0:0|0:0|0:0,0:0:0:0:
340,52,35396,5,8,0:0:0:0:
452,132,36028,2,0,P|472:196|452:264,1,140,0|8,0:0|0:0,0:0:0:0:
312,268,37291,6,0,L|168:268,1,140,4|8,0:0|0:0,0:0:0:0:
32,268,38554,2,0,P|12:204|32:136,1,140,0|8,0:0|0:0,0:0:0:0:
128,36,39817,2,0,L|280:36,1,140,0|8,0:0|0:0,0:0:0:0:
408,36,41081,6,0,P|460:116|444:224,1,210
376,228,42344,5,4,0:0:0:0:
248,292,42975,2,0,P|228:228|256:156,1,140,8|0,0:0|0:0,0:0:0:0:
384,120,44238,1,8,0:0:0:0:
280,24,44870,1,4,0:0:0:0:
144,52,45502,2,0,P|80:32|8:56,1,140,8|0,0:0|0:0,0:0:0:0:
80,176,46765,2,0,L|80:248,2,70,8|0|4,0:0|0:0|0:0,0:0:0:0:
208,116,48028,6,0,P|272:96|344:116,1,140,8|0,0:0|0:0,0:0:0:0:
432,216,49291,1,8,0:0:0:0:
348,324,49923,2,0,P|284:344|216:324,1,140,4|8,0:0|0:0,0:0:0:0:
132,212,51186,2,0,P|68:192|0:212,2,140,0|8|4,0:0|0:0|0:0,0:0:0:0:
272,216,53081,6,0,L|424:216,1,140,8|0,0:0|0:0,0:0:0:0:
412,76,54344,1,8,0:0:0:0:
272,80,54975,2,0,L|128:80,1,140,4|8,0:0|0:0,0:0:0:0:
4,132,56238,2,0,P|-20:196|0:264,1,140,0|8,0:0|0:0,0:0:0:0:
140,264,57502,5,4,0:0:0:0:
252,344,58133,2,4,P|320:360|388:344,1,140,8|0,0:0|0:0,0:0:0:0:
472,232,59396,1,8,0:0:0:0:
436,96,60028,2,0,L|284:96,1,140,4|8,0:0|0:0,0:0:0:0:
156,96,61291,2,0,L|80:96,2,70,0|0|8,0:0|0:0|0:0,0:0:0:0:
228,216,62554,6,0,P|248:280|224:348,1,140,6|8,0:0|0:0,0:0:0:0:
84,344,63817,2,0,L|84:204,1,140,2|0,0:0|0:0,0:0:0:0:
84,64,65081,1,6,0:0:0:0:
224,64,65712,2,0,P|292:48|360:64,1,140,8|2,0:0|0:0,0:0:0:0:
292,188,66975,6,0,L|292:332,1,140,8|6,0:0|0:0,0:0:0:0:
432,328,68238,2,0,L|432:184,1,140,8|2,0:0|0:0,0:0:0:0:
432,48,69502,1,8,0:0:0:0:
292,48,70133,6,0,P|224:32|152:36,1,140,4|8,0:0|0:0,0:0:0:0:
28,92,71396,2,0,P|-12:152|-16:220,1,140,4|8,0:0|0:0,0:0:0:0:
98,292,72660,5,4,0:0:0:0:
236,292,73291,2,0,L|236:140,1,140,8|0,0:0|0:0,0:0:0:0:
376,152,74554,1,8,0:0:0:0:
376,292,75186,1,4,0:0:0:0:
236,292,75817,2,0,P|168:292|112:248,1,140,8|0,0:0|0:0,0:0:0:0:
100,108,77081,2,0,L|100:36,2,70,8|0|4,0:0|0:0|0:0,0:0:0:0:
232,156,78344,6,0,L|376:156,1,140,8|0,0:0|0:0,0:0:0:0:
512,156,79607,1,8,0:0:0:0:
512,296,80238,2,0,L|368:296,1,140,4|8,0:0|0:0,0:0:0:0:
232,296,81502,2,0,P|136:332|40:296,1,210
39,226,82765,6,0,L|40:16,2,210,4|8|8,0:0|0:0|0:0,0:0:0:0:
256,192,85291,12,0,88212,0:0:0:0:
