osu file format v14

[General]
AudioFilename: LiSA - Rapid Life Syndrome (Cut Version).mp3
AudioLeadIn: 0
PreviewTime: -1
Countdown: 0
SampleSet: Soft
StackLeniency: 0.7
Mode: 0
LetterboxInBreaks: 0
WidescreenStoryboard: 0

[Editor]
Bookmarks: 12236,22615,43533,53911
DistanceSpacing: 1.2
BeatDivisor: 2
GridSize: 32
TimelineZoom: 1.5

[Metadata]
Title:rapid life syndrome
TitleUnicode:rapid life シンドローム
Artist:LiSA
ArtistUnicode:LiSA
Creator:SoGa
Version:Insane
Source:
Tags:
BeatmapID:786881
BeatmapSetID:357776

[Difficulty]
HPDrainRate:7
CircleSize:4
OverallDifficulty:8
ApproachRate:9
SliderMultiplier:1.7
SliderTickRate:1

[Events]
//Background and Video events
//Break Periods
//Storyboard Layer 0 (Background)
//Storyboard Layer 1 (Fail)
//Storyboard Layer 2 (Pass)
//Storyboard Layer 3 (Foreground)
//Storyboard Sound Samples

[TimingPoints]
561,324.324324324324,4,2,0,100,1,0
1858,-125,4,2,0,100,0,0
12236,-100,4,2,0,100,0,0
22290,-66.6666666666667,4,2,0,100,0,0
22615,-100,4,2,0,100,0,0
29101,-71.4285714285714,4,2,0,100,0,0
29425,-100,4,2,0,100,0,0
41588,-142.857142857143,4,2,0,100,0,0
42074,-100,4,2,0,100,0,0
43533,324.324324324324,4,2,0,100,1,0
43533,-125,4,2,0,100,0,0
53911,-100,4,2,0,100,0,0
66884,-71.4285714285714,4,2,0,100,0,0
68668,-100,4,2,0,100,0,0
72073,-90.9090909090909,4,2,0,100,0,1
96722,272.727272727273,4,2,0,100,1,0
97812,324.324324324324,4,2,0,100,1,0

[HitObjects]
148,134,1858,6,0,P|124:197|150:262,1,136
216,301,2344,1,0,0:0:0:0:
272,242,2506,2,0,P|337:226|402:246,1,136
429,337,2993,1,0,0:0:0:0:
334,327,3155,6,0,L|337:190,1,136
344,71,3642,1,0,0:0:0:0:
437,176,3804,2,0,P|433:142|417:113,1,68
344,71,4128,2,0,P|307:65|271:74,1,68
228,137,4452,6,0,P|165:158|103:138,1,136
68,46,4939,1,0,0:0:0:0:
167,82,5101,2,0,P|184:158|147:209,1,136
67,240,5588,1,0,0:0:0:0:
126,311,5750,6,0,P|161:316|194:310,1,68
233,238,6074,2,0,P|268:234|302:242,1,68
379,262,6398,1,0,0:0:0:0:
363,342,6560,1,0,0:0:0:0:
452,216,6723,1,0,0:0:0:0:
468,296,6885,1,0,0:0:0:0:
374,173,7047,6,0,B|302:179|287:257|287:257|230:360|163:331|88:347|25:303|6:215|6:215|76:128|169:96|318:108|356:125|379:180,1,918
375,172,9317,1,0,0:0:0:0:
99,232,9479,1,0,0:0:0:0:
168,130,9642,6,0,L|171:57,1,68
292,26,9966,2,0,L|292:109,1,68
375,172,10290,1,0,0:0:0:0:
283,275,10452,1,0,0:0:0:0:
283,285,10533,1,0,0:0:0:0:
282,295,10615,1,0,0:0:0:0:
281,305,10696,1,0,0:0:0:0:
281,315,10777,1,0,0:0:0:0:
375,172,10939,5,0,0:0:0:0:
176,251,12074,1,0,0:0:0:0:
283,285,12236,2,0,L|286:374,1,85
176,251,12560,1,0,0:0:0:0:
373,256,12723,2,0,L|374:171,2,85
176,251,13371,1,0,0:0:0:0:
70,212,13533,6,0,P|59:252|67:293,1,85
176,251,13857,1,0,0:0:0:0:
67,293,14020,1,0,0:0:0:0:
176,251,14182,2,0,P|186:207|177:167,1,85
99,43,14506,2,0,P|87:84|98:126,1,85
276,212,14831,6,0,P|285:252|271:299,1,85
156,373,15155,2,0,P|110:382|71:373,2,85
176,251,15642,1,0,0:0:0:0:
176,251,15966,1,0,0:0:0:0:
306,321,16128,6,0,L|396:326,1,85
456,210,16452,1,0,0:0:0:0:
511,301,16615,1,0,0:0:0:0:
387,244,16777,2,0,P|378:202|394:161,1,85
483,55,17101,2,0,P|494:95|485:136,1,85
297,167,17425,6,0,P|211:181|141:133,1,170
144,138,17831,1,0,0:0:0:0:
144,138,17912,1,0,0:0:0:0:
252,254,18074,2,0,P|271:290|278:335,1,85
117,217,18398,2,0,P|123:175|143:137,1,85
215,0,18723,6,0,P|230:39|232:82,1,85
117,217,19047,2,0,P|79:226|31:221,1,85
202,194,19371,2,0,P|242:188|288:202,1,85
348,262,19696,2,0,P|364:300|359:346,1,85
368,181,20020,5,0,0:0:0:0:
393,155,20344,2,0,L|399:70,1,85
284,199,20669,1,0,0:0:0:0:
284,211,20750,1,0,0:0:0:0:
284,223,20831,1,0,0:0:0:0:
212,96,20993,2,0,L|210:10,1,85
129,155,21317,5,0,0:0:0:0:
129,155,21642,1,0,0:0:0:0:
134,272,21804,1,0,0:0:0:0:
434,252,21966,1,0,0:0:0:0:
206,310,22128,1,0,0:0:0:0:
429,187,22290,2,0,P|368:251|426:316,1,191.250007295609
434,252,22615,6,0,B|371:251|371:251|333:238|333:238|266:246,1,170
134,272,23101,1,0,0:0:0:0:
33,192,23263,2,0,L|27:282,1,85
213,213,23588,1,0,0:0:0:0:
228,131,23751,1,0,0:0:0:0:
77,89,23912,6,0,P|94:127|129:150,1,85
254,48,24236,2,0,P|212:44|173:62,1,85,0|0,0:3|0:3,0:3:0:0:
200,222,24560,2,0,P|226:188|228:146,1,85
325,27,24885,1,0,0:0:0:0:
318,128,25047,1,0,0:0:0:0:
482,142,25209,6,0,L|477:49,1,85
325,230,25533,1,0,0:0:0:0:
318,128,25696,1,0,0:0:0:0:
484,243,25858,6,0,L|479:336,1,85
325,230,26182,1,0,0:0:0:0:
317,331,26344,1,0,0:0:0:0:
198,159,26506,5,0,0:0:0:0:
151,272,26669,2,0,L|156:365,1,85
33,226,26993,2,0,L|37:141,1,85
193,74,27317,2,0,L|197:158,2,85
417,111,27804,6,0,P|398:191|326:229,1,170
308,118,28290,1,0,0:0:0:0:
308,118,28615,1,0,0:0:0:0:
326,229,28777,2,0,P|328:274|321:320,1,85
171,308,29101,6,0,B|28:290|28:290|67:274,1,178.499994552612
230,269,29425,6,0,P|239:309|226:349,1,85
134,211,29750,2,0,P|120:171|130:130,1,85
306,44,30074,2,0,P|346:56|374:87,1,85
391,264,30398,5,0,0:0:0:0:
362,295,30479,1,0,0:0:0:0:
322,307,30560,1,0,0:0:0:0:
249,191,30723,1,0,0:0:0:0:
434,185,30885,2,0,P|465:211|476:255,1,85
322,220,31209,2,0,P|329:178|359:149,1,85
473,93,31533,1,0,0:0:0:0:
359,121,31696,6,0,L|266:116,1,85
96,78,32020,2,0,L|180:73,1,85
30,154,32344,1,0,0:0:0:0:
173,237,32506,2,0,P|189:198|189:156,1,85
201,118,32993,6,0,L|202:287,1,170
82,283,33479,1,0,0:0:0:0:
169,358,33642,2,0,P|210:363|254:347,2,85
82,283,34128,1,0,0:0:0:0:
276,254,34290,6,0,L|368:250,1,85
511,174,34615,2,0,L|426:170,1,85
272,98,34939,2,0,L|356:94,1,85
479,52,35263,1,0,0:0:0:0:
511,174,35425,1,0,0:0:0:0:
356,94,35588,6,0,P|348:51|360:7,1,85
458,122,35912,1,0,0:0:0:0:
321,184,36074,1,0,0:0:0:0:
466,235,36236,2,0,P|475:276|467:317,1,85
300,317,36560,1,0,0:0:0:0:
321,184,36722,1,0,0:0:0:0:
195,367,36885,5,0,0:0:0:0:
202,215,37047,1,0,0:0:0:0:
78,291,37209,1,0,0:0:0:0:
114,146,37371,2,0,P|125:99|117:59,1,85
35,98,37696,1,0,0:0:0:0:
203,123,37858,2,0,L|287:118,1,85
382,31,38182,6,0,P|416:106|397:187,1,170
289,253,38669,1,0,0:0:0:0:
289,253,38993,1,0,0:0:0:0:
202,215,39155,2,0,P|195:255|206:298,1,85
362,325,39479,6,0,P|392:249|353:177,1,170
255,127,39966,1,0,0:0:0:0:
202,214,40128,2,0,P|160:222|118:215,1,85
217,295,40452,1,0,0:0:0:0:
49,293,40615,1,0,0:0:0:0:
154,62,40777,6,0,P|164:103|158:144,1,85
49,293,41101,1,0,0:0:0:0:
217,295,41263,1,0,0:0:0:0:
58,321,41425,1,0,0:0:0:0:
210,319,41588,6,0,L|291:316,1,59.4999981842042
378,266,41912,1,0,0:0:0:0:
449,342,42074,6,0,P|481:268|448:191,1,170
358,139,42560,1,0,0:0:0:0:
258,164,42723,1,0,0:0:0:0:
157,144,42885,2,0,L|159:59,1,85
159,59,43209,1,0,0:0:0:0:
54,104,43533,6,0,L|53:255,1,136
147,287,44019,1,0,0:0:0:0:
229,253,44181,2,0,P|236:295|225:326,1,68
229,318,44668,1,0,0:0:0:0:
320,357,44830,6,0,P|339:291|320:225,1,136
258,164,45316,1,0,0:0:0:0:
375,271,45478,2,0,L|447:263,1,68
481,163,45803,2,0,L|413:170,1,68
305,186,46127,5,0,0:0:0:0:
257,164,46451,2,0,L|255:314,1,136
165,250,46938,1,0,0:0:0:0:
350,279,47100,2,0,L|350:346,1,68
350,346,47587,5,0,0:0:0:0:
350,346,47911,5,0,0:0:0:0:
412,226,48073,2,0,P|421:191|409:160,1,68
298,100,48397,2,0,P|263:108|231:100,1,68
133,169,48722,6,0,P|118:234|133:300,1,136
248,234,49208,1,0,0:0:0:0:
177,376,49370,2,0,P|143:385|110:383,1,68
252,324,49695,2,0,P|285:322|318:331,1,68
359,365,50181,6,0,P|355:330|364:291,1,68
440,221,50505,1,0,0:0:0:0:
461,329,50668,2,0,L|467:402,1,68
337,220,50992,2,0,L|342:152,1,68
357,55,51316,5,0,0:0:0:0:
98,138,51803,5,0,0:0:0:0:
357,340,52451,5,0,0:0:0:0:
98,291,52938,5,0,0:0:0:0:
352,161,53424,1,0,0:0:0:0:
352,161,53505,1,0,0:0:0:0:
352,161,53587,2,0,P|405:168|448:146,1,102
392,93,53911,6,0,L|403:263,1,170
309,355,54397,1,0,0:0:0:0:
303,313,54478,1,0,0:0:0:0:
284,275,54559,1,0,0:0:0:0:
192,350,54722,2,0,P|150:357|108:351,1,85
49,242,55046,1,0,0:0:0:0:
139,186,55208,6,0,P|151:226|149:269,1,85
149,268,55451,1,0,0:0:0:0:
149,268,55532,1,0,0:0:0:0:
46,138,55695,1,0,0:0:0:0:
49,242,55857,1,0,0:0:0:0:
215,87,56019,1,0,0:0:0:0:
320,225,56181,1,0,0:0:0:0:
319,87,56343,1,0,0:0:0:0:
222,187,56505,6,0,P|216:228|228:269,1,85
418,259,56830,1,0,0:0:0:0:
418,149,56992,1,0,0:0:0:0:
320,225,57154,6,0,P|315:266|327:307,1,85
418,259,57478,1,0,0:0:0:0:
232,304,57641,2,0,P|243:321|247:342,1,42.5
168,262,57803,6,0,P|136:229|94:216,1,85
0,243,58127,1,0,0:0:0:0:
93,296,58289,2,0,L|102:399,1,85
0,243,58614,1,0,0:0:0:0:
168,262,58776,1,0,0:0:0:0:
0,341,58938,1,0,0:0:0:0:
302,346,59100,6,0,B|317:346|356:331|356:331|356:257|331:220,1,170
197,137,59587,2,0,B|182:137|143:152|143:152|143:226|167:262,1,170
280,158,60073,2,0,P|280:115|262:78,1,85
251,247,60397,5,0,0:0:0:0:
255,54,60560,1,0,0:0:0:0:
141,204,60722,1,0,0:0:0:0:
347,197,60885,1,0,0:0:0:0:
131,45,61046,2,0,P|124:86|129:129,1,85
129,129,61289,1,0,0:0:0:0:
129,129,61370,1,0,0:0:0:0:
256,18,61532,1,0,0:0:0:0:
60,269,61695,6,0,P|140:293|220:268,1,170
288,128,62181,2,0,P|207:103|127:128,1,170
367,171,62668,2,0,P|377:130|368:88,1,85
206,223,62992,5,0,0:0:0:0:
443,218,63155,1,0,0:0:0:0:
312,332,63316,1,0,0:0:0:0:
308,127,63478,1,0,0:0:0:0:
241,323,63641,2,0,L|237:365,4,42.5
33,197,64127,1,0,0:0:0:0:
199,54,64289,6,0,P|232:131|206:210,1,170
33,197,64776,2,0,L|47:99,1,85
105,240,65100,1,0,0:0:0:0:
162,361,65262,2,0,L|175:277,1,85
68,319,65587,5,0,0:0:0:0:
175,277,65749,1,0,0:0:0:0:
340,339,65911,2,0,L|256:345,1,85
504,201,66235,1,0,0:0:0:0:
374,254,66397,1,0,0:0:0:0:
458,274,66560,1,0,0:0:0:0:
366,169,66722,1,0,0:0:0:0:
202,209,66884,6,0,P|104:177|105:280,1,237.999992736817
365,169,67370,2,0,P|366:66|269:97,1,237.999992736817
143,231,67857,1,0,0:0:0:0:
328,119,68019,2,0,P|341:177|330:235,1,118.999996368408
113,140,68343,1,0,0:0:0:0:
33,259,68505,1,0,0:0:0:0:
181,346,68668,6,0,L|174:261,1,85
287,72,68992,1,0,0:0:0:0:
326,86,69073,1,0,0:0:0:0:
357,114,69154,1,0,0:0:0:0:
374,153,69235,1,0,0:0:0:0:
374,195,69316,1,0,0:0:0:0:
99,224,69478,5,0,0:0:0:0:
235,202,69641,1,0,0:0:0:0:
113,140,69803,1,0,0:0:0:0:
175,262,69965,1,0,0:0:0:0:
43,37,70127,1,0,0:0:0:0:
38,171,70289,1,0,0:0:0:0:
200,124,70451,2,0,L|196:39,1,85
380,122,70776,5,0,0:0:0:0:
378,131,70938,5,0,0:0:0:0:
387,127,71100,5,0,0:0:0:0:
400,292,71587,1,0,0:0:0:0:
413,331,71668,1,0,0:0:0:0:
403,372,71749,2,0,P|359:382|314:372,1,85
76,264,72073,6,0,P|170:231|256:266,1,187.000005706787
167,362,72560,1,0,0:0:0:0:
0,311,72722,2,0,P|-11:266|0:221,1,93.5000028533936
139,134,73046,1,0,0:0:0:0:
138,224,73208,1,0,0:0:0:0:
48,82,73370,6,0,P|122:32|209:58,1,187.000005706787
409,155,73857,1,0,0:0:0:0:
242,253,74019,2,0,P|230:205|245:159,1,93.5000028533936
410,66,74343,2,0,P|422:110|410:154,1,93.5000028533936
163,308,74668,6,0,P|132:221|160:133,1,187.000005706787
332,110,75154,1,0,0:0:0:0:
462,322,75316,2,0,L|451:229,1,93.5000028533936
241,237,75641,2,0,L|250:334,1,93.5000028533936
420,167,75965,6,0,B|353:168|353:168|317:147|317:147|238:150,1,187.000005706787
429,49,76451,1,0,0:0:0:0:
286,220,76613,2,0,L|179:227,1,93.5000028533936
46,160,76937,2,0,L|41:66,1,93.5000028533936
309,143,77262,6,0,P|359:215|312:292,1,187.000005706787
119,233,77748,1,0,0:0:0:0:
314,290,77910,2,0,L|422:283,1,93.5000028533936
201,202,78235,1,0,0:0:0:0:
221,346,78397,1,0,0:0:0:0:
484,215,78560,6,0,P|469:126|386:92,1,187.000005706787
281,216,79046,1,0,0:0:0:0:
118,130,79208,2,0,L|114:30,1,93.5000028533936
132,230,79532,2,0,P|119:277|131:331,1,93.5000028533936
339,89,79857,5,0,0:0:0:0:
247,178,80019,1,0,0:0:0:0:
354,253,80181,2,0,P|367:300|355:354,1,93.5000028533936
132,230,80505,1,0,0:0:0:0:
279,302,80668,1,0,0:0:0:0:
85,333,80830,1,0,0:0:0:0:
287,231,80992,1,0,0:0:0:0:
419,290,81154,6,0,L|411:384,1,93.5000028533936
205,232,81478,2,0,L|196:138,1,93.5000028533936
390,30,81803,1,0,0:0:0:0:
275,105,81965,1,0,0:0:0:0:
320,97,82046,1,0,0:0:0:0:
365,110,82127,1,0,0:0:0:0:
401,139,82208,1,0,0:0:0:0:
421,181,82289,1,0,0:0:0:0:
125,259,82451,6,0,P|117:170|138:73,1,187.000005706787
107,280,82938,1,0,0:0:0:0:
271,208,83100,1,0,0:0:0:0:
263,365,83262,1,0,0:0:0:0:
451,343,83424,2,0,L|446:247,1,93.5000028533936
419,31,83749,6,0,P|372:26|330:50,1,93.5000028533936
361,200,84073,2,0,P|388:162|389:116,1,93.5000028533936
242,65,84397,1,0,0:0:0:0:
300,132,84560,1,0,0:0:0:0:
150,200,84722,2,0,P|123:162|122:116,1,93.5000028533936
320,243,85046,6,0,P|279:221|234:227,1,93.5000028533936
163,279,85370,2,0,P|144:321|105:345,1,93.5000028533936
436,306,85695,1,0,0:0:0:0:
258,335,85857,1,0,0:0:0:0:
409,216,86019,2,0,L|402:122,1,93.5000028533936
215,48,86343,6,0,P|200:93|207:139,1,93.5000028533936
313,264,86668,2,0,P|319:218|305:173,1,93.5000028533936
116,88,86992,1,0,0:0:0:0:
32,193,87154,1,0,0:0:0:0:
116,296,87316,1,0,0:0:0:0:
344,179,87478,6,0,L|205:193,1,140.25000428009
205,193,87803,1,0,0:0:0:0:
313,264,87965,2,0,L|415:268,1,93.5000028533936
411,142,88289,1,0,0:0:0:0:
241,156,88451,1,0,0:0:0:0:
451,45,88614,1,0,0:0:0:0:
205,193,88776,6,0,L|210:83,1,93.5000028533936
286,25,89100,1,0,0:0:0:0:
421,136,89262,2,0,P|430:182|417:227,1,93.5000028533936
246,318,89587,1,0,0:0:0:0:
344,179,89749,1,0,0:0:0:0:
157,264,89911,2,0,L|48:259,1,93.5000028533936
91,67,90235,6,0,P|160:58|228:75,1,140.25000428009
268,95,90560,2,0,L|260:1,1,93.5000028533936
260,1,90884,1,0,0:0:0:0:
422,137,91046,1,0,0:0:0:0:
348,272,91208,2,0,L|344:179,1,93.5000028533936
279,363,91532,5,0,0:0:0:0:
188,298,91695,1,0,0:0:0:0:
96,383,91857,2,0,L|0:384,1,93.5000028533936
12,239,92181,2,0,L|20:183,2,46.7500014266968
154,163,92505,2,0,L|145:113,3,46.7500014266968
199,205,92830,6,0,L|185:314,1,93.5000028533936
174,382,93154,1,0,0:0:0:0:
174,382,93478,1,0,0:0:0:0:
206,148,93641,5,0,0:0:0:0:
265,371,93802,1,0,0:0:0:0:
265,371,94127,5,0,0:0:0:0:
147,222,94289,1,0,0:0:0:0:
348,192,94451,1,0,0:0:0:0:
123,148,94614,2,0,L|30:160,1,93.5000028533936
248,212,94938,1,0,0:0:0:0:
73,264,95100,1,0,0:0:0:0:
286,139,95262,1,0,0:0:0:0:
401,227,95424,6,0,P|430:261|437:312,1,93.5000028533936
286,139,95749,2,0,P|292:93|322:57,1,93.5000028533936
269,268,96073,2,0,P|229:305|187:310,1,93.5000028533936
191,310,96316,1,0,0:0:0:0:
191,310,96397,1,0,0:0:0:0:
357,122,96560,1,0,0:0:0:0:
204,48,97676,5,0,0:0:0:0:
272,130,97812,2,0,L|358:121,1,85
