osu file format v14

[General]
AudioFilename: op full ver.mp3
AudioLeadIn: 0
PreviewTime: 52349
Countdown: 0
SampleSet: Soft
StackLeniency: 0.7
Mode: 0
LetterboxInBreaks: 0
WidescreenStoryboard: 0

[Editor]
Bookmarks: 442,13073,25507,38731,52547,65178,77810,87284,99718,112941,126757,139389,152020,155178,197810,210441,223073,226231,235705
DistanceSpacing: 0.9
BeatDivisor: 2
GridSize: 8
TimelineZoom: 1.2

[Metadata]
Title:oath sign
TitleUnicode:oath sign
Artist:LiSA
ArtistUnicode:LiSA
Creator:smallboat
Version:Normal
Source:Fate/Zero
Tags:フェイト opening type moon ufotable aniplex 2011 2012 anime visual novel game comic movie card saber archer seven master servant sword fire ghost magic gate four holy cup survive battle break fantasy legend Takeuchi Takashi Urobuchi Gen
BeatmapID:1126463
BeatmapSetID:531561

[Difficulty]
HPDrainRate:4
CircleSize:3.5
OverallDifficulty:4.3
ApproachRate:5
SliderMultiplier:1.1
SliderTickRate:1

[Events]
//Background and Video events
0,0,"bg2.jpg",0,0
Video,0,"amv.flv"
//Break Periods
2,10115,11873
2,84326,86084
2,194654,196610
//Storyboard Layer 0 (Background)
//Storyboard Layer 1 (Fail)
//Storyboard Layer 2 (Pass)
//Storyboard Layer 3 (Foreground)
//Storyboard Sound Samples

[TimingPoints]
442,394.736842105263,4,2,4,30,1,0
442,-100,4,2,4,30,0,0
12481,-100,4,2,4,10,0,0
13073,-100,4,2,4,40,0,0
13270,-100,4,2,1,55,0,0
25507,-100,4,2,3,45,0,0
25705,-100,4,2,1,80,0,0
31823,-100,4,2,3,35,0,0
32020,-100,4,2,1,80,0,0
36560,-100,4,2,2,70,0,0
36757,-100,4,2,1,80,0,0
38336,-100,4,2,1,40,0,0
38731,-100,4,2,1,55,0,0
44652,-100,4,2,2,70,0,0
44849,-100,4,2,1,70,0,0
47810,-100,4,2,1,75,0,0
48402,-100,4,2,2,60,0,0
48599,-100,4,2,1,75,0,0
49191,-100,4,2,2,60,0,0
49389,-100,4,2,1,75,0,0
50770,-100,4,2,2,75,0,0
50968,-100,4,2,1,75,0,0
51165,-100,4,2,1,85,0,0
52349,-100,4,2,1,70,0,0
52547,-100,4,2,2,95,0,1
61428,-100,4,2,1,95,0,1
62020,-100,4,2,2,95,0,1
65178,-100,4,2,2,95,0,1
77810,-100,4,2,1,40,0,0
79389,-100,4,2,1,50,0,0
79784,-100,4,2,1,45,0,0
80968,-100,4,2,1,70,0,1
81955,-100,4,2,5,40,0,1
82547,-100,4,2,1,75,0,1
83534,-100,4,2,1,35,0,1
84126,-100,4,2,1,50,0,0
87284,-100,4,2,8,20,0,0
87481,-100,4,2,8,50,0,0
93600,-100,4,2,8,65,0,0
99718,-100,4,2,3,45,0,0
99915,-100,4,2,1,80,0,0
106034,-100,4,2,3,30,0,0
106231,-100,4,2,1,80,0,0
110770,-100,4,2,2,70,0,0
110968,-100,4,2,1,80,0,0
112547,-100,4,2,1,40,0,0
112941,-100,4,2,1,55,0,0
118863,-100,4,2,2,70,0,0
119060,-100,4,2,1,70,0,0
122020,-100,4,2,1,75,0,0
122613,-100,4,2,2,60,0,0
122810,-100,4,2,1,75,0,0
123402,-100,4,2,2,60,0,0
123599,-100,4,2,1,75,0,0
124981,-100,4,2,2,75,0,0
125178,-100,4,2,1,75,0,0
125376,-100,4,2,1,85,0,0
126560,-100,4,2,1,70,0,0
126757,-100,4,2,2,95,0,1
135639,-100,4,2,1,95,0,1
136231,-100,4,2,2,95,0,1
139389,-100,4,2,2,95,0,1
152020,-100,4,2,1,60,0,0
153599,-100,4,2,1,50,0,0
153994,-100,4,2,1,45,0,0
155178,-100,4,2,1,40,0,0
156560,-100,4,2,4,60,0,0
156757,-100,4,2,1,60,0,0
158928,-100,4,2,1,35,0,0
159718,-100,4,2,2,70,0,0
159915,-100,4,2,1,70,0,0
161494,-100,4,2,4,65,0,0
161691,-100,4,2,1,55,0,0
164652,-100,4,2,4,75,0,0
164849,-100,4,2,1,75,0,0
169784,-100,4,2,1,80,0,0
170968,-100,4,2,4,75,0,0
171165,-100,4,2,1,85,0,0
175705,-100,4,2,2,70,0,0
175902,-100,4,2,1,90,0,0
176494,-100,4,2,2,80,0,0
176691,-100,4,2,1,90,0,0
177284,-100,4,2,4,60,0,0
177481,-100,4,2,1,90,0,0
180441,-100,4,2,2,70,0,0
180639,-100,4,2,1,90,0,0
181823,-100,4,2,2,60,0,0
182020,-100,4,2,1,90,0,0
183599,-100,4,2,4,100,0,1
183797,-100,4,2,1,100,0,1
186757,-100,4,2,2,80,0,1
186955,-100,4,2,1,100,0,1
188336,-100,4,2,2,80,0,1
188534,-100,4,2,1,100,0,1
189126,-100,4,2,6,80,0,1
189323,-100,4,2,1,100,0,1
189520,-100,4,2,6,80,0,1
189718,-100,4,2,1,100,0,1
194455,-100,4,2,1,45,0,0
197810,-100,4,2,1,40,0,0
202547,-100,4,2,2,70,0,0
204126,-100,4,2,2,85,0,0
206691,-100,4,2,1,85,0,0
207284,-100,4,2,2,85,0,0
210441,-100,4,2,2,95,0,1
216757,-100,4,2,2,95,0,1
223073,-100,4,2,1,70,0,0
224652,-100,4,2,1,50,0,0
225047,-100,4,2,1,80,0,0
226231,-100,4,2,2,85,0,0
226428,-100,4,2,1,85,0,0
227218,-100,4,2,2,75,0,0
227415,-100,4,2,1,85,0,0
229389,-100,4,2,2,70,0,0
229586,-100,4,2,1,70,0,0
230376,-100,4,2,2,70,0,0
230573,-100,4,2,1,70,0,0
232547,-100,4,2,2,70,0,0
232744,-100,4,2,1,70,0,0
233534,-100,4,2,2,70,0,0
233731,-100,4,2,1,70,0,0
235113,-100,4,2,1,45,0,0
235705,-100,4,2,1,5,0,0

[Colours]
Combo1 : 181,0,181
Combo2 : 253,253,0
Combo3 : 0,101,223
Combo4 : 0,230,0
Combo5 : 187,0,0

[HitObjects]
211,305,442,5,0,0:0:0:0:
298,351,836,2,0,P|352:356|404:338,1,110
480,275,1626,1,0,0:0:0:0:
388,237,2020,2,0,P|334:242|282:224,1,110
233,137,2810,1,0,0:0:0:0:
118,294,3599,5,0,0:0:0:0:
24,261,3994,2,0,P|53:215|102:192,1,110
198,220,4784,1,0,0:0:0:0:
295,203,5178,2,0,P|330:161|338:106,1,110
239,120,5968,2,0,P|187:100|149:62,1,110
61,16,6757,5,0,0:0:0:0:
21,107,7152,2,0,L|16:223,1,110
42,312,7941,1,0,0:0:0:0:
130,352,8336,2,0,P|235:348|283:254,1,220
287,155,9520,1,0,0:0:0:0:
256,60,9915,5,0,0:0:0:0:
425,114,13073,5,4,0:0:0:0:
343,170,13468,1,2,0:0:0:0:
343,170,13665,2,0,P|323:119|336:67,2,110
377,205,14652,1,2,0:0:0:0:
411,297,15047,1,2,0:0:0:0:
411,297,15244,2,0,P|468:283|510:232,2,110
361,290,16231,5,2,0:0:0:0:
278,344,16626,1,2,0:0:0:0:
278,344,16823,2,0,P|233:279|142:271,1,165,0|2,0:0|0:0,0:0:0:0:
110,293,17613,1,0,0:0:0:0:
68,320,17810,2,0,P|25:286|11:233,1,110,2|2,0:0|0:0,0:0:0:0:
12,184,18402,1,2,0:0:0:0:
18,85,18797,2,0,L|131:58,1,110,2|2,0:0|0:0,0:0:0:0:
171,77,19389,5,0,0:0:0:0:
242,145,19784,1,2,0:0:0:0:
242,145,19981,2,0,P|294:131|332:92,2,110
195,162,20968,1,2,0:0:0:0:
142,245,21363,1,2,0:0:0:0:
142,245,21560,2,0,P|89:231|51:192,2,110
191,245,22547,5,2,0:0:0:0:
257,318,22941,1,2,0:0:0:0:
341,367,23336,2,0,P|369:368|396:362,1,55,2|0,0:0|0:0,0:0:0:0:
440,339,23731,2,0,P|460:321|476:298,1,55,2|0,0:0|0:0,0:0:0:0:
493,250,24126,1,0,0:0:0:0:
490,151,24520,2,0,L|471:43,1,110
373,22,25310,1,10,0:0:0:0:
350,66,25507,6,0,P|272:90|194:67,1,165,4|8,0:0|0:0,0:0:0:0:
147,51,26297,2,0,P|95:34|43:49,1,110,0|2,0:0|0:0,0:0:0:0:
25,95,26889,1,8,0:0:0:0:
25,94,27086,2,0,P|15:176|47:250,1,165,0|8,0:0|0:0,0:0:0:0:
79,288,27876,2,0,P|130:266|184:272,1,110,0|2,0:0|0:0,0:0:0:0:
219,307,28468,1,8,0:0:0:0:
219,307,28665,6,0,P|285:344|370:334,1,165,0|8,0:0|0:0,0:0:0:0:
414,311,29455,2,0,P|447:267|454:214,1,110,0|2,0:0|0:0,0:0:0:0:
450,164,30047,1,8,0:0:0:0:
450,164,30244,2,0,P|400:163|344:125,1,110
316,96,30836,1,8,0:0:0:0:
233,40,31231,2,0,B|180:28,2,55,0|2|8,0:0|0:0|0:0,0:0:0:0:
238,88,31823,6,0,P|169:130|93:106,1,165,4|8,0:0|0:0,0:0:0:0:
50,81,32613,2,0,L|37:196,1,110,0|2,0:0|0:0,0:0:0:0:
44,239,33205,1,8,0:0:0:0:
44,239,33402,2,0,P|102:284|189:266,1,165,0|8,0:0|0:0,0:0:0:0:
228,242,34191,2,0,P|283:235|335:253,1,110,0|2,0:0|0:0,0:0:0:0:
362,294,34784,1,8,0:0:0:0:
361,293,34981,2,0,P|416:299|466:279,1,110
496,239,35573,1,8,0:0:0:0:
500,140,35968,6,0,L|495:75,2,55,2|2|8,0:0|0:0|0:0,0:0:0:0:
457,168,36560,2,0,P|403:170|357:142,1,110,4|2,0:0|0:0,0:0:0:0:
319,111,37152,1,8,0:0:0:0:
294,68,37349,1,2,0:0:0:0:
206,21,37744,1,2,0:0:0:0:
206,21,37941,2,0,L|85:34,1,110,2|4,0:0|0:0,0:0:0:0:
15,89,38731,6,0,P|32:139|80:163,1,110
173,129,39520,2,0,L|181:197,1,55
210,220,39915,2,0,P|264:230|316:214,1,110,2|0,0:0|0:0,0:0:0:0:
358,188,40507,1,0,0:0:0:0:
399,161,40705,2,0,P|438:200|447:253,1,110
421,349,41494,5,2,0:0:0:0:
326,366,41889,2,0,L|272:354,1,55
222,355,42284,2,0,P|168:364|115:348,1,110
71,325,42876,1,0,0:0:0:0:
31,294,43073,2,0,P|13:242|17:186,1,110,2|0,0:0|0:0,0:0:0:0:
33,140,43665,1,0,0:0:0:0:
67,103,43863,2,0,P|105:64|158:50,1,110
253,79,44652,5,4,0:0:0:0:
292,108,44849,2,0,P|349:108|407:75,1,110
459,8,45639,1,0,0:0:0:0:
499,99,46034,2,0,L|491:228,1,110
486,258,46626,1,0,0:0:0:0:
459,298,46823,2,0,P|405:307|352:293,1,110
308,269,47415,1,8,0:0:0:0:
258,272,47613,1,8,0:0:0:0:
210,288,47810,6,0,P|157:299|104:287,1,110,8|8,0:0|0:0,0:0:0:0:
56,275,48402,2,0,P|30:226|32:168,1,110,4|0,0:0|0:0,0:0:0:0:
51,127,48994,1,8,0:0:0:0:
87,93,49191,2,0,P|162:121|215:104,1,110,4|0,0:0|0:0,0:0:0:0:
218,75,49784,2,0,P|238:53|280:37,1,55,8|0,0:0|0:0,0:0:0:0:
309,35,50178,2,0,P|335:84|332:151,1,110,0|8,0:0|0:0,0:0:0:0:
350,185,50770,2,0,P|405:190|456:172,1,110,4|8,0:0|0:0,0:0:0:0:
489,135,51363,2,0,L|479:80,2,55,8|8|8,0:0|0:0|0:0,0:0:0:0:
502,233,52152,1,8,0:0:0:0:
467,324,52547,6,0,L|391:340,1,55,4|0,0:0|0:0,0:0:0:0:
364,328,52941,1,8,0:0:0:0:
319,305,53139,2,0,P|271:278|217:282,1,110
183,318,53731,2,0,P|157:328|130:326,1,55,8|0,0:0|0:0,0:0:0:0:
81,319,54126,2,0,P|43:279|33:226,1,110,0|8,0:0|0:0,0:0:0:0:
44,178,54718,2,0,P|68:132|65:73,1,110
40,32,55310,1,8,0:0:0:0:
138,45,55705,6,0,L|206:27,1,55
239,24,56099,1,8,0:0:0:0:
286,37,56297,2,0,P|345:44|394:27,1,110
440,19,56889,2,0,L|459:70,1,55,8|0,0:0|0:0,0:0:0:0:
475,117,57284,1,4,0:0:0:0:
439,209,57678,1,4,0:0:0:0:
354,157,58073,2,0,P|304:135|250:140,1,110,4|4,0:0|0:0,0:0:0:0:
166,194,58863,6,0,P|113:184|59:118,1,110,4|8,0:0|0:0,0:0:0:0:
37,111,59455,1,4,0:0:0:0:
19,208,59849,2,0,L|10:262,2,55,0|8|4,0:0|0:0|0:0,0:0:0:0:
92,274,60639,2,0,L|83:328,2,55,0|8|4,0:0|0:0|0:0,0:0:0:0:
180,318,61428,2,0,P|235:321|297:302,1,110,2|2,0:0|0:0,0:0:0:0:
330,281,62020,6,0,L|346:333,1,55,4|0,0:0|0:0,0:0:0:0:
384,366,62415,2,0,P|437:357|479:322,1,110,8|0,0:0|0:0,0:0:0:0:
494,274,63007,1,0,0:0:0:0:
487,175,63402,2,0,L|473:54,1,110,4|8,0:0|0:0,0:0:0:0:
431,42,63994,2,0,L|322:18,2,110,8|8|0,0:0|0:0|0:0,0:0:0:0:
413,139,65178,6,0,P|391:121|366:110,1,55,4|0,0:0|0:0,0:0:0:0:
317,109,65572,1,8,0:0:0:0:
269,123,65770,2,0,P|214:118|167:91,1,110
126,63,66362,2,0,P|99:54|72:56,1,55,8|0,0:0|0:0,0:0:0:0:
27,79,66757,2,0,L|20:192,1,110,4|8,0:0|0:0,0:0:0:0:
33,236,67349,2,0,P|87:241|137:221,1,110
175,189,67941,1,8,0:0:0:0:
270,216,68336,6,0,P|295:217|339:200,1,55,4|0,0:0|0:0,0:0:0:0:
365,183,68730,1,8,0:0:0:0:
406,156,68928,2,0,P|424:104|416:50,1,110
370,31,69520,2,0,P|345:33|312:26,1,55,8|0,0:0|0:0,0:0:0:0:
266,18,69915,1,4,0:0:0:0:
170,44,70309,1,4,0:0:0:0:
73,23,70704,2,0,L|62:132,1,110,4|4,0:0|0:0,0:0:0:0:
27,224,71494,6,0,P|24:279|43:330,1,110,4|8,0:0|0:0,0:0:0:0:
77,367,72086,1,4,0:0:0:0:
174,348,72481,2,0,L|177:293,2,55,0|8|4,0:0|0:0|0:0,0:0:0:0:
269,320,73270,2,0,L|272:265,2,55,0|8|4,0:0|0:0|0:0,0:0:0:0:
366,300,74060,2,0,L|369:245,2,55,8|8|0,0:0|0:0|0:0,0:0:0:0:
413,314,74652,5,4,0:0:0:0:
485,246,75047,2,0,P|488:191|476:137,1,110,8|0,0:0|0:0,0:0:0:0:
436,46,75836,1,8,0:0:0:0:
397,77,76034,2,0,P|353:107|299:103,1,110,4|0,0:0|0:0,0:0:0:0:
252,83,76626,2,0,P|202:104|176:151,1,110,8|8,0:0|0:0,0:0:0:0:
167,249,77415,1,2,0:0:0:0:
256,192,77810,12,0,79389,0:0:0:0:
414,208,80968,6,0,P|414:153|393:102,1,110,4|8,0:0|0:0,0:0:0:0:
354,72,81560,1,8,0:0:0:0:
256,53,81955,1,4,0:0:0:0:
185,183,82547,2,0,P|130:178|87:145,1,110,0|8,0:0|0:0,0:0:0:0:
63,102,83139,1,8,0:0:0:0:
158,72,83534,1,4,0:0:0:0:
282,152,84126,5,4,0:0:0:0:
215,320,87284,5,4,0:0:0:0:
120,348,87679,1,2,0:0:0:0:
120,348,87876,2,0,P|68:329|29:291,2,110,0|0|8,0:0|0:0|0:0,0:0:0:0:
140,302,88863,1,8,0:0:0:0:
203,225,89258,1,2,0:0:0:0:
203,225,89455,2,0,P|254:206|293:168,2,110
153,223,90442,5,8,0:0:0:0:
58,192,90837,1,2,0:0:0:0:
58,192,91034,2,0,P|38:114|82:47,1,165
130,41,91823,1,8,0:0:0:0:
181,54,92021,2,0,P|235:60|286:40,1,110,8|2,0:0|0:0,0:0:0:0:
327,13,92613,1,0,0:0:0:0:
424,21,93008,2,0,P|460:63|473:116,1,110
478,165,93600,5,8,0:0:0:0:
473,267,93995,1,8,0:0:0:0:
473,267,94191,2,0,P|460:320|424:362,2,110
425,253,95179,1,8,0:0:0:0:
327,269,95574,1,8,0:0:0:0:
327,268,95771,2,0,P|323:214|295:167,2,110
291,304,96758,5,8,0:0:0:0:
205,353,97152,1,8,0:0:0:0:
106,365,97547,2,0,L|52:359,1,55,8|0,0:0|0:0,0:0:0:0:
8,334,97941,2,0,L|14:280,1,55,8|0,0:0|0:0,0:0:0:0:
29,231,98337,1,0,0:0:0:0:
24,132,98731,2,0,L|14:22,1,110
107,58,99520,1,0,0:0:0:0:
144,88,99718,6,0,P|222:112|296:81,1,165,4|8,0:0|0:0,0:0:0:0:
333,48,100508,2,0,P|384:33|459:49,1,110,0|2,0:0|0:0,0:0:0:0:
478,71,101100,1,8,0:0:0:0:
477,70,101297,2,0,P|492:151|478:232,1,165,0|8,0:0|0:0,0:0:0:0:
457,277,102087,2,0,P|404:263|352:278,1,110,0|2,0:0|0:0,0:0:0:0:
322,317,102679,1,8,0:0:0:0:
322,317,102876,6,0,P|244:340|169:309,1,165,0|8,0:0|0:0,0:0:0:0:
139,270,103666,2,0,P|112:222|64:197,1,110,0|2,0:0|0:0,0:0:0:0:
15,204,104258,1,8,0:0:0:0:
15,204,104455,2,0,L|19:94,1,110
36,47,105047,1,8,0:0:0:0:
132,23,105442,2,0,B|208:18,2,55,2|0|8,0:0|0:0|0:0,0:0:0:0:
119,69,106034,6,0,P|124:147|199:168,1,165,4|8,0:0|0:0,0:0:0:0:
241,142,106824,2,0,P|294:128|358:149,1,110,0|2,0:0|0:0,0:0:0:0:
379,178,107416,1,8,0:0:0:0:
379,178,107613,2,0,P|456:178|490:92,1,165,0|8,0:0|0:0,0:0:0:0:
499,58,108402,2,0,P|448:36|394:38,1,110,0|2,0:0|0:0,0:0:0:0:
351,64,108995,1,8,0:0:0:0:
351,63,109192,2,0,P|296:70|247:47,1,110
202,26,109784,1,8,0:0:0:0:
148,109,110179,6,0,L|151:163,2,55,2|2|8,0:0|0:0|0:0,0:0:0:0:
127,63,110771,2,0,P|75:55|28:100,1,110,4|2,0:0|0:0,0:0:0:0:
15,136,111363,1,8,0:0:0:0:
14,185,111560,1,2,0:0:0:0:
32,282,111955,1,2,0:0:0:0:
32,282,112152,2,0,L|141:293,1,110,2|4,0:0|0:0,0:0:0:0:
216,358,112942,6,0,P|269:368|321:352,1,110
381,273,113731,2,0,L|450:280,1,55
471,243,114126,2,0,P|492:191|480:124,1,110
465,93,114718,1,0,0:0:0:0:
433,53,114916,2,0,P|380:63|328:47,1,110,0|2,0:0|0:0,0:0:0:0:
232,20,115705,5,0,0:0:0:0:
135,43,116100,2,0,L|145:108,1,55
135,146,116495,2,0,P|80:145|32:173,1,110
15,218,117087,1,0,0:0:0:0:
14,266,117284,2,0,P|12:321|41:376,1,110
85,376,117876,1,0,0:0:0:0:
129,363,118074,2,0,P|175:334|229:335,1,110
321,373,118863,5,4,0:0:0:0:
368,381,119060,2,0,P|420:362|455:320,1,110
483,225,119850,1,0,0:0:0:0:
469,126,120245,2,0,P|431:91|351:86,1,110
329,100,120837,1,0,0:0:0:0:
287,125,121034,2,0,P|232:128|185:100,1,110
138,84,121626,1,8,0:0:0:0:
88,85,121824,1,8,0:0:0:0:
47,113,122021,6,0,L|31:221,1,110,8|8,0:0|0:0,0:0:0:0:
35,271,122613,2,0,P|86:287|140:275,1,110,4|0,0:0|0:0,0:0:0:0:
186,257,123205,1,8,0:0:0:0:
229,235,123402,2,0,P|310:227|369:250,1,110,4|0,0:0|0:0,0:0:0:0:
366,273,123994,2,0,L|385:348,1,55,8|0,0:0|0:0,0:0:0:0:
423,349,124389,2,0,P|466:317|481:265,1,110,0|8,0:0|0:0,0:0:0:0:
492,215,124981,2,0,P|467:162|475:106,1,110,4|8,0:0|0:0,0:0:0:0:
494,67,125574,6,0,L|488:12,2,55,8|8|8,0:0|0:0|0:0,0:0:0:0:
396,48,126363,1,8,0:0:0:0:
308,94,126757,6,0,L|317:168,1,55,4|0,0:0|0:0,0:0:0:0:
321,197,127151,1,8,0:0:0:0:
311,245,127349,2,0,P|257:240|215:205,1,110
184,166,127941,2,0,L|180:112,1,55,8|0,0:0|0:0,0:0:0:0:
170,62,128336,2,0,P|126:29|72:26,1,110,0|8,0:0|0:0,0:0:0:0:
32,57,128928,2,0,L|21:166,1,110
26,215,129520,1,8,0:0:0:0:
23,314,129915,6,0,L|85:306,1,55,4|0,0:0|0:0,0:0:0:0:
125,317,130309,1,8,0:0:0:0:
170,336,130507,2,0,P|224:343|276:327,1,110
313,294,131099,2,0,P|338:283|365:279,1,55,8|0,0:0|0:0,0:0:0:0:
411,298,131494,1,4,0:0:0:0:
495,349,131888,1,4,0:0:0:0:
499,250,132283,2,0,L|496:129,1,110,4|4,0:0|0:0,0:0:0:0:
465,45,133073,6,0,P|418:16|364:18,1,110,4|8,0:0|0:0,0:0:0:0:
317,34,133665,1,4,0:0:0:0:
260,115,134060,2,0,L|257:169,2,55,0|8|4,0:0|0:0|0:0,0:0:0:0:
173,67,134849,2,0,L|175:12,2,55,0|8|4,0:0|0:0|0:0,0:0:0:0:
170,166,135639,2,0,L|158:276,1,110,2|2,0:0|0:0,0:0:0:0:
138,320,136230,6,0,L|77:324,1,55,4|0,0:0|0:0,0:0:0:0:
35,307,136625,2,0,P|65:260|75:207,1,110,8|0,0:0|0:0,0:0:0:0:
69,157,137217,1,0,0:0:0:0:
18,71,137613,2,0,P|60:43|127:32,1,110,4|8,0:0|0:0,0:0:0:0:
163,48,138204,2,0,L|274:34,2,110,8|8|8,0:0|0:0|0:0,0:0:0:0:
152,147,139388,6,0,P|179:148|206:142,1,55,4|0,0:0|0:0,0:0:0:0:
253,127,139784,1,8,0:0:0:0:
299,108,139981,2,0,P|353:100|405:116,1,110
441,150,140572,2,0,L|452:220,1,55,8|0,0:0|0:0,0:0:0:0:
444,252,140968,2,0,P|392:270|338:263,1,110,4|8,0:0|0:0,0:0:0:0:
298,233,141560,2,0,P|246:214|192:219,1,110
147,240,142151,1,8,0:0:0:0:
60,287,142546,6,0,L|62:341,1,55,4|0,0:0|0:0,0:0:0:0:
106,362,142940,1,8,0:0:0:0:
154,367,143139,2,0,P|209:368|258:344,1,110
296,312,143731,2,0,L|357:314,1,55,8|0,0:0|0:0,0:0:0:0:
393,338,144125,1,4,0:0:0:0:
490,320,144519,1,4,0:0:0:0:
494,220,144915,2,0,L|474:100,1,110,4|4,0:0|0:0,0:0:0:0:
421,29,145704,6,0,P|377:49|315:45,1,110,4|8,0:0|0:0,0:0:0:0:
269,31,146296,1,4,0:0:0:0:
180,74,146691,2,0,L|183:19,2,55,0|8|4,0:0|0:0|0:0,0:0:0:0:
118,152,147481,2,0,L|114:206,2,55,0|8|4,0:0|0:0|0:0,0:0:0:0:
38,93,148270,2,0,L|41:38,2,55,8|8|0,0:0|0:0|0:0,0:0:0:0:
33,142,148862,5,4,0:0:0:0:
13,239,149257,2,0,L|14:357,1,110,8|0,0:0|0:0,0:0:0:0:
109,324,150046,1,8,0:0:0:0:
153,343,150244,2,0,P|208:348|255:321,1,110,4|0,0:0|0:0,0:0:0:0:
283,281,150837,2,0,P|298:228|288:175,1,110,8|8,0:0|0:0,0:0:0:0:
256,81,151625,1,8,0:0:0:0:
256,192,152020,12,0,153599,0:0:0:0:
172,55,155178,6,0,L|164:110,1,55,4|0,0:0|0:0,0:0:0:0:
110,193,155770,1,0,0:0:0:0:
88,237,155968,2,0,L|33:230,2,55
71,283,156560,1,4,0:0:0:0:
117,370,156955,1,0,0:0:0:0:
210,339,157349,2,0,P|258:312|313:306,1,110,2|0,0:0|0:0,0:0:0:0:
361,318,157941,1,8,0:0:0:0:
444,265,158336,6,0,L|440:205,1,55,2|2,0:0|0:0,0:0:0:0:
489,123,158928,1,2,0:0:0:0:
442,106,159126,2,0,L|445:51,2,55,0|0|8,0:0|0:0|0:0,0:0:0:0:
392,100,159718,1,4,0:0:0:0:
308,153,160113,1,2,0:0:0:0:
261,240,160507,1,2,0:0:0:0:
167,273,160902,2,0,L|171:208,2,55,8|0|0,0:0|0:0|0:0,0:0:0:0:
139,313,161494,6,0,P|85:305|41:273,1,110,4|0,0:0|0:0,0:0:0:0:
13,178,162284,1,8,0:0:0:0:
27,80,162678,2,0,L|83:74,1,55,0|2,0:0|0:0,0:0:0:0:
172,34,163270,1,0,0:0:0:0:
217,52,163468,2,0,L|212:106,1,55,2|0,0:0|0:0,0:0:0:0:
228,153,163863,2,0,P|282:152|332:130,1,110,2|8,0:0|0:0,0:0:0:0:
422,89,164652,6,0,L|427:143,1,55,4|0,0:0|0:0,0:0:0:0:
456,184,165047,1,8,0:0:0:0:
473,228,165244,2,0,P|471:283|450:334,1,110
412,366,165836,1,8,0:0:0:0:
315,341,166231,2,0,L|307:261,1,55,2|0,0:0|0:0,0:0:0:0:
290,240,166626,1,8,0:0:0:0:
290,240,166823,2,0,P|242:214|188:218,1,110
144,242,167415,1,8,0:0:0:0:
62,297,167810,5,2,0:0:0:0:
18,208,168205,1,8,0:0:0:0:
37,111,168599,2,0,L|43:51,1,55,8|0,0:0|0:0,0:0:0:0:
142,45,169191,2,0,P|200:55|257:35,1,110
292,18,169784,1,8,0:0:0:0:
341,21,169981,1,8,0:0:0:0:
388,36,170178,2,0,B|430:72|430:72|437:126,1,110,8|8,0:0|0:0,0:0:0:0:
453,224,170968,5,4,0:0:0:0:
417,316,171363,1,8,0:0:0:0:
323,284,171757,2,0,L|327:224,2,55,0|0|8,0:0|0:0|0:0,0:0:0:0:
277,303,172349,1,0,0:0:0:0:
230,320,172547,1,0,0:0:0:0:
137,354,172941,2,0,L|76:368,1,55,8|0,0:0|0:0,0:0:0:0:
33,368,173336,2,0,L|26:258,1,110,0|8,0:0|0:0,0:0:0:0:
69,169,174126,5,0,0:0:0:0:
161,204,174520,2,0,L|171:131,1,55,8|0,0:0|0:0,0:0:0:0:
141,107,174915,2,0,L|90:89,2,55,0|0|8,0:0|0:0|0:0,0:0:0:0:
236,61,175705,2,0,L|345:47,1,110,4|8,0:0|0:0,0:0:0:0:
438,13,176494,2,0,L|448:122,1,110,4|8,0:0|0:0,0:0:0:0:
485,214,177284,5,4,0:0:0:0:
452,307,177678,2,0,L|403:359,1,55,8|0,0:0|0:0,0:0:0:0:
365,355,178073,2,0,L|255:345,1,110,0|8,0:0|0:0,0:0:0:0:
206,335,178665,1,0,0:0:0:0:
156,337,178863,2,0,L|153:266,2,55,0|0|8,0:0|0:0|0:0,0:0:0:0:
106,337,179455,2,0,B|32:313|32:313|14:220,1,165,0|8,0:0|0:0,0:0:0:0:
21,127,180441,5,4,0:0:0:0:
58,35,180836,1,8,0:0:0:0:
154,57,181231,1,0,0:0:0:0:
192,88,181428,2,0,L|198:163,2,55,8|8|4,0:0|0:0|0:0,0:0:0:0:
282,46,182218,2,0,L|348:34,1,55,0|8,0:0|0:0,0:0:0:0:
434,30,182810,2,0,B|469:66|469:66|483:123,1,110
492,172,183402,1,0,0:0:0:0:
495,221,183599,6,0,L|493:275,1,55,4|0,0:0|0:0,0:0:0:0:
489,325,183994,1,8,0:0:0:0:
489,325,184191,2,0,B|431:332|431:332|384:303,1,110,0|2,0:0|0:0,0:0:0:0:
314,237,184981,1,0,0:0:0:0:
314,237,185178,2,0,L|298:316,1,55,2|0,0:0|0:0,0:0:0:0:
277,333,185573,1,8,0:0:0:0:
277,333,185770,2,0,B|222:340|222:340|168:329,1,110,0|2,0:0|0:0,0:0:0:0:
73,302,186560,1,0,0:0:0:0:
73,302,186757,6,0,L|62:372,2,55,4|0|8,0:0|0:0|0:0,0:0:0:0:
84,253,187349,1,0,0:0:0:0:
98,205,187547,2,0,L|207:197,1,110,2|8,0:0|0:0,0:0:0:0:
257,195,188139,1,0,0:0:0:0:
306,192,188336,2,0,B|362:211|362:211|429:190,1,110,4|8,0:0|0:0,0:0:0:0:
473,119,189126,2,0,B|441:71|441:71|388:66,1,110,6|12,0:0|0:0,0:0:0:0:
300,111,189915,5,2,0:0:0:0:
201,104,190310,1,8,0:0:0:0:
132,175,190705,2,0,B|177:208|177:208|195:269,1,110,2|8,0:0|0:0,0:0:0:0:
194,359,191494,2,0,B|138:367|138:367|82:337,1,110,2|8,0:0|0:0,0:0:0:0:
36,258,192284,2,0,P|31:203|57:156,1,110,2|8,0:0|0:0,0:0:0:0:
145,111,193073,5,2,0:0:0:0:
233,154,193468,1,8,0:0:0:0:
324,116,193863,1,2,0:0:0:0:
371,102,194060,2,0,L|369:48,2,55,2|2|4,0:0|0:0|0:0,0:0:0:0:
335,321,197810,6,0,P|360:324|415:313,1,55
435,302,198204,1,0,0:0:0:0:
435,302,198402,2,0,P|448:249|440:195,1,110
420,97,199191,1,0,0:0:0:0:
420,97,199389,2,0,P|367:109|313:103,1,110
271,74,199981,2,0,P|217:67|165:82,1,110
119,103,200573,1,0,0:0:0:0:
37,158,200968,6,0,L|30:229,1,55
45,260,201362,1,0,0:0:0:0:
45,260,201560,2,0,P|104:253|153:270,1,110
188,301,202152,2,0,P|214:308|250:298,1,55
287,285,202547,1,4,0:0:0:0:
380,256,202941,1,4,0:0:0:0:
444,330,203336,2,0,P|473:283|473:229,1,110,4|4,0:0|0:0,0:0:0:0:
449,133,204126,6,0,P|411:93|358:81,1,110,4|8,0:0|0:0,0:0:0:0:
310,91,204718,1,4,0:0:0:0:
214,115,205112,2,0,L|216:60,2,55,0|8|4,0:0|0:0|0:0,0:0:0:0:
116,94,205902,2,0,L|118:39,2,55,0|8|4,0:0|0:0|0:0,0:0:0:0:
31,145,206691,2,0,L|22:280,1,110,2|2,0:0|0:0,0:0:0:0:
37,301,207283,6,0,P|65:302|91:294,1,55,4|0,0:0|0:0,0:0:0:0:
134,272,207678,2,0,P|185:252|240:257,1,110,8|0,0:0|0:0,0:0:0:0:
277,290,208270,1,0,0:0:0:0:
370,257,208665,1,4,0:0:0:0:
460,296,209060,1,8,0:0:0:0:
460,296,209257,2,0,P|481:245|483:191,2,110,8|8|8,0:0|0:0|0:0,0:0:0:0:
370,257,210441,6,0,P|370:229|378:203,1,55,4|0,0:0|0:0,0:0:0:0:
405,162,210835,1,8,0:0:0:0:
424,115,211033,2,0,P|401:67|356:36,1,110
307,46,211625,2,0,P|280:51|252:49,1,55,8|0,0:0|0:0,0:0:0:0:
205,34,212020,2,0,P|151:22|98:36,1,110,0|8,0:0|0:0,0:0:0:0:
64,72,212612,2,0,P|34:118|29:173,1,110
36,224,213204,1,8,0:0:0:0:
69,317,213599,6,0,P|93:324|148:306,1,55
161,290,213993,1,8,0:0:0:0:
207,271,214191,2,0,P|266:264|318:286,1,110
352,310,214783,2,0,P|379:315|408:304,1,55,8|0,0:0|0:0,0:0:0:0:
446,280,215178,1,4,0:0:0:0:
418,185,215572,1,4,0:0:0:0:
317,182,215968,2,0,P|263:179|216:151,1,110,4|4,0:0|0:0,0:0:0:0:
147,80,216757,6,0,P|184:39|234:17,1,110,4|8,0:0|0:0,0:0:0:0:
284,17,217349,1,4,0:0:0:0:
382,26,217744,2,0,L|435:16,2,55,0|8|4,0:0|0:0|0:0,0:0:0:0:
442,105,218534,2,0,L|496:95,2,55,0|8|4,0:0|0:0|0:0,0:0:0:0:
344,120,219323,2,0,L|289:110,2,55,8|8|0,0:0|0:0|0:0,0:0:0:0:
356,167,219915,5,4,0:0:0:0:
325,261,220310,2,0,P|274:277|222:263,1,110,8|0,0:0|0:0,0:0:0:0:
129,228,221099,1,8,0:0:0:0:
82,209,221297,2,0,P|44:171|35:117,1,110,4|0,0:0|0:0,0:0:0:0:
46,69,221890,2,0,P|94:42|148:40,1,110,8|8,0:0|0:0,0:0:0:0:
219,109,222678,1,0,0:0:0:0:
256,192,223073,12,2,224652,0:0:0:0:
82,296,226231,6,0,L|74:350,2,55,4|0|8,0:0|0:0|0:0,0:0:0:0:
106,253,226823,2,0,P|152:224|207:222,1,110,0|4,0:0|0:0,0:0:0:0:
249,248,227415,1,2,0:0:0:0:
333,299,227810,2,0,L|335:224,2,55,8|0|8,0:0|0:0|0:0,0:0:0:0:
357,342,228402,2,0,P|411:340|457:311,1,110,2|8,0:0|0:0,0:0:0:0:
486,272,228994,1,2,0:0:0:0:
474,144,229389,6,0,L|481:89,2,55,4|0|8,0:0|0:0|0:0,0:0:0:0:
446,185,229981,2,0,P|391:181|348:149,1,110,0|4,0:0|0:0,0:0:0:0:
321,107,230573,1,2,0:0:0:0:
224,129,230968,2,0,L|218:183,2,55,8|0|8,0:0|0:0|0:0,0:0:0:0:
211,80,231560,2,0,P|167:47|113:44,1,110,0|2,0:0|0:0,0:0:0:0:
66,62,232152,1,8,0:0:0:0:
56,160,232547,6,0,L|121:150,2,55,4|2|8,0:0|0:0|0:0,0:0:0:0:
8,172,233139,1,2,0:0:0:0:
51,260,233534,2,0,L|116:250,1,55,4|2,0:0|0:0,0:0:0:0:
185,310,234126,2,0,L|193:364,2,55,8|2|8,0:0|0:0|0:0,0:0:0:0:
229,287,234718,1,8,0:0:0:0:
256,192,235113,1,4,0:0:0:0:
256,192,235705,12,0,244389,0:0:0:0:
