osu file format v14

[General]
AudioFilename: op full ver.mp3
AudioLeadIn: 0
PreviewTime: 52349
Countdown: 0
SampleSet: Soft
StackLeniency: 0.7
Mode: 0
LetterboxInBreaks: 0
WidescreenStoryboard: 0

[Editor]
Bookmarks: 442,13073,25507,38731,52547,65178,77810,87284,99718,112941,126757,139389,152020,155178,197810,210441,223073,226231,235705
DistanceSpacing: 1.5
BeatDivisor: 4
GridSize: 8
TimelineZoom: 1.6

[Metadata]
Title:oath sign
TitleUnicode:oath sign
Artist:LiSA
ArtistUnicode:LiSA
Creator:smallboat
Version:Insane
Source:Fate/Zero
Tags:フェイト opening type moon ufotable aniplex 2011 2012 anime visual novel game comic movie card saber archer seven master servant sword fire ghost magic gate four holy cup survive battle break fantasy legend Takeuchi Takashi Urobuchi Gen
BeatmapID:1126462
BeatmapSetID:531561

[Difficulty]
HPDrainRate:6
CircleSize:4.2
OverallDifficulty:7.2
ApproachRate:8
SliderMultiplier:1.7
SliderTickRate:1

[Events]
//Background and Video events
0,0,"bg4.jpg",0,0
Video,0,"amv.flv"
//Break Periods
2,84326,86534
2,194655,196862
//Storyboard Layer 0 (Background)
//Storyboard Layer 1 (Fail)
//Storyboard Layer 2 (Pass)
//Storyboard Layer 3 (Foreground)
//Storyboard Sound Samples

[TimingPoints]
442,394.736842105263,4,2,4,30,1,0
442,-125,4,2,4,30,0,0
12481,-125,4,2,4,10,0,0
13073,-100,4,2,4,40,0,0
13270,-100,4,2,1,55,0,0
25507,-100,4,2,3,45,0,0
25705,-100,4,2,1,80,0,0
31823,-100,4,2,3,35,0,0
32020,-100,4,2,1,80,0,0
36560,-100,4,2,2,70,0,0
36757,-100,4,2,1,80,0,0
38336,-100,4,2,1,40,0,0
38731,-125,4,2,1,55,0,0
44652,-100,4,2,2,70,0,0
44849,-100,4,2,1,70,0,0
47810,-100,4,2,1,75,0,0
48402,-100,4,2,2,60,0,0
48599,-100,4,2,1,75,0,0
49191,-100,4,2,2,60,0,0
49389,-100,4,2,1,75,0,0
50770,-100,4,2,2,75,0,0
50968,-100,4,2,1,75,0,0
51165,-100,4,2,1,85,0,0
52349,-100,4,2,1,70,0,0
52547,-90.9090909090909,4,2,2,95,0,1
61428,-90.9090909090909,4,2,1,95,0,1
62020,-90.9090909090909,4,2,2,95,0,1
65178,-90.9090909090909,4,2,2,95,0,1
77810,-100,4,2,1,40,0,0
79389,-100,4,2,1,50,0,0
79784,-100,4,2,1,45,0,0
80968,-100,4,2,1,70,0,1
81955,-100,4,2,5,40,0,1
82547,-100,4,2,1,75,0,1
83534,-100,4,2,1,35,0,1
84126,-100,4,2,1,50,0,0
87284,-125,4,2,8,20,0,0
87481,-125,4,2,8,50,0,0
93600,-125,4,2,8,65,0,0
99718,-100,4,2,3,45,0,0
99915,-100,4,2,1,80,0,0
106034,-100,4,2,3,30,0,0
106231,-100,4,2,1,80,0,0
110770,-100,4,2,2,70,0,0
110968,-100,4,2,1,80,0,0
112547,-100,4,2,1,40,0,0
112941,-125,4,2,1,55,0,0
118863,-100,4,2,2,70,0,0
119060,-100,4,2,1,70,0,0
122020,-100,4,2,1,75,0,0
122613,-100,4,2,2,60,0,0
122810,-100,4,2,1,75,0,0
123402,-100,4,2,2,60,0,0
123599,-100,4,2,1,75,0,0
124981,-100,4,2,2,75,0,0
125178,-100,4,2,1,75,0,0
125376,-100,4,2,1,85,0,0
126560,-100,4,2,1,70,0,0
126757,-90.9090909090909,4,2,2,95,0,1
135639,-90.9090909090909,4,2,1,95,0,1
136231,-90.9090909090909,4,2,2,95,0,1
139389,-90.9090909090909,4,2,2,95,0,1
152020,-100,4,2,1,60,0,0
153599,-100,4,2,1,50,0,0
153994,-100,4,2,1,45,0,0
155178,-100,4,2,1,40,0,0
156560,-100,4,2,4,60,0,0
156757,-100,4,2,1,60,0,0
158928,-100,4,2,1,35,0,0
159718,-100,4,2,2,70,0,0
159915,-100,4,2,1,70,0,0
161494,-133.333333333333,4,2,4,65,0,0
161691,-133.333333333333,4,2,1,55,0,0
164652,-100,4,2,4,75,0,0
164849,-100,4,2,1,75,0,0
169784,-100,4,2,1,80,0,0
170968,-100,4,2,4,75,0,0
171165,-100,4,2,1,85,0,0
175705,-100,4,2,2,70,0,0
175902,-100,4,2,1,90,0,0
176494,-100,4,2,2,80,0,0
176691,-100,4,2,1,90,0,0
177284,-100,4,2,4,60,0,0
177481,-100,4,2,1,90,0,0
180441,-100,4,2,2,70,0,0
180639,-100,4,2,1,90,0,0
181823,-100,4,2,2,60,0,0
182020,-100,4,2,1,90,0,0
183599,-90.9090909090909,4,2,4,100,0,1
183797,-90.9090909090909,4,2,1,100,0,1
186757,-90.9090909090909,4,2,2,80,0,1
186955,-90.9090909090909,4,2,1,100,0,1
188336,-90.9090909090909,4,2,2,80,0,1
188534,-90.9090909090909,4,2,1,100,0,1
189126,-90.9090909090909,4,2,6,80,0,1
189323,-90.9090909090909,4,2,1,100,0,1
189520,-90.9090909090909,4,2,6,80,0,1
189718,-90.9090909090909,4,2,1,100,0,1
194455,-100,4,2,1,45,0,0
197810,-133.333333333333,4,2,1,40,0,0
202547,-100,4,2,2,70,0,0
204126,-100,4,2,2,85,0,0
206691,-100,4,2,1,85,0,0
207284,-100,4,2,2,85,0,0
210441,-90.9090909090909,4,2,2,95,0,1
216757,-90.9090909090909,4,2,2,95,0,1
223073,-100,4,2,1,70,0,0
224652,-100,4,2,1,50,0,0
225047,-100,4,2,1,80,0,0
226231,-100,4,2,2,85,0,0
226428,-100,4,2,1,85,0,0
227218,-100,4,2,2,75,0,0
227415,-100,4,2,1,85,0,0
229389,-100,4,2,2,70,0,0
229586,-100,4,2,1,70,0,0
230376,-100,4,2,2,70,0,0
230573,-100,4,2,1,70,0,0
232547,-100,4,2,2,70,0,0
232744,-100,4,2,1,70,0,0
233534,-100,4,2,2,70,0,0
233731,-100,4,2,1,70,0,0
235113,-100,4,2,1,45,0,0
235705,-100,4,2,1,5,0,0

[Colours]
Combo1 : 181,0,181
Combo2 : 253,253,0
Combo3 : 0,101,223
Combo4 : 0,230,0
Combo5 : 187,0,0

[HitObjects]
371,346,442,5,0,0:0:0:0:
236,361,836,1,0,0:0:0:0:
101,340,1231,1,0,0:0:0:0:
47,214,1626,1,0,0:0:0:0:
81,82,2020,1,0,0:0:0:0:
210,41,2415,1,0,0:0:0:0:
342,73,2810,1,0,0:0:0:0:
354,65,3599,5,0,0:0:0:0:
227,115,3994,1,0,0:0:0:0:
167,237,4389,1,0,0:0:0:0:
199,370,4784,1,0,0:0:0:0:
332,339,5178,2,0,P|367:297|362:199,1,136
180,339,5968,2,0,P|145:297|150:199,1,136
189,91,6757,5,0,0:0:0:0:
325,89,7152,1,0,0:0:0:0:
436,167,7547,1,0,0:0:0:0:
447,302,7941,1,0,0:0:0:0:
311,336,8336,2,0,P|233:351|168:333,1,136
200,85,9126,5,0,0:0:0:0:
270,137,9323,1,0,0:0:0:0:
233,217,9520,1,0,0:0:0:0:
161,164,9718,1,0,0:0:0:0:
256,192,9915,12,0,12481,0:0:0:0:
323,267,13073,6,0,L|316:168,1,85,4|0,0:0|0:0,0:0:0:0:
247,240,13468,1,2,0:0:0:0:
382,314,13665,2,0,P|397:281|386:224,1,85,0|2,0:0|0:0,0:0:0:0:
247,169,14060,2,0,P|232:136|243:79,1,85,0|2,0:0|0:0,0:0:0:0:
304,122,14455,1,0,0:0:0:0:
183,199,14652,6,0,P|142:203|80:177,1,85,2|0,0:0|0:0,0:0:0:0:
32,157,15047,1,2,0:0:0:0:
57,308,15244,2,0,P|99:306|138:291,1,85,0|2,0:0|0:0,0:0:0:0:
247,240,15639,2,0,P|296:229|354:252,1,85,0|2,0:0|0:0,0:0:0:0:
392,316,16034,1,0,0:0:0:0:
486,276,16231,6,0,P|495:235|491:193,1,85,2|0,0:0|0:0,0:0:0:0:
475,100,16626,1,2,0:0:0:0:
409,33,16823,1,0,0:0:0:0:
318,54,17020,2,0,L|221:42,1,85,2|0,0:0|0:0,0:0:0:0:
139,42,17415,1,2,0:0:0:0:
183,124,17613,1,0,0:0:0:0:
139,42,17810,6,0,L|40:44,1,85,2|0,0:0|0:0,0:0:0:0:
12,127,18205,1,2,0:0:0:0:
120,178,18402,2,0,P|175:136|190:99,1,85,2|0,0:0|0:0,0:0:0:0:
329,123,18797,2,0,P|355:157|392:178,1,85,2|0,0:0|0:0,0:0:0:0:
415,87,19191,1,2,0:0:0:0:
415,87,19290,1,2,0:0:0:0:
415,87,19389,6,0,P|452:87|502:74,1,85
505,168,19784,1,2,0:0:0:0:
482,287,19981,2,0,P|440:297|399:287,1,85,0|2,0:0|0:0,0:0:0:0:
310,259,20376,2,0,P|268:263|231:283,1,85,0|2,0:0|0:0,0:0:0:0:
188,367,20770,1,0,0:0:0:0:
324,342,20968,6,0,L|309:258,1,85,2|0,0:0|0:0,0:0:0:0:
231,283,21363,1,2,0:0:0:0:
389,282,21560,2,0,P|412:247|410:205,1,85,0|2,0:0|0:0,0:0:0:0:
231,283,21955,2,0,P|277:278|322:248,1,85,0|2,0:0|0:0,0:0:0:0:
334,169,22349,1,0,0:0:0:0:
276,42,22547,6,0,P|236:24|180:23,1,85,2|0,0:0|0:0,0:0:0:0:
112,64,22941,1,2,0:0:0:0:
13,31,23139,1,0,0:0:0:0:
8,170,23336,2,0,P|35:175|100:164,1,85,2|0,0:0|0:0,0:0:0:0:
178,131,23731,2,0,P|204:125|265:134,1,85,2|0,0:0|0:0,0:0:0:0:
318,240,24126,5,0,0:0:0:0:
331,349,24323,1,0,0:0:0:0:
438,323,24520,2,0,L|444:238,1,85
444,145,24915,2,0,L|438:61,1,85
495,192,25310,1,10,0:0:0:0:
438,61,25507,6,0,P|368:15|280:17,1,170,4|0,0:0|0:0,0:0:0:0:
181,57,26099,1,8,0:0:0:0:
81,106,26297,2,0,P|39:110|3:89,1,85,0|2,0:0|0:0,0:0:0:0:
102,22,26691,1,2,0:0:0:0:
181,57,26889,1,8,0:0:0:0:
255,147,27086,6,0,P|296:153|333:133,1,85
340,23,27481,1,0,0:0:0:0:
438,61,27678,1,8,0:0:0:0:
487,159,27876,2,0,P|490:201|479:241,1,85,0|2,0:0|0:0,0:0:0:0:
385,183,28270,1,2,0:0:0:0:
448,75,28468,1,8,0:0:0:0:
479,240,28665,6,0,P|404:276|324:252,1,170
397,191,29257,1,8,0:0:0:0:
324,252,29455,2,0,P|293:207|295:165,1,85,0|2,0:0|0:0,0:0:0:0:
357,99,29849,1,2,0:0:0:0:
264,55,30047,1,8,0:0:0:0:
150,132,30244,6,0,P|108:134|71:113,1,85
131,29,30639,1,0,0:0:0:0:
210,94,30836,1,8,0:0:0:0:
60,46,31034,1,0,0:0:0:0:
15,157,31231,2,0,B|25:241,1,85,0|2,0:0|0:0,0:0:0:0:
42,342,31626,1,8,0:0:0:0:
174,244,31823,6,0,P|208:208|204:84,1,170,4|0,0:0|0:0,0:0:0:0:
131,29,32415,1,8,0:0:0:0:
271,58,32613,2,0,P|312:67|369:43,1,85,0|2,0:0|0:0,0:0:0:0:
444,12,33007,1,2,0:0:0:0:
504,94,33205,1,8,0:0:0:0:
398,190,33402,6,0,P|400:147|413:107,1,85
480,172,33797,1,0,0:0:0:0:
508,261,33994,1,8,0:0:0:0:
478,349,34191,2,0,P|436:354|396:341,1,85,0|2,0:0|0:0,0:0:0:0:
348,260,34586,1,2,0:0:0:0:
434,264,34784,1,8,0:0:0:0:
308,331,34981,6,0,P|273:288|270:247,1,85
309,166,35376,1,0,0:0:0:0:
382,96,35573,1,8,0:0:0:0:
303,31,35770,1,0,0:0:0:0:
303,31,35869,1,0,0:0:0:0:
303,31,35968,2,0,P|261:22|220:31,1,85,2|2,0:0|0:0,0:0:0:0:
127,74,36363,1,8,0:0:0:0:
229,173,36560,6,0,P|269:181|308:165,1,85,4|0,0:0|0:0,0:0:0:0:
369,87,36955,1,2,0:0:0:0:
264,102,37152,1,8,0:0:0:0:
114,63,37349,2,0,L|19:70,1,85,2|0,0:0|0:0,0:0:0:0:
205,51,37744,1,2,0:0:0:0:
302,164,37941,2,0,L|322:341,1,170,2|4,0:0|0:0,0:0:0:0:
321,332,38731,5,0,0:0:0:0:
243,306,38928,1,0,0:0:0:0:
175,356,39126,2,0,P|163:327|164:277,1,68
190,214,39520,2,0,P|197:181|181:123,1,68
116,178,39915,5,2,0:0:0:0:
85,254,40113,2,0,P|51:249|23:229,1,68
15,148,40507,1,0,0:0:0:0:
69,43,40705,2,0,P|101:33|135:33,1,68
245,126,41099,2,0,P|211:123|166:104,1,68
224,41,41494,5,2,0:0:0:0:
224,41,41889,1,0,0:0:0:0:
302,19,42086,1,0,0:0:0:0:
378,47,42284,2,0,P|411:54|452:46,1,68
501,107,42678,1,0,0:0:0:0:
432,201,42876,6,0,P|398:203|365:195,1,68,0|2,0:0|0:0,0:0:0:0:
312,131,43270,2,0,P|284:125|232:128,1,68
171,161,43665,1,0,0:0:0:0:
255,273,43863,2,0,P|266:244|263:176,1,68
191,334,44257,2,0,P|175:303|172:244,1,68
180,151,44652,5,4,0:0:0:0:
113,73,44849,1,0,0:0:0:0:
67,164,45047,1,0,0:0:0:0:
191,143,45244,2,0,L|195:58,1,85
321,143,45639,2,0,L|316:58,1,85
375,226,46034,6,0,P|404:196|413:155,1,85
390,56,46428,1,0,0:0:0:0:
474,114,46626,1,0,0:0:0:0:
417,301,46823,2,0,P|363:310|293:217,1,170
281,79,47415,1,8,0:0:0:0:
147,86,47613,1,8,0:0:0:0:
147,86,47711,1,8,0:0:0:0:
147,86,47810,6,0,P|105:93|65:80,1,85,8|0,0:0|0:0,0:0:0:0:
200,28,48205,1,8,0:0:0:0:
339,136,48402,2,0,P|356:97|357:55,1,85,4|0,0:0|0:0,0:0:0:0:
269,8,48797,1,0,0:0:0:0:
215,105,48994,1,8,0:0:0:0:
319,217,49191,6,0,P|336:178|339:136,1,85,4|0,0:0|0:0,0:0:0:0:
432,191,49586,1,0,0:0:0:0:
471,298,49784,1,8,0:0:0:0:
394,365,49981,1,0,0:0:0:0:
307,310,50178,2,0,B|222:302,1,85,0|0,0:0|0:0,0:0:0:0:
129,344,50573,1,8,0:0:0:0:
215,189,50770,6,0,P|219:146|214:104,1,85,4|0,0:0|0:0,0:0:0:0:
146,31,51165,1,8,0:0:0:0:
124,147,51363,1,8,0:0:0:0:
268,54,51560,1,8,0:0:0:0:
112,157,51757,2,0,L|114:241,1,85,8|0,0:0|0:0,0:0:0:0:
224,378,52152,1,8,0:0:0:0:
306,310,52349,1,0,0:0:0:0:
306,310,52448,1,0,0:0:0:0:
305,310,52547,6,0,P|349:292|395:288,1,93.5000028533936,4|0,0:0|0:0,0:0:0:0:
375,375,52941,1,8,0:0:0:0:
496,312,53139,2,0,P|497:265|475:224,1,93.5000028533936
363,209,53534,1,0,0:0:0:0:
293,121,53731,1,8,0:0:0:0:
404,106,53928,1,0,0:0:0:0:
404,106,54027,1,0,0:0:0:0:
404,106,54126,6,0,P|443:108|502:86,1,93.5000028533936
432,11,54520,1,8,0:0:0:0:
302,51,54718,2,0,P|256:42|219:13,1,93.5000028533936
111,31,55113,1,0,0:0:0:0:
141,167,55310,1,8,0:0:0:0:
47,114,55507,1,0,0:0:0:0:
204,107,55705,6,0,P|221:150|219:197,1,93.5000028533936
136,272,56099,1,8,0:0:0:0:
307,150,56297,2,0,P|346:148|408:177,1,93.5000028533936
489,245,56691,1,0,0:0:0:0:
485,366,56889,1,8,0:0:0:0:
367,339,57086,1,0,0:0:0:0:
238,234,57284,5,4,0:0:0:0:
238,234,57678,2,0,P|242:280|231:326,1,93.5000028533936,4|0,0:0|0:0,0:0:0:0:
40,206,58073,2,0,P|37:159|47:114,1,93.5000028533936,4|0,0:0|0:0,0:0:0:0:
211,15,58468,2,0,P|213:61|203:106,1,93.5000028533936,4|0,0:0|0:0,0:0:0:0:
25,184,58863,6,0,P|22:137|32:92,1,93.5000028533936,4|0,0:0|0:0,0:0:0:0:
109,9,59257,1,8,0:0:0:0:
157,169,59455,1,4,0:0:0:0:
157,169,59849,2,0,L|142:261,1,93.5000028533936,0|8,0:0|0:0,0:0:0:0:
305,358,60244,1,4,0:0:0:0:
305,358,60638,2,0,L|320:266,1,93.5000028533936,0|8,0:0|0:0,0:0:0:0:
462,151,61033,1,4,0:0:0:0:
462,151,61428,1,2,0:0:0:0:
449,39,61626,1,2,0:0:0:0:
337,30,61823,1,2,0:0:0:0:
184,66,62020,6,0,P|144:71|83:56,1,93.5000028533936,4|0,0:0|0:0,0:0:0:0:
14,141,62415,1,8,0:0:0:0:
119,257,62613,1,0,0:0:0:0:
6,229,62810,1,0,0:0:0:0:
138,335,63007,2,0,P|175:308|198:267,1,93.5000028533936,0|8,0:0|0:0,0:0:0:0:
374,335,63402,2,0,P|336:308|313:267,1,93.5000028533936,4|0,0:0|0:0,0:0:0:0:
302,127,63797,5,8,0:0:0:0:
207,23,63994,2,0,L|188:114,1,93.5000028533936,8|0,0:0|0:0,0:0:0:0:
136,245,64389,1,8,0:0:0:0:
136,245,64488,1,0,0:0:0:0:
136,245,64586,2,0,L|98:210,1,46.7500014266968
58,133,64784,2,0,L|46:88,1,46.7500014266968
9,218,64981,2,0,L|7:268,1,46.7500014266968
79,359,65178,6,0,P|124:364|171:350,1,93.5000028533936,4|0,0:0|0:0,0:0:0:0:
226,254,65572,1,8,0:0:0:0:
102,213,65770,2,0,P|71:179|59:135,1,93.5000028533936
98,7,66165,1,0,0:0:0:0:
193,65,66362,1,8,0:0:0:0:
289,105,66559,1,0,0:0:0:0:
289,105,66658,1,0,0:0:0:0:
289,105,66757,6,0,P|328:107|387:85,1,93.5000028533936,4|0,0:0|0:0,0:0:0:0:
433,15,67151,1,8,0:0:0:0:
403,167,67349,2,0,P|449:171|492:154,1,93.5000028533936
509,43,67744,1,0,0:0:0:0:
492,154,67941,1,8,0:0:0:0:
444,255,68138,1,0,0:0:0:0:
313,351,68336,6,0,P|266:353|223:336,1,93.5000028533936,4|0,0:0|0:0,0:0:0:0:
153,249,68730,1,8,0:0:0:0:
306,194,68928,2,0,P|308:155|279:93,1,93.5000028533936
199,51,69322,1,0,0:0:0:0:
193,164,69520,1,8,0:0:0:0:
94,91,69717,1,0,0:0:0:0:
12,192,69915,5,4,0:0:0:0:
12,192,70309,2,0,L|14:98,1,93.5000028533936,4|0,0:0|0:0,0:0:0:0:
153,249,70704,2,0,L|148:342,1,93.5000028533936,4|0,0:0|0:0,0:0:0:0:
306,194,71099,2,0,L|317:93,1,93.5000028533936,4|0,0:0|0:0,0:0:0:0:
300,309,71494,6,0,P|346:309|384:276,1,93.5000028533936,4|0,0:0|0:0,0:0:0:0:
406,152,71888,1,8,0:0:0:0:
243,49,72086,1,4,0:0:0:0:
243,49,72480,2,0,L|231:141,1,93.5000028533936,0|8,0:0|0:0,0:0:0:0:
140,343,72876,1,4,0:0:0:0:
140,343,73270,2,0,L|152:251,1,93.5000028533936,0|8,0:0|0:0,0:0:0:0:
74,56,73665,1,4,0:0:0:0:
74,56,74059,2,0,L|62:148,1,93.5000028533936,8|8,0:0|0:0,0:0:0:0:
32,302,74454,1,0,0:0:0:0:
224,302,74652,5,4,0:0:0:0:
465,359,75047,1,8,0:0:0:0:
327,139,75441,1,0,0:0:0:0:
425,118,75639,1,0,0:0:0:0:
273,224,75836,1,8,0:0:0:0:
270,53,76034,6,0,P|336:18|462:53,1,187.000005706787,4|0,0:0|0:0,0:0:0:0:
466,199,76626,2,0,P|428:204|362:180,1,93.5000028533936,8|0,0:0|0:0,0:0:0:0:
251,127,77020,2,0,P|206:139|169:168,1,93.5000028533936,8|0,0:0|0:0,0:0:0:0:
137,259,77415,2,0,L|140:305,3,46.7500014266968,2|0|0|0,0:0|0:0|0:0|0:0,0:0:0:0:
256,192,77810,12,0,79389,0:0:0:0:
194,149,79784,5,8,0:0:0:0:
131,241,79981,1,0,0:0:0:0:
67,330,80178,1,8,0:0:0:0:
173,359,80376,1,8,0:0:0:0:
173,359,80474,1,8,0:0:0:0:
173,359,80573,2,0,L|283:349,1,85,8|0,0:0|0:0,0:0:0:0:
405,271,80968,5,4,0:0:0:0:
304,106,81165,1,0,0:0:0:0:
231,274,81363,1,8,0:0:0:0:
427,114,81560,1,8,0:0:0:0:
427,114,81955,2,0,P|386:41|306:19,1,170,4|0,0:0|0:0,0:0:0:0:
162,68,82547,5,0,0:0:0:0:
17,180,82744,1,0,0:0:0:0:
14,11,82941,1,8,0:0:0:0:
173,210,83139,1,8,0:0:0:0:
173,210,83534,2,0,P|240:223|320:166,1,170,4|0,0:0|0:0,0:0:0:0:
227,116,84126,5,4,0:0:0:0:
461,298,87284,6,0,P|421:312|390:308,1,68,4|0,0:0|0:0,0:0:0:0:
314,303,87679,1,2,0:0:0:0:
235,280,87876,2,0,P|193:267|154:268,1,68,0|2,0:0|0:0,0:0:0:0:
90,290,88271,2,0,P|53:255|39:218,1,68,0|2,0:0|0:0,0:0:0:0:
18,163,88666,1,8,0:0:0:0:
24,47,88863,6,0,P|63:23|114:24,1,68,8|0,0:0|0:0,0:0:0:0:
166,36,89258,1,2,0:0:0:0:
226,95,89455,2,0,P|261:99|314:82,1,68,0|2,0:0|0:0,0:0:0:0:
357,42,89850,2,0,P|385:26|438:26,1,68,0|2,0:0|0:0,0:0:0:0:
487,68,90245,1,0,0:0:0:0:
463,187,90442,6,0,L|470:272,1,68,8|0,0:0|0:0,0:0:0:0:
504,328,90837,1,2,0:0:0:0:
429,360,91034,1,0,0:0:0:0:
367,306,91231,2,0,L|278:295,1,68,2|0,0:0|0:0,0:0:0:0:
256,228,91626,1,0,0:0:0:0:
336,218,91824,1,8,0:0:0:0:
215,301,92021,6,0,P|177:310|125:302,1,68,8|0,0:0|0:0,0:0:0:0:
71,280,92416,1,2,0:0:0:0:
29,209,92613,2,0,P|65:188|85:160,1,68,0|2,0:0|0:0,0:0:0:0:
56,90,93007,1,0,0:0:0:0:
156,163,93205,2,0,P|187:174|221:171,1,68
317,95,93600,6,0,P|325:62|315:29,1,68,8|0,0:0|0:0,0:0:0:0:
245,99,93995,1,8,0:0:0:0:
394,178,94191,2,0,P|401:145|391:112,1,68,0|8,0:0|0:0,0:0:0:0:
221,171,94586,2,0,P|213:203|223:236,1,68,0|8,0:0|0:0,0:0:0:0:
310,213,94981,1,0,0:0:0:0:
402,244,95178,6,0,P|404:210|394:178,1,68,8|0,0:0|0:0,0:0:0:0:
357,311,95574,1,8,0:0:0:0:
291,358,95770,2,0,P|280:325|281:291,1,68,0|8,0:0|0:0,0:0:0:0:
420,355,96165,2,0,P|453:356|486:345,1,68,0|8,0:0|0:0,0:0:0:0:
505,245,96560,1,0,0:0:0:0:
467,115,96758,6,0,P|437:97|405:88,1,68,8|0,0:0|0:0,0:0:0:0:
324,83,97152,1,8,0:0:0:0:
260,134,97350,1,0,0:0:0:0:
201,190,97547,2,0,P|174:195|119:190,1,68,8|0,0:0|0:0,0:0:0:0:
16,140,97942,2,0,P|49:147|83:141,1,68,8|0,0:0|0:0,0:0:0:0:
155,123,98337,5,0,0:0:0:0:
215,75,98534,1,0,0:0:0:0:
269,202,98731,2,0,L|261:291,1,68
104,331,99126,2,0,L|111:251,1,68
188,296,99521,1,0,0:0:0:0:
25,357,99718,6,0,P|13:273|38:193,1,170,4|0,0:0|0:0,0:0:0:0:
87,113,100310,1,8,0:0:0:0:
176,98,100508,2,0,P|217:102|253:81,1,85,0|2,0:0|0:0,0:0:0:0:
198,12,100902,1,2,0:0:0:0:
110,46,101100,1,8,0:0:0:0:
232,157,101297,6,0,P|254:121|253:79,1,85
332,25,101692,1,0,0:0:0:0:
393,95,101889,1,8,0:0:0:0:
471,141,102087,2,0,P|489:104|481:64,1,85,0|2,0:0|0:0,0:0:0:0:
386,182,102481,1,2,0:0:0:0:
369,274,102679,1,8,0:0:0:0:
245,162,102876,6,0,P|183:106|100:112,1,170
155,188,103468,1,8,0:0:0:0:
261,244,103666,2,0,P|306:213|323:161,1,85,0|2,0:0|0:0,0:0:0:0:
303,94,104060,1,2,0:0:0:0:
225,41,104258,1,8,0:0:0:0:
100,112,104455,6,0,P|58:114|21:93,1,85
83,15,104850,1,0,0:0:0:0:
171,118,105047,1,8,0:0:0:0:
42,190,105245,1,0,0:0:0:0:
91,287,105442,2,0,B|194:274,1,85,2|0,0:0|0:0,0:0:0:0:
204,190,105837,1,8,0:0:0:0:
307,349,106034,6,0,P|389:351|449:294,1,170,4|0,0:0|0:0,0:0:0:0:
371,238,106626,1,8,0:0:0:0:
284,188,106824,2,0,P|243:176|203:189,1,85,0|2,0:0|0:0,0:0:0:0:
165,274,107218,1,2,0:0:0:0:
222,347,107416,1,8,0:0:0:0:
78,314,107613,6,0,P|72:274|80:227,1,85
128,150,108008,1,0,0:0:0:0:
213,112,108205,1,8,0:0:0:0:
43,143,108402,2,0,P|37:101|50:60,1,85,0|2,0:0|0:0,0:0:0:0:
143,44,108797,1,2,0:0:0:0:
219,98,108995,1,8,0:0:0:0:
347,194,109192,6,0,P|388:189|422:163,1,85
357,95,109586,1,0,0:0:0:0:
289,29,109784,1,8,0:0:0:0:
450,93,109981,1,0,0:0:0:0:
450,93,110080,1,0,0:0:0:0:
450,93,110179,2,0,P|465:54|455:9,1,85,2|2,0:0|0:0,0:0:0:0:
357,95,110574,1,8,0:0:0:0:
275,186,110771,6,0,P|234:191|193:179,1,85,4|0,0:0|0:0,0:0:0:0:
133,108,111166,1,2,0:0:0:0:
232,86,111363,1,8,0:0:0:0:
352,177,111560,2,0,P|363:136|356:94,1,85,2|0,0:0|0:0,0:0:0:0:
171,21,111955,1,2,0:0:0:0:
196,174,112152,2,0,P|142:237|61:258,1,170,2|4,0:0|0:0,0:0:0:0:
92,38,112942,5,0,0:0:0:0:
171,21,113139,1,0,0:0:0:0:
240,48,113337,2,0,P|273:52|319:39,1,68
377,21,113731,2,0,P|414:16|463:31,1,68
496,136,114126,5,0,0:0:0:0:
467,205,114324,2,0,P|439:185|405:180,1,68
345,145,114718,1,0,0:0:0:0:
385,84,114916,2,0,P|390:49|374:17,1,68
314,60,115310,2,0,L|239:49,1,68,2|0,0:0|0:0,0:0:0:0:
111,136,115705,5,0,0:0:0:0:
111,136,116100,1,0,0:0:0:0:
153,74,116297,1,0,0:0:0:0:
44,174,116495,2,0,P|35:141|40:108,1,68
82,46,116889,1,0,0:0:0:0:
185,143,117087,6,0,P|213:146|266:138,1,68
381,65,117481,2,0,P|353:59|301:62,1,68
239,72,117876,1,0,0:0:0:0:
341,197,118074,2,0,P|350:167|341:119,1,68
205,281,118468,2,0,P|189:250|186:191,1,68
313,59,118863,5,4,0:0:0:0:
185,143,119060,1,0,0:0:0:0:
186,9,119258,1,0,0:0:0:0:
56,32,119455,2,0,P|29:63|21:104,1,85
83,217,119850,2,0,P|98:180|89:130,1,85
20,288,120245,6,0,P|17:330|38:366,1,85
108,305,120639,1,0,0:0:0:0:
9,216,120837,1,0,0:0:0:0:
176,244,121034,2,0,P|235:235|281:139,1,170
239,59,121626,1,8,0:0:0:0:
149,84,121824,1,8,0:0:0:0:
149,84,121922,1,8,0:0:0:0:
149,84,122021,6,0,P|108:96|67:89,1,85,8|0,0:0|0:0,0:0:0:0:
213,149,122416,1,8,0:0:0:0:
355,168,122613,2,0,P|355:125|338:87,1,85,4|0,0:0|0:0,0:0:0:0:
249,45,123008,1,0,0:0:0:0:
220,138,123205,1,8,0:0:0:0:
87,168,123402,6,0,P|70:130|66:88,1,85,4|0,0:0|0:0,0:0:0:0:
159,198,123797,1,0,0:0:0:0:
225,131,123995,1,8,0:0:0:0:
290,196,124192,1,0,0:0:0:0:
380,214,124389,2,0,P|423:214|461:197,1,85,0|0,0:0|0:0,0:0:0:0:
502,113,124784,1,8,0:0:0:0:
375,13,124981,2,0,P|333:4|294:18,1,85,4|0,0:0|0:0,0:0:0:0:
148,122,125376,5,8,0:0:0:0:
254,326,125574,1,8,0:0:0:0:
355,121,125770,1,8,0:0:0:0:
157,202,125968,2,0,L|157:290,1,85,8|0,0:0|0:0,0:0:0:0:
325,351,126363,1,8,0:0:0:0:
364,214,126560,1,8,0:0:0:0:
364,214,126659,1,8,0:0:0:0:
364,214,126757,6,0,L|352:93,1,93.5000028533936,4|0,0:0|0:0,0:0:0:0:
239,19,127151,1,8,0:0:0:0:
148,122,127349,2,0,P|101:120|62:96,1,93.5000028533936
163,45,127744,1,0,0:0:0:0:
218,165,127941,1,8,0:0:0:0:
295,72,128138,1,0,0:0:0:0:
295,72,128237,1,0,0:0:0:0:
295,72,128336,6,0,P|338:56|385:57,1,93.5000028533936
491,92,128730,1,8,0:0:0:0:
492,244,128928,2,0,P|496:290|479:333,1,93.5000028533936
370,362,129323,1,0,0:0:0:0:
298,276,129520,1,8,0:0:0:0:
188,301,129717,1,0,0:0:0:0:
36,343,129915,6,0,P|19:299|21:253,1,93.5000028533936,4|0,0:0|0:0,0:0:0:0:
63,149,130309,1,8,0:0:0:0:
210,212,130507,2,0,P|249:214|311:185,1,93.5000028533936
415,48,130901,1,0,0:0:0:0:
235,97,131099,1,8,0:0:0:0:
361,234,131296,1,0,0:0:0:0:
397,65,131494,5,4,0:0:0:0:
379,85,131888,2,0,L|503:71,1,93.5000028533936,4|0,0:0|0:0,0:0:0:0:
246,110,132283,2,0,L|130:114,1,93.5000028533936,4|0,0:0|0:0,0:0:0:0:
376,248,132678,2,0,L|477:259,1,93.5000028533936,4|0,0:0|0:0,0:0:0:0:
250,367,133073,6,0,P|197:357|147:310,1,93.5000028533936,4|0,0:0|0:0,0:0:0:0:
221,188,133467,1,8,0:0:0:0:
395,271,133665,1,4,0:0:0:0:
395,271,134059,2,0,L|410:179,1,93.5000028533936,0|8,0:0|0:0,0:0:0:0:
337,43,134454,1,4,0:0:0:0:
337,43,134849,2,0,L|243:47,1,93.5000028533936,0|8,0:0|0:0,0:0:0:0:
77,25,135243,1,4,0:0:0:0:
77,25,135638,1,2,0:0:0:0:
166,180,135836,1,2,0:0:0:0:
10,167,136033,1,2,0:0:0:0:
162,70,136230,6,0,L|252:48,1,93.5000028533936,4|0,0:0|0:0,0:0:0:0:
343,114,136625,1,8,0:0:0:0:
351,1,136823,1,0,0:0:0:0:
252,47,137020,1,0,0:0:0:0:
343,114,137217,2,0,P|389:110|426:81,1,93.5000028533936,0|8,0:0|0:0,0:0:0:0:
283,166,137612,2,0,L|274:269,1,93.5000028533936,4|0,0:0|0:0,0:0:0:0:
375,311,138007,5,8,0:0:0:0:
211,353,138204,2,0,P|195:309|192:261,1,93.5000028533936,8|0,0:0|0:0,0:0:0:0:
147,124,138599,1,8,0:0:0:0:
147,124,138698,1,0,0:0:0:0:
147,124,138796,2,0,L|87:116,1,46.7500014266968
26,161,138994,2,0,L|14:222,1,46.7500014266968,8|0,0:0|0:0,0:0:0:0:
24,75,139191,2,0,L|36:14,1,46.7500014266968
142,37,139388,6,0,P|188:45|233:34,1,93.5000028533936,4|0,0:0|0:0,0:0:0:0:
359,47,139782,1,8,0:0:0:0:
335,153,139980,2,0,P|295:128|249:127,1,93.5000028533936
128,236,140375,1,0,0:0:0:0:
271,207,140572,1,8,0:0:0:0:
433,305,140769,1,0,0:0:0:0:
433,305,140868,1,0,0:0:0:0:
433,305,140967,6,0,P|435:266|413:207,1,93.5000028533936,4|0,0:0|0:0,0:0:0:0:
325,280,141361,1,8,0:0:0:0:
334,153,141559,2,0,P|369:122|414:109,1,93.5000028533936
503,163,141954,1,0,0:0:0:0:
493,47,142151,1,8,0:0:0:0:
383,24,142348,1,0,0:0:0:0:
274,97,142546,6,0,P|235:100|180:79,1,93.5000028533936,4|0,0:0|0:0,0:0:0:0:
313,29,142940,1,8,0:0:0:0:
184,82,143138,2,0,P|145:84|83:55,1,93.5000028533936
239,22,143532,1,0,0:0:0:0:
269,175,143730,1,8,0:0:0:0:
152,4,143927,1,0,0:0:0:0:
17,157,144125,5,4,0:0:0:0:
17,157,144519,2,0,P|16:110|35:68,1,93.5000028533936,4|0,0:0|0:0,0:0:0:0:
95,288,144915,2,0,P|95:334|76:376,1,93.5000028533936,4|0,0:0|0:0,0:0:0:0:
180,156,145310,2,0,P|226:155|268:174,1,93.5000028533936,4|0,0:0|0:0,0:0:0:0:
204,352,145704,6,0,P|190:307|200:262,1,93.5000028533936,4|0,0:0|0:0,0:0:0:0:
308,273,146098,1,8,0:0:0:0:
477,367,146296,1,4,0:0:0:0:
477,367,146690,2,0,L|483:265,1,93.5000028533936,0|8,0:0|0:0,0:0:0:0:
395,46,147086,1,4,0:0:0:0:
395,46,147480,2,0,L|389:148,1,93.5000028533936,0|8,0:0|0:0,0:0:0:0:
198,229,147876,1,4,0:0:0:0:
198,229,148270,2,0,L|204:127,1,93.5000028533936,8|8,0:0|0:0,0:0:0:0:
300,22,148664,1,0,0:0:0:0:
470,101,148862,5,4,0:0:0:0:
299,297,149257,1,8,0:0:0:0:
215,61,149651,1,0,0:0:0:0:
379,55,149849,1,0,0:0:0:0:
462,203,150046,1,8,0:0:0:0:
231,323,150244,6,0,P|195:240|242:163,1,187.000005706787,4|0,0:0|0:0,0:0:0:0:
389,144,150836,2,0,P|433:131|470:102,1,93.5000028533936,8|0,0:0|0:0,0:0:0:0:
308,35,151230,2,0,P|287:24|270:8,3,46.7500014266968,8|0|0|0,0:0|0:0|0:0|0:0,0:0:0:0:
215,61,151625,2,0,L|195:106,3,46.7500014266968,8|0|0|0,0:0|0:0|0:0|0:0,0:0:0:0:
256,192,152020,12,0,153599,0:0:0:0:
256,192,153994,5,8,0:0:0:0:
231,323,154191,1,0,0:0:0:0:
362,335,154389,1,8,0:0:0:0:
362,335,154488,1,0,0:0:0:0:
362,335,154586,2,0,L|411:328,1,42.5
478,286,154784,2,0,L|482:243,1,42.5,8|0,0:0|0:0,0:0:0:0:
401,210,154981,2,0,L|339:220,1,42.5
472,157,155178,5,4,0:0:0:0:
415,16,155376,1,0,0:0:0:0:
274,75,155573,1,8,0:0:0:0:
193,48,155770,1,0,0:0:0:0:
123,97,155968,2,0,P|91:98|29:75,1,85
96,11,156363,1,0,0:0:0:0:
162,159,156560,6,0,P|204:164|244:150,1,85,4|0,0:0|0:0,0:0:0:0:
333,120,156955,1,0,0:0:0:0:
391,193,157152,1,8,0:0:0:0:
322,337,157349,2,0,P|259:368|155:340,1,170,2|0,0:0|0:0,0:0:0:0:
259,219,157941,2,0,P|299:228|330:257,1,85,8|0,0:0|0:0,0:0:0:0:
194,271,158336,5,2,0:0:0:0:
123,97,158534,1,2,0:0:0:0:
318,37,158731,1,8,0:0:0:0:
408,61,158928,1,2,0:0:0:0:
496,31,159126,2,0,P|502:72|491:113,1,85
391,193,159520,1,8,0:0:0:0:
391,193,159619,1,8,0:0:0:0:
391,193,159718,6,0,P|360:163|341:125,1,85,4|0,0:0|0:0,0:0:0:0:
424,303,160113,2,0,P|459:309|512:300,1,85,2|8,0:0|0:0,0:0:0:0:
349,264,160507,2,0,P|315:270|259:254,1,85,2|8,0:0|0:0,0:0:0:0:
466,226,160902,2,0,P|472:191|447:130,1,85,8|0,0:0|0:0,0:0:0:0:
408,61,161297,1,0,0:0:0:0:
285,190,161494,6,0,P|238:148|232:86,1,127.500004863739,4|0,0:0|0:0,0:0:0:0:
232,86,162284,1,8,0:0:0:0:
232,86,162678,1,0,0:0:0:0:
170,39,162876,2,0,L|86:30,1,63.7500024318696,2|0,0:0|0:0,0:0:0:0:
162,111,163270,5,0,0:0:0:0:
303,120,163468,2,0,P|311:90|307:56,1,63.7500024318696,2|0,0:0|0:0,0:0:0:0:
232,164,163863,1,2,0:0:0:0:
355,173,164060,2,0,P|390:175|430:163,1,63.7500024318696,2|8,0:0|0:0,0:0:0:0:
481,210,164455,1,0,0:0:0:0:
384,101,164652,6,0,P|376:66|387:13,1,85,4|0,0:0|0:0,0:0:0:0:
462,64,165047,1,8,0:0:0:0:
307,48,165244,2,0,P|265:39|229:16,1,85
127,28,165639,1,0,0:0:0:0:
24,18,165836,2,0,P|19:60|30:101,1,85,8|0,0:0|0:0,0:0:0:0:
143,229,166231,6,0,P|146:195|132:134,1,85,2|0,0:0|0:0,0:0:0:0:
47,192,166626,1,8,0:0:0:0:
135,309,166823,2,0,P|176:303|209:277,1,85
239,180,167218,1,0,0:0:0:0:
336,210,167415,1,8,0:0:0:0:
336,210,167810,6,0,L|340:107,1,85,2|0,0:0|0:0,0:0:0:0:
414,43,168205,1,8,0:0:0:0:
487,125,168402,1,0,0:0:0:0:
451,229,168599,1,8,0:0:0:0:
476,336,168797,2,0,P|433:336|395:318,1,85
238,179,169191,6,0,P|156:164|78:196,1,170
28,303,169784,1,8,0:0:0:0:
161,255,169981,1,8,0:0:0:0:
44,134,170178,1,8,0:0:0:0:
115,337,170376,1,2,0:0:0:0:
242,263,170573,2,0,B|237:163,1,85,8|0,0:0|0:0,0:0:0:0:
359,10,170968,6,0,B|364:110,1,85,4|0,0:0|0:0,0:0:0:0:
486,245,171363,2,0,L|489:147,1,85,8|0,0:0|0:0,0:0:0:0:
464,52,171757,1,0,0:0:0:0:
363,94,171955,1,0,0:0:0:0:
418,189,172152,1,8,0:0:0:0:
343,270,172349,1,0,0:0:0:0:
195,339,172547,6,0,L|103:327,1,85
208,200,172941,1,8,0:0:0:0:
273,299,173139,1,0,0:0:0:0:
119,245,173336,2,0,L|27:233,1,85
12,89,173731,2,0,L|96:99,1,85,8|0,0:0|0:0,0:0:0:0:
260,71,174126,5,0,0:0:0:0:
367,19,174323,1,0,0:0:0:0:
475,66,174520,2,0,L|489:155,1,85,8|0,0:0|0:0,0:0:0:0:
418,266,174915,1,0,0:0:0:0:
292,209,175113,2,0,L|200:199,1,85,0|8,0:0|0:0,0:0:0:0:
395,155,175507,1,0,0:0:0:0:
287,293,175705,6,0,L|292:191,1,85,4|0,0:0|0:0,0:0:0:0:
197,119,176099,1,8,0:0:0:0:
91,47,176297,1,0,0:0:0:0:
17,201,176494,2,0,L|25:318,1,85,4|0,0:0|0:0,0:0:0:0:
99,148,176889,1,8,0:0:0:0:
18,108,177086,1,0,0:0:0:0:
22,285,177284,6,0,L|23:369,1,85,4|0,0:0|0:0,0:0:0:0:
107,252,177678,1,8,0:0:0:0:
213,366,177876,1,0,0:0:0:0:
235,229,178073,1,0,0:0:0:0:
363,234,178270,2,0,L|369:150,1,85,0|8,0:0|0:0,0:0:0:0:
392,312,178665,1,0,0:0:0:0:
504,216,178863,5,0,0:0:0:0:
487,81,179060,1,0,0:0:0:0:
370,150,179257,1,8,0:0:0:0:
351,14,179455,1,0,0:0:0:0:
221,55,179652,2,0,L|136:66,1,85
23,206,180047,2,0,L|106:193,1,85,8|0,0:0|0:0,0:0:0:0:
291,168,180441,6,0,L|300:262,1,85,4|0,0:0|0:0,0:0:0:0:
140,354,180836,2,0,L|131:260,1,85,8|0,0:0|0:0,0:0:0:0:
218,177,181231,1,0,0:0:0:0:
236,310,181428,1,8,0:0:0:0:
123,178,181626,1,8,0:0:0:0:
283,83,181823,2,0,L|290:167,1,85,4|0,0:0|0:0,0:0:0:0:
320,370,182218,5,0,0:0:0:0:
423,317,182415,1,8,0:0:0:0:
360,201,182613,1,0,0:0:0:0:
256,261,182810,2,0,B|150:255,1,85
112,360,183205,1,0,0:0:0:0:
14,291,183402,1,0,0:0:0:0:
177,162,183599,6,0,L|170:255,1,93.5000028533936,4|0,0:0|0:0,0:0:0:0:
79,209,183994,1,8,0:0:0:0:
277,176,184191,2,0,L|283:82,1,93.5000028533936,0|2,0:0|0:0,0:0:0:0:
460,110,184586,2,0,L|466:16,1,93.5000028533936,2|8,0:0|0:0,0:0:0:0:
364,22,184981,1,0,0:0:0:0:
361,195,185178,6,0,L|372:314,1,93.5000028533936,2|0,0:0|0:0,0:0:0:0:
461,224,185573,1,8,0:0:0:0:
277,299,185770,2,0,P|238:293|195:259,1,93.5000028533936,0|2,0:0|0:0,0:0:0:0:
274,91,186165,2,0,L|269:184,1,93.5000028533936,2|8,0:0|0:0,0:0:0:0:
384,112,186560,1,0,0:0:0:0:
197,261,186757,6,0,B|173:219|173:219|180:155,1,93.5000028533936,4|0,0:0|0:0,0:0:0:0:
259,12,187152,1,8,0:0:0:0:
436,44,187349,1,0,0:0:0:0:
320,164,187547,1,2,0:0:0:0:
353,6,187744,1,2,0:0:0:0:
449,167,187941,1,8,0:0:0:0:
203,105,188139,1,0,0:0:0:0:
353,6,188336,6,0,B|347:99,1,93.5000028533936,4|0,0:0|0:0,0:0:0:0:
119,217,188731,2,0,L|130:124,1,93.5000028533936,8|0,0:0|0:0,0:0:0:0:
314,257,189126,2,0,B|308:350,1,93.5000028533936,6|0,0:0|0:0,0:0:0:0:
509,320,189520,2,0,L|498:227,1,93.5000028533936,12|0,0:0|0:0,0:0:0:0:
314,257,189915,6,0,L|210:249,1,93.5000028533936,2|0,0:0|0:0,0:0:0:0:
400,142,190310,2,0,L|393:236,1,93.5000028533936,8|0,0:0|0:0,0:0:0:0:
209,180,190705,2,0,L|200:116,3,46.7500014266968,2|0|0|0,0:0|0:0|0:0|0:0,0:0:0:0:
238,70,191099,1,8,0:0:0:0:
391,63,191297,1,0,0:0:0:0:
475,258,191494,6,0,P|429:261|392:234,1,93.5000028533936,2|0,0:0|0:0,0:0:0:0:
307,115,191889,1,8,0:0:0:0:
313,251,192086,1,0,0:0:0:0:
235,370,192284,2,0,P|191:354|162:318,1,93.5000028533936,2|2,0:0|0:0,0:0:0:0:
81,210,192678,2,0,L|76:303,1,93.5000028533936,8|0,0:0|0:0,0:0:0:0:
239,286,193073,5,2,0:0:0:0:
386,202,193270,1,2,0:0:0:0:
152,145,193468,2,0,L|160:238,1,93.5000028533936,8|0,0:0|0:0,0:0:0:0:
320,344,193863,5,2,0:0:0:0:
456,167,194060,1,2,0:0:0:0:
259,61,194257,1,2,0:0:0:0:
162,318,194455,1,4,0:0:0:0:
57,93,197612,5,0,0:0:0:0:
57,93,197711,1,0,0:0:0:0:
57,93,197810,2,0,P|88:93|141:70,1,63.7500024318696
183,43,198204,1,0,0:0:0:0:
256,22,198402,2,0,P|286:29|315:43,1,63.7500024318696
367,99,198797,1,0,0:0:0:0:
426,51,198994,1,0,0:0:0:0:
497,122,199191,1,0,0:0:0:0:
497,122,199290,1,0,0:0:0:0:
497,122,199389,6,0,P|499:161|489:202,1,63.7500024318696
481,260,199783,1,0,0:0:0:0:
409,330,199981,2,0,P|377:333|350:318,1,63.7500024318696
289,271,200376,1,0,0:0:0:0:
214,285,200573,1,0,0:0:0:0:
157,233,200770,1,0,0:0:0:0:
53,308,200968,6,0,P|34:281|28:250,1,63.7500024318696
36,174,201362,1,0,0:0:0:0:
78,109,201560,2,0,P|110:112|142:107,1,63.7500024318696
212,78,201954,1,0,0:0:0:0:
269,27,202152,1,0,0:0:0:0:
195,6,202349,1,0,0:0:0:0:
284,99,202547,5,4,0:0:0:0:
284,99,202941,2,0,L|384:89,1,85,4|0,0:0|0:0,0:0:0:0:
228,285,203336,2,0,L|128:295,1,85,4|0,0:0|0:0,0:0:0:0:
351,171,203731,2,0,L|451:161,1,85,4|0,0:0|0:0,0:0:0:0:
457,338,204126,6,0,P|415:332|378:311,1,85,4|0,0:0|0:0,0:0:0:0:
309,243,204520,1,8,0:0:0:0:
243,182,204718,1,4,0:0:0:0:
243,182,205112,2,0,P|223:146|189:120,1,85,0|8,0:0|0:0,0:0:0:0:
58,88,205507,1,4,0:0:0:0:
58,88,205902,2,0,P|92:61|133:52,1,85,0|8,0:0|0:0,0:0:0:0:
269,85,206296,1,4,0:0:0:0:
269,85,206691,1,2,0:0:0:0:
333,158,206889,1,2,0:0:0:0:
241,182,207086,1,2,0:0:0:0:
371,68,207283,6,0,L|467:55,1,85,4|0,0:0|0:0,0:0:0:0:
468,158,207678,1,8,0:0:0:0:
395,230,207876,1,0,0:0:0:0:
408,330,208073,1,0,0:0:0:0:
262,261,208270,2,0,P|241:223|240:181,1,85,0|8,0:0|0:0,0:0:0:0:
331,292,208665,2,0,B|323:336|323:336|289:358,1,85,4|0,0:0|0:0,0:0:0:0:
169,364,209060,5,8,0:0:0:0:
169,364,209159,1,0,0:0:0:0:
169,364,209257,2,0,L|84:357,1,85,8|0,0:0|0:0,0:0:0:0:
123,187,209652,2,0,P|142:224|140:272,1,85,8|0,0:0|0:0,0:0:0:0:
50,251,210047,2,0,L|25:208,3,42.5,8|0|0|0,0:0|0:0|0:0|0:0,0:0:0:0:
17,137,210441,6,0,P|38:96|75:69,1,93.5000028533936,4|0,0:0|0:0,0:0:0:0:
207,100,210835,1,8,0:0:0:0:
303,155,211033,2,0,P|328:115|329:69,1,93.5000028533936
227,22,211428,1,0,0:0:0:0:
129,100,211625,1,8,0:0:0:0:
211,207,211822,1,0,0:0:0:0:
394,144,212020,6,0,P|433:142|492:164,1,93.5000028533936,0|0,0:0|0:0,0:0:0:0:
423,253,212414,1,8,0:0:0:0:
303,155,212612,2,0,P|286:111|290:65,1,93.5000028533936
398,33,213007,1,0,0:0:0:0:
501,76,213204,1,8,0:0:0:0:
394,144,213401,1,0,0:0:0:0:
236,111,213599,6,0,P|190:98|155:68,1,93.5000028533936
226,25,213993,1,8,0:0:0:0:
82,177,214191,2,0,P|57:146|44:79,1,93.5000028533936
85,14,214585,1,0,0:0:0:0:
168,176,214783,1,8,0:0:0:0:
6,235,214980,1,0,0:0:0:0:
158,276,215178,5,4,0:0:0:0:
158,275,215572,2,0,P|148:321|153:367,1,93.5000028533936,4|0,0:0|0:0,0:0:0:0:
358,367,215968,2,0,P|363:321|353:275,1,93.5000028533936,4|0,0:0|0:0,0:0:0:0:
158,275,216362,2,0,P|115:281|57:264,1,93.5000028533936,4|0,0:0|0:0,0:0:0:0:
197,64,216757,6,0,P|222:102|228:148,1,93.5000028533936,4|0,0:0|0:0,0:0:0:0:
136,141,217151,1,8,0:0:0:0:
300,84,217349,1,4,0:0:0:0:
300,84,217743,2,0,L|409:72,1,93.5000028533936,0|8,0:0|0:0,0:0:0:0:
448,266,218139,1,4,0:0:0:0:
448,266,218533,2,0,L|339:278,1,93.5000028533936,0|8,0:0|0:0,0:0:0:0:
156,276,218928,1,4,0:0:0:0:
156,276,219322,2,0,L|64:266,1,93.5000028533936,8|8,0:0|0:0,0:0:0:0:
17,160,219717,1,0,0:0:0:0:
136,24,219915,5,4,0:0:0:0:
236,251,220310,1,8,0:0:0:0:
382,41,220704,1,0,0:0:0:0:
426,147,220902,1,0,0:0:0:0:
501,51,221099,1,8,0:0:0:0:
410,237,221297,6,0,P|326:274|237:252,1,187.000005706787,4|0,0:0|0:0,0:0:0:0:
200,67,221889,2,0,P|229:42|297:26,1,93.5000028533936,8|0,0:0|0:0,0:0:0:0:
349,131,222283,2,0,P|352:169|340:200,3,46.7500014266968,8|0|0|0,0:0|0:0|0:0|0:0,0:0:0:0:
279,158,222678,2,0,P|260:173|238:181,3,46.7500014266968
256,192,223073,12,2,224652,0:0:0:0:
145,76,225047,5,8,0:0:0:0:
145,76,225145,1,0,0:0:0:0:
145,76,225244,2,0,L|132:126,1,42.5
119,203,225441,2,0,L|181:194,3,42.5,8|0|0|0,0:0|0:0|0:0|0:0,0:0:0:0:
209,133,225836,2,0,L|273:126,1,42.5,8|0,0:0|0:0,0:0:0:0:
242,213,226034,2,0,L|244:263,1,42.5,8|0,0:0|0:0,0:0:0:0:
291,349,226231,5,4,0:0:0:0:
179,322,226428,1,0,0:0:0:0:
319,228,226626,1,8,0:0:0:0:
209,133,226823,2,0,P|216:91|242:58,1,85
392,20,227218,1,4,0:0:0:0:
493,152,227415,1,2,0:0:0:0:
349,153,227613,1,8,0:0:0:0:
349,153,227711,1,8,0:0:0:0:
349,153,227810,5,8,0:0:0:0:
421,252,228007,1,0,0:0:0:0:
493,152,228205,1,8,0:0:0:0:
357,30,228402,2,0,P|318:15|276:12,1,85,2|0,0:0|0:0,0:0:0:0:
158,97,228797,2,0,P|128:100|94:89,1,42.5,8|0,0:0|0:0,0:0:0:0:
51,62,228994,2,0,L|44:20,3,42.5,2|0|0|0,0:0|0:0|0:0|0:0,0:0:0:0:
118,27,229389,5,4,0:0:0:0:
41,139,229586,1,0,0:0:0:0:
134,238,229784,1,8,0:0:0:0:
311,183,229981,2,0,P|312:140|295:101,1,85
194,9,230376,5,4,0:0:0:0:
206,261,230573,1,2,0:0:0:0:
341,320,230770,1,8,0:0:0:0:
341,320,230869,1,8,0:0:0:0:
341,320,230968,5,8,0:0:0:0:
483,294,231165,1,0,0:0:0:0:
487,149,231363,1,8,0:0:0:0:
311,183,231560,2,0,P|304:141|315:100,1,85,0|2,0:0|0:0,0:0:0:0:
441,28,231955,1,2,0:0:0:0:
463,217,232152,2,0,P|420:225|365:190,1,85,8|0,0:0|0:0,0:0:0:0:
228,115,232547,5,4,0:0:0:0:
101,30,232744,1,2,0:0:0:0:
92,182,232941,1,8,0:0:0:0:
237,98,233139,2,0,L|247:-12,1,85,2|0,0:0|0:0,0:0:0:0:
145,108,233534,5,4,0:0:0:0:
367,108,233731,1,2,0:0:0:0:
374,264,233928,1,8,0:0:0:0:
374,264,234027,1,8,0:0:0:0:
374,264,234126,6,0,P|341:285|281:286,1,85,8|2,0:0|0:0,0:0:0:0:
137,259,234520,1,8,0:0:0:0:
60,115,234718,2,0,L|144:108,1,85,8|0,0:0|0:0,0:0:0:0:
451,115,235113,2,0,L|366:108,1,85,4|0,0:0|0:0,0:0:0:0:
256,192,235705,12,0,244389,0:0:0:0:
