osu file format v14

[General]
AudioFilename: op full ver.mp3
AudioLeadIn: 0
PreviewTime: 52349
Countdown: 0
SampleSet: Soft
StackLeniency: 0.7
Mode: 0
LetterboxInBreaks: 0
WidescreenStoryboard: 0

[Editor]
Bookmarks: 442,13073,25507,38731,52547,65178,77810,87284,99718,112941,126757,139389,152020,155178,197810,210441,223073,226231,235705
DistanceSpacing: 1.1
BeatDivisor: 2
GridSize: 8
TimelineZoom: 1.2

[Metadata]
Title:oath sign
TitleUnicode:oath sign
Artist:LiSA
ArtistUnicode:LiSA
Creator:smallboat
Version:Hard
Source:Fate/Zero
Tags:フェイト opening type moon ufotable aniplex 2011 2012 anime visual novel game comic movie card saber archer seven master servant sword fire ghost magic gate four holy cup survive battle break fantasy legend Takeuchi Takashi Urobuchi Gen
BeatmapID:1126461
BeatmapSetID:531561

[Difficulty]
HPDrainRate:5.5
CircleSize:4
OverallDifficulty:6.5
ApproachRate:7.3
SliderMultiplier:1.4
SliderTickRate:1

[Events]
//Background and Video events
0,0,"bg3.jpg",0,0
Video,0,"amv.flv"
//Break Periods
2,84326,86430
2,194655,196759
//Storyboard Layer 0 (Background)
//Storyboard Layer 1 (Fail)
//Storyboard Layer 2 (Pass)
//Storyboard Layer 3 (Foreground)
//Storyboard Sound Samples

[TimingPoints]
442,394.736842105263,4,2,4,30,1,0
442,-125,4,2,4,30,0,0
12481,-125,4,2,4,10,0,0
13073,-100,4,2,4,40,0,0
13270,-100,4,2,1,55,0,0
25507,-100,4,2,3,45,0,0
25705,-100,4,2,1,80,0,0
31823,-100,4,2,3,35,0,0
32020,-100,4,2,1,80,0,0
36560,-100,4,2,2,70,0,0
36757,-100,4,2,1,80,0,0
38336,-100,4,2,1,40,0,0
38731,-125,4,2,1,55,0,0
44652,-100,4,2,2,70,0,0
44849,-100,4,2,1,70,0,0
47810,-100,4,2,1,75,0,0
48402,-100,4,2,2,60,0,0
48599,-100,4,2,1,75,0,0
49191,-100,4,2,2,60,0,0
49389,-100,4,2,1,75,0,0
50770,-100,4,2,2,75,0,0
50968,-100,4,2,1,75,0,0
51165,-100,4,2,1,85,0,0
52349,-100,4,2,1,70,0,0
52547,-90.9090909090909,4,2,2,95,0,1
61428,-90.9090909090909,4,2,1,95,0,1
62020,-90.9090909090909,4,2,2,95,0,1
65178,-90.9090909090909,4,2,2,95,0,1
77810,-100,4,2,1,40,0,0
79389,-100,4,2,1,50,0,0
79784,-100,4,2,1,45,0,0
80968,-100,4,2,1,70,0,1
81955,-100,4,2,5,40,0,1
82547,-100,4,2,1,75,0,1
83534,-100,4,2,1,35,0,1
84126,-100,4,2,1,50,0,0
87284,-100,4,2,8,20,0,0
87481,-100,4,2,8,50,0,0
93600,-100,4,2,8,65,0,0
99718,-100,4,2,3,45,0,0
99915,-100,4,2,1,80,0,0
106034,-100,4,2,3,30,0,0
106231,-100,4,2,1,80,0,0
110770,-100,4,2,2,70,0,0
110968,-100,4,2,1,80,0,0
112547,-100,4,2,1,40,0,0
112941,-125,4,2,1,55,0,0
118863,-100,4,2,2,70,0,0
119060,-100,4,2,1,70,0,0
122020,-100,4,2,1,75,0,0
122613,-100,4,2,2,60,0,0
122810,-100,4,2,1,75,0,0
123402,-100,4,2,2,60,0,0
123599,-100,4,2,1,75,0,0
124981,-100,4,2,2,75,0,0
125178,-100,4,2,1,75,0,0
125376,-100,4,2,1,85,0,0
126560,-100,4,2,1,70,0,0
126757,-90.9090909090909,4,2,2,95,0,1
135639,-90.9090909090909,4,2,1,95,0,1
136231,-90.9090909090909,4,2,2,95,0,1
139389,-90.9090909090909,4,2,2,95,0,1
152020,-100,4,2,1,60,0,0
153599,-100,4,2,1,50,0,0
153994,-100,4,2,1,45,0,0
155178,-100,4,2,1,40,0,0
156560,-100,4,2,4,60,0,0
156757,-100,4,2,1,60,0,0
158928,-100,4,2,1,35,0,0
159718,-100,4,2,2,70,0,0
159915,-100,4,2,1,70,0,0
161494,-133.333333333333,4,2,4,65,0,0
161691,-133.333333333333,4,2,1,55,0,0
164652,-100,4,2,4,75,0,0
164849,-100,4,2,1,75,0,0
169784,-100,4,2,1,80,0,0
170968,-100,4,2,4,75,0,0
171165,-100,4,2,1,85,0,0
175705,-100,4,2,2,70,0,0
175902,-100,4,2,1,90,0,0
176494,-100,4,2,2,80,0,0
176691,-100,4,2,1,90,0,0
177284,-100,4,2,4,60,0,0
177481,-100,4,2,1,90,0,0
180441,-100,4,2,2,70,0,0
180639,-100,4,2,1,90,0,0
181823,-100,4,2,2,60,0,0
182020,-100,4,2,1,90,0,0
183599,-90.9090909090909,4,2,4,100,0,1
183797,-90.9090909090909,4,2,1,100,0,1
186757,-90.9090909090909,4,2,2,80,0,1
186955,-90.9090909090909,4,2,1,100,0,1
188336,-90.9090909090909,4,2,2,80,0,1
188534,-90.9090909090909,4,2,1,100,0,1
189126,-90.9090909090909,4,2,6,80,0,1
189323,-90.9090909090909,4,2,1,100,0,1
189520,-90.9090909090909,4,2,6,80,0,1
189718,-90.9090909090909,4,2,1,100,0,1
194455,-100,4,2,1,45,0,0
197810,-133.333333333333,4,2,1,40,0,0
202547,-100,4,2,2,70,0,0
204126,-100,4,2,2,85,0,0
206691,-100,4,2,1,85,0,0
207284,-100,4,2,2,85,0,0
210441,-90.9090909090909,4,2,2,95,0,1
216757,-90.9090909090909,4,2,2,95,0,1
223073,-100,4,2,1,70,0,0
224652,-100,4,2,1,50,0,0
225047,-100,4,2,1,80,0,0
226231,-100,4,2,2,85,0,0
226428,-100,4,2,1,85,0,0
227218,-100,4,2,2,75,0,0
227415,-100,4,2,1,85,0,0
229389,-100,4,2,2,70,0,0
229586,-100,4,2,1,70,0,0
230376,-100,4,2,2,70,0,0
230573,-100,4,2,1,70,0,0
232547,-100,4,2,2,70,0,0
232744,-100,4,2,1,70,0,0
233534,-100,4,2,2,70,0,0
233731,-100,4,2,1,70,0,0
235113,-100,4,2,1,45,0,0
235705,-100,4,2,1,5,0,0

[Colours]
Combo1 : 181,0,181
Combo2 : 253,253,0
Combo3 : 0,101,223
Combo4 : 0,230,0
Combo5 : 187,0,0

[HitObjects]
216,243,442,5,0,0:0:0:0:
303,173,836,2,0,P|314:106|293:68,1,112
175,19,1626,1,0,0:0:0:0:
69,51,2020,1,0,0:0:0:0:
35,155,2415,1,0,0:0:0:0:
104,240,2810,1,0,0:0:0:0:
104,240,3599,5,0,0:0:0:0:
147,139,3994,1,0,0:0:0:0:
35,155,4389,1,0,0:0:0:0:
104,240,4784,1,0,0:0:0:0:
212,230,5178,2,0,P|204:285|169:328,1,112
343,328,5968,2,0,P|308:286|302:216,1,112
256,101,6757,5,0,0:0:0:0:
365,139,7152,1,0,0:0:0:0:
398,237,7547,1,0,0:0:0:0:
477,155,7941,1,0,0:0:0:0:
437,50,8336,2,0,P|358:31|312:41,1,112
189,48,9126,2,0,L|117:43,1,56
99,87,9520,1,0,0:0:0:0:
106,142,9718,1,0,0:0:0:0:
256,192,9915,12,0,12481,0:0:0:0:
201,342,13073,5,4,0:0:0:0:
62,378,13468,1,2,0:0:0:0:
12,329,13665,2,0,P|5:294|8:259,1,70,0|2,0:0|0:0,0:0:0:0:
23,191,14060,2,0,P|76:203|163:171,1,140
227,173,14652,5,2,0:0:0:0:
227,173,15047,1,2,0:0:0:0:
289,142,15244,2,0,L|281:64,1,70,0|2,0:0|0:0,0:0:0:0:
334,26,15639,2,0,P|384:7|478:37,1,140
504,85,16231,5,2,0:0:0:0:
509,224,16626,1,2,0:0:0:0:
485,289,16823,1,0,0:0:0:0:
476,359,17020,2,0,L|400:348,1,70,2|0,0:0|0:0,0:0:0:0:
362,290,17415,1,2,0:0:0:0:
300,326,17613,1,0,0:0:0:0:
239,289,17810,2,0,L|160:291,1,70,2|0,0:0|0:0,0:0:0:0:
209,218,18205,1,2,0:0:0:0:
277,226,18402,2,0,P|332:184|348:117,1,140,2|2,0:0|0:0,0:0:0:0:
249,23,19191,1,2,0:0:0:0:
249,23,19290,1,2,0:0:0:0:
249,23,19389,6,0,P|212:23|172:15,1,70
109,11,19784,1,2,0:0:0:0:
109,11,19981,2,0,L|32:47,1,70,0|2,0:0|0:0,0:0:0:0:
12,102,20376,2,0,P|28:169|88:222,1,140
151,223,20968,1,2,0:0:0:0:
151,223,21363,1,2,0:0:0:0:
205,178,21560,2,0,P|233:157|268:154,1,70,0|2,0:0|0:0,0:0:0:0:
312,207,21955,2,0,P|364:214|429:144,1,140
445,87,22547,5,2,0:0:0:0:
322,13,22941,1,2,0:0:0:0:
253,33,23139,1,0,0:0:0:0:
218,93,23336,2,0,P|191:98|145:92,1,70,2|0,0:0|0:0,0:0:0:0:
38,34,23731,2,0,P|64:28|110:35,1,70,2|0,0:0|0:0,0:0:0:0:
78,105,24126,1,0,0:0:0:0:
33,161,24323,1,0,0:0:0:0:
42,231,24520,2,0,L|21:369,1,140
187,332,25310,1,10,0:0:0:0:
244,371,25507,6,0,P|299:369|378:322,1,140,4|0,0:0|0:0,0:0:0:0:
422,279,26099,1,8,0:0:0:0:
470,329,26297,2,0,P|491:264|441:210,1,140,0|2,0:0|0:0,0:0:0:0:
380,220,26889,1,8,0:0:0:0:
330,268,27086,2,0,P|310:217|369:150,1,140
426,147,27678,1,8,0:0:0:0:
473,95,27876,2,0,P|488:72|493:25,1,70,0|2,0:0|0:0,0:0:0:0:
423,41,28270,1,2,0:0:0:0:
423,41,28468,1,8,0:0:0:0:
324,93,28665,6,0,P|266:104|195:46,1,140
153,9,29257,1,8,0:0:0:0:
86,30,29455,2,0,P|41:61|18:143,1,140,0|2,0:0|0:0,0:0:0:0:
23,209,30047,1,8,0:0:0:0:
9,276,30244,2,0,P|75:298|137:271,1,140
169,208,30836,1,8,0:0:0:0:
151,139,31034,1,0,0:0:0:0:
208,98,31231,2,0,B|291:90,1,70,0|2,0:0|0:0,0:0:0:0:
316,149,31626,1,8,0:0:0:0:
379,276,31823,6,0,P|434:279|495:220,1,140,4|0,0:0|0:0,0:0:0:0:
498,154,32415,1,8,0:0:0:0:
478,86,32613,2,0,P|426:98|359:50,1,140,0|2,0:0|0:0,0:0:0:0:
302,8,33205,1,8,0:0:0:0:
240,45,33402,6,0,P|172:60|107:37,1,140
40,17,33994,1,8,0:0:0:0:
19,152,34191,2,0,P|74:166|154:131,1,140,0|2,0:0|0:0,0:0:0:0:
218,126,34784,1,8,0:0:0:0:
255,185,34981,6,0,P|310:191|396:156,1,140
444,75,35573,1,8,0:0:0:0:
469,180,35770,1,0,0:0:0:0:
469,180,35869,1,0,0:0:0:0:
469,180,35968,2,0,L|476:261,1,70,2|2,0:0|0:0,0:0:0:0:
512,110,36363,1,8,0:0:0:0:
371,92,36560,6,0,P|317:94|250:39,1,140,4|2,0:0|0:0,0:0:0:0:
335,12,37152,1,8,0:0:0:0:
184,69,37349,2,0,L|111:77,1,70,2|0,0:0|0:0,0:0:0:0:
44,66,37744,1,2,0:0:0:0:
147,146,37941,2,0,L|156:285,1,140,2|4,0:0|0:0,0:0:0:0:
320,360,38731,6,0,P|347:365|385:343,1,56
429,306,39126,1,0,0:0:0:0:
429,306,39520,2,0,L|417:235,1,56
466,194,39915,1,2,0:0:0:0:
487,124,40113,2,0,P|484:96|454:57,1,56
401,92,40507,1,0,0:0:0:0:
351,147,40705,2,0,P|283:136|243:85,1,112
227,39,41297,1,0,0:0:0:0:
155,24,41494,5,2,0:0:0:0:
155,24,41889,2,0,P|128:30|87:22,1,56
11,105,42284,2,0,P|38:108|65:102,1,56
133,129,42678,1,0,0:0:0:0:
103,196,42876,2,0,P|75:199|48:193,1,56,0|2,0:0|0:0,0:0:0:0:
199,159,43270,2,0,P|205:131|201:104,1,56
172,229,43665,1,0,0:0:0:0:
191,299,43863,2,0,P|256:323|315:306,1,112
463,216,44652,5,4,0:0:0:0:
491,137,44849,2,0,L|495:67,1,70
400,9,45244,2,0,L|395:78,1,70
292,144,45639,2,0,L|293:75,1,70
313,227,46034,2,0,P|245:217|207:161,1,140
216,78,46626,1,0,0:0:0:0:
132,163,46823,2,0,P|78:172|10:123,1,140
88,92,47415,1,8,0:0:0:0:
38,268,47613,1,8,0:0:0:0:
38,268,47711,1,8,0:0:0:0:
38,268,47810,6,0,P|106:278|172:258,1,140,8|8,0:0|0:0,0:0:0:0:
339,258,48402,2,0,P|405:278|473:268,1,140,4|0,0:0|0:0,0:0:0:0:
364,178,48994,1,8,0:0:0:0:
261,251,49191,2,0,P|240:184|251:116,1,140,4|0,0:0|0:0,0:0:0:0:
333,28,49784,5,8,0:0:0:0:
406,56,49981,1,0,0:0:0:0:
479,32,50178,2,0,B|505:90|505:90|483:178,1,140,0|8,0:0|0:0,0:0:0:0:
365,177,50770,2,0,P|295:180|236:145,1,140,4|8,0:0|0:0,0:0:0:0:
216,70,51363,1,8,0:0:0:0:
216,70,51560,1,8,0:0:0:0:
216,70,51757,2,0,L|211:-4,1,70,8|0,0:0|0:0,0:0:0:0:
170,129,52152,2,0,L|95:136,1,70,8|0,0:0|0:0,0:0:0:0:
44,284,52547,6,0,L|152:270,1,77.0000023498536,4|0,0:0|0:0,0:0:0:0:
170,341,52941,1,8,0:0:0:0:
252,321,53139,2,0,P|279:242|226:176,1,154.000004699707
170,129,53731,1,8,0:0:0:0:
122,212,53928,1,0,0:0:0:0:
122,212,54027,1,0,0:0:0:0:
122,212,54126,6,0,P|83:214|47:201,1,77.0000023498536
15,118,54520,1,8,0:0:0:0:
42,31,54718,2,0,P|116:15|186:43,1,154.000004699707
242,116,55310,1,8,0:0:0:0:
314,59,55507,1,0,0:0:0:0:
412,156,55705,6,0,P|451:159|486:145,1,77.0000023498536
438,75,56099,1,8,0:0:0:0:
353,202,56297,2,0,P|314:204|279:190,1,77.0000023498536
242,116,56691,1,0,0:0:0:0:
159,71,56889,2,0,L|153:152,1,77.0000023498536,8|0,0:0|0:0,0:0:0:0:
81,247,57284,5,4,0:0:0:0:
258,338,57678,1,4,0:0:0:0:
435,247,58073,1,4,0:0:0:0:
335,73,58468,1,4,0:0:0:0:
215,217,58863,6,0,P|162:207|120:172,1,77.0000023498536,4|0,0:0|0:0,0:0:0:0:
81,116,59257,1,8,0:0:0:0:
24,32,59455,1,4,0:0:0:0:
24,32,59849,1,0,0:0:0:0:
81,116,60047,2,0,L|70:192,1,77.0000023498536,8|4,0:0|0:0,0:0:0:0:
148,377,60639,1,0,0:0:0:0:
204,293,60836,2,0,L|214:216,1,77.0000023498536,8|4,0:0|0:0,0:0:0:0:
135,32,61428,1,2,0:0:0:0:
81,116,61626,2,0,L|71:193,1,77.0000023498536,2|2,0:0|0:0,0:0:0:0:
33,303,62020,6,0,L|108:287,1,77.0000023498536,4|0,0:0|0:0,0:0:0:0:
144,210,62415,2,0,L|154:133,1,77.0000023498536,8|0,0:0|0:0,0:0:0:0:
214,73,62810,1,0,0:0:0:0:
318,135,63007,2,0,P|356:142|392:129,1,77.0000023498536,0|8,0:0|0:0,0:0:0:0:
469,80,63402,1,4,0:0:0:0:
469,80,63797,5,8,0:0:0:0:
483,163,63994,2,0,L|503:265,1,77.0000023498536,8|0,0:0|0:0,0:0:0:0:
462,317,64389,2,0,P|389:337|322:301,1,154.000004699707,8|0,0:0|0:0,0:0:0:0:
404,234,64981,1,0,0:0:0:0:
322,301,65178,6,0,P|285:289|254:266,1,77.0000023498536,4|0,0:0|0:0,0:0:0:0:
199,212,65572,1,8,0:0:0:0:
137,264,65770,2,0,P|122:228|122:190,1,77.0000023498536
128,106,66165,1,0,0:0:0:0:
206,138,66362,2,0,P|212:100|199:63,1,77.0000023498536,8|0,0:0|0:0,0:0:0:0:
131,28,66757,5,4,0:0:0:0:
200,65,66955,2,0,P|239:66|292:44,1,77.0000023498536,0|8,0:0|0:0,0:0:0:0:
344,29,67349,2,0,P|420:10|504:60,1,154.000004699707
499,116,67941,1,8,0:0:0:0:
479,190,68139,1,0,0:0:0:0:
499,264,68336,6,0,P|511:300|512:338,1,77.0000023498536,4|0,0:0|0:0,0:0:0:0:
438,317,68730,1,8,0:0:0:0:
366,344,68928,2,0,P|293:360|234:314,1,154.000004699707
308,201,69520,2,0,P|314:238|313:277,1,77.0000023498536,8|0,0:0|0:0,0:0:0:0:
193,246,69915,5,4,0:0:0:0:
358,134,70309,1,4,0:0:0:0:
158,134,70705,1,4,0:0:0:0:
332,36,71099,1,4,0:0:0:0:
158,134,71494,6,0,P|120:141|82:136,1,77.0000023498536,4|0,0:0|0:0,0:0:0:0:
116,61,71889,1,8,0:0:0:0:
116,61,72086,1,4,0:0:0:0:
229,185,72481,1,0,0:0:0:0:
229,185,72678,2,0,L|240:102,1,77.0000023498536,8|4,0:0|0:0,0:0:0:0:
119,229,73270,1,0,0:0:0:0:
119,229,73468,2,0,L|22:222,1,77.0000023498536,8|4,0:0|0:0,0:0:0:0:
199,286,74060,1,8,0:0:0:0:
199,286,74257,2,0,L|290:291,1,77.0000023498536,8|0,0:0|0:0,0:0:0:0:
401,353,74652,5,4,0:0:0:0:
497,195,75047,1,8,0:0:0:0:
351,83,75441,1,0,0:0:0:0:
351,83,75836,1,8,0:0:0:0:
225,179,76034,2,0,P|159:214|85:198,1,154.000004699707,4|0,0:0|0:0,0:0:0:0:
72,86,76626,2,0,P|101:61|143:50,1,77.0000023498536,8|0,0:0|0:0,0:0:0:0:
292,144,77020,2,0,P|262:168|221:180,1,77.0000023498536,8|0,0:0|0:0,0:0:0:0:
196,101,77415,1,2,0:0:0:0:
256,192,77810,12,0,79389,0:0:0:0:
115,150,79784,5,8,0:0:0:0:
257,29,80178,1,8,0:0:0:0:
397,150,80573,2,0,L|409:218,1,70,8|0,0:0|0:0,0:0:0:0:
500,223,80968,5,4,0:0:0:0:
438,289,81165,2,0,P|401:296|362:275,1,70,0|8,0:0|0:0,0:0:0:0:
298,234,81560,1,8,0:0:0:0:
298,234,81955,2,0,P|231:220|192:164,1,140,4|0,0:0|0:0,0:0:0:0:
164,77,82547,5,0,0:0:0:0:
246,103,82744,2,0,P|280:114|314:109,1,70,0|8,0:0|0:0,0:0:0:0:
390,59,83139,1,8,0:0:0:0:
390,59,83534,2,0,P|403:126|372:187,1,140,4|0,0:0|0:0,0:0:0:0:
298,234,84126,5,4,0:0:0:0:
227,262,87284,5,4,0:0:0:0:
347,333,87679,1,2,0:0:0:0:
413,353,87876,2,0,P|441:332|463:304,1,70,0|2,0:0|0:0,0:0:0:0:
478,236,88271,2,0,P|425:224|338:256,1,140,0|8,0:0|0:0,0:0:0:0:
267,325,88863,5,8,0:0:0:0:
267,325,89258,1,2,0:0:0:0:
227,268,89455,2,0,L|219:190,1,70,0|2,0:0|0:0,0:0:0:0:
238,130,89850,2,0,P|288:111|377:128,1,140
498,162,90442,5,8,0:0:0:0:
421,23,90837,1,2,0:0:0:0:
352,39,91034,1,0,0:0:0:0:
283,25,91231,2,0,L|207:14,1,70,2|0,0:0|0:0,0:0:0:0:
144,27,91626,1,0,0:0:0:0:
171,91,91824,1,8,0:0:0:0:
91,161,92021,6,0,L|12:163,1,70,8|0,0:0|0:0,0:0:0:0:
5,234,92416,1,2,0:0:0:0:
30,298,92613,2,0,P|94:319|181:282,1,140
220,260,93205,1,0,0:0:0:0:
220,260,93600,6,0,P|220:223|212:183,1,70,8|0,0:0|0:0,0:0:0:0:
143,231,93995,1,8,0:0:0:0:
143,231,94192,2,0,L|53:228,1,70,0|8,0:0|0:0,0:0:0:0:
38,167,94587,2,0,P|46:105|106:52,1,140
169,46,95179,1,8,0:0:0:0:
169,46,95574,1,8,0:0:0:0:
236,64,95771,2,0,P|256:91|260:126,1,70,0|8,0:0|0:0,0:0:0:0:
308,177,96166,2,0,P|349:153|345:65,1,140
308,14,96758,5,8,0:0:0:0:
308,14,97152,1,8,0:0:0:0:
349,70,97350,1,0,0:0:0:0:
414,46,97547,2,0,P|441:51|487:45,1,70,8|0,0:0|0:0,0:0:0:0:
499,114,97942,2,0,P|505:140|498:186,1,70,8|0,0:0|0:0,0:0:0:0:
477,249,98337,1,0,0:0:0:0:
440,308,98534,1,0,0:0:0:0:
390,357,98731,2,0,L|238:340,1,140
150,251,99521,1,0,0:0:0:0:
254,267,99718,6,0,P|246:200|193:156,1,140,4|0,0:0|0:0,0:0:0:0:
123,149,100310,1,8,0:0:0:0:
193,156,100508,2,0,P|214:91|164:37,1,140,0|2,0:0|0:0,0:0:0:0:
105,15,101100,1,8,0:0:0:0:
172,39,101297,2,0,P|222:83|286:65,1,140
351,38,101889,1,8,0:0:0:0:
420,26,102087,2,0,P|454:27|485:43,1,70,0|2,0:0|0:0,0:0:0:0:
499,111,102481,1,2,0:0:0:0:
499,111,102678,1,8,0:0:0:0:
468,231,102876,6,0,P|410:242|339:184,1,140
312,137,103468,1,8,0:0:0:0:
242,131,103666,2,0,P|174:116|132:62,1,140,0|2,0:0|0:0,0:0:0:0:
78,17,104258,1,8,0:0:0:0:
23,61,104455,2,0,P|-3:123|18:188,1,140
47,252,105047,1,8,0:0:0:0:
114,269,105245,1,0,0:0:0:0:
171,229,105442,2,0,B|254:221,1,70,2|0,0:0|0:0,0:0:0:0:
300,185,105837,1,8,0:0:0:0:
228,320,106034,6,0,P|173:323|112:264,1,140,4|0,0:0|0:0,0:0:0:0:
100,199,106626,1,8,0:0:0:0:
99,128,106824,2,0,P|148:78|225:66,1,140,0|2,0:0|0:0,0:0:0:0:
272,105,107416,1,8,0:0:0:0:
339,123,107613,6,0,P|404:145|471:130,1,140
501,67,108205,1,8,0:0:0:0:
449,19,108402,2,0,P|386:48|319:34,1,140,0|2,0:0|0:0,0:0:0:0:
252,10,108995,1,8,0:0:0:0:
201,86,109192,6,0,P|146:92|60:57,1,140
7,117,109784,1,8,0:0:0:0:
29,195,109981,1,0,0:0:0:0:
29,195,110080,1,0,0:0:0:0:
29,195,110179,2,0,L|36:276,1,70,2|2,0:0|0:0,0:0:0:0:
15,345,110574,1,8,0:0:0:0:
103,210,110771,6,0,P|165:176|250:182,1,140,4|2,0:0|0:0,0:0:0:0:
292,212,111363,1,8,0:0:0:0:
201,86,111560,2,0,L|211:1,1,70,2|0,0:0|0:0,0:0:0:0:
138,17,111955,1,2,0:0:0:0:
278,60,112152,2,0,L|417:51,1,140,2|4,0:0|0:0,0:0:0:0:
417,50,112942,6,0,P|452:55|482:44,1,56
504,124,113337,1,0,0:0:0:0:
504,124,113731,2,0,P|471:136|439:133,1,56
378,122,114126,1,0,0:0:0:0:
316,162,114324,2,0,P|281:156|257:134,1,56
210,96,114718,1,0,0:0:0:0:
140,117,114916,2,0,P|72:106|32:53,1,112,0|2,0:0|0:0,0:0:0:0:
91,21,115508,1,0,0:0:0:0:
187,24,115705,5,0,0:0:0:0:
187,24,116100,2,0,P|214:30|260:23,1,56
369,114,116495,2,0,P|342:120|295:113,1,56
334,45,116889,1,0,0:0:0:0:
439,144,117087,2,0,P|443:109|436:77,1,56
385,189,117481,2,0,P|379:224|385:256,1,56
453,223,117876,1,0,0:0:0:0:
317,283,118074,2,0,P|250:300|189:280,1,112
81,175,118863,5,4,0:0:0:0:
36,120,119060,2,0,P|31:86|40:50,1,70
173,57,119455,2,0,P|178:91|169:127,1,70
77,243,119849,2,0,P|72:209|81:173,1,70
106,320,120245,2,0,P|36:315|-4:243,1,140
77,243,120837,1,0,0:0:0:0:
180,286,121034,2,0,P|234:295|302:246,1,140
340,190,121626,1,8,0:0:0:0:
440,156,121824,1,8,0:0:0:0:
440,156,121922,1,8,0:0:0:0:
440,156,122021,6,0,P|450:88|430:22,1,140,8|8,0:0|0:0,0:0:0:0:
339,92,122613,2,0,P|273:112|205:102,1,140,4|0,0:0|0:0,0:0:0:0:
263,5,123205,1,8,0:0:0:0:
203,101,123402,2,0,P|136:122|68:111,1,140,4|0,0:0|0:0,0:0:0:0:
31,43,123995,1,8,0:0:0:0:
68,111,124192,1,0,0:0:0:0:
14,165,124389,2,0,B|40:223|40:223|18:311,1,140,0|8,0:0|0:0,0:0:0:0:
116,365,124981,6,0,P|186:368|245:333,1,140,4|8,0:0|0:0,0:0:0:0:
264,261,125574,1,8,0:0:0:0:
329,350,125771,1,8,0:0:0:0:
264,261,125968,2,0,L|259:187,1,70,8|0,0:0|0:0,0:0:0:0:
331,162,126363,2,0,L|336:236,1,70,8|8,0:0|0:0,0:0:0:0:
474,368,126757,6,0,L|467:279,1,77.0000023498536,4|0,0:0|0:0,0:0:0:0:
381,295,127151,1,8,0:0:0:0:
457,213,127349,2,0,P|412:161|326:166,1,154.000004699707
244,197,127941,1,8,0:0:0:0:
159,159,128138,1,0,0:0:0:0:
159,159,128237,1,0,0:0:0:0:
159,159,128336,6,0,P|150:120|158:83,1,77.0000023498536,0|0,0:0|0:0,0:0:0:0:
232,28,128730,1,8,0:0:0:0:
302,90,128928,2,0,P|235:109|152:80,1,154.000004699707
89,20,129520,1,8,0:0:0:0:
15,75,129717,1,0,0:0:0:0:
36,227,129915,6,0,P|74:231|109:215,1,77.0000023498536,4|0,0:0|0:0,0:0:0:0:
61,136,130309,1,8,0:0:0:0:
159,159,130507,2,0,P|197:161|232:146,1,77.0000023498536
135,86,130901,1,0,0:0:0:0:
109,215,131099,2,0,L|103:296,1,77.0000023498536,8|0,0:0|0:0,0:0:0:0:
27,375,131494,5,4,0:0:0:0:
256,353,131888,1,4,0:0:0:0:
485,375,132283,1,4,0:0:0:0:
454,145,132678,1,4,0:0:0:0:
350,297,133073,6,0,P|311:293|277:276,1,77.0000023498536,4|0,0:0|0:0,0:0:0:0:
216,197,133467,1,8,0:0:0:0:
208,96,133665,1,4,0:0:0:0:
208,96,134059,1,0,0:0:0:0:
305,72,134257,2,0,L|294:148,1,77.0000023498536,8|4,0:0|0:0,0:0:0:0:
264,350,134849,1,0,0:0:0:0:
361,374,135047,2,0,L|350:298,1,77.0000023498536,8|4,0:0|0:0,0:0:0:0:
305,72,135639,1,2,0:0:0:0:
402,48,135837,2,0,L|391:124,1,77.0000023498536,2|2,0:0|0:0,0:0:0:0:
280,220,136230,6,0,P|263:185|263:147,1,77.0000023498536,4|0,0:0|0:0,0:0:0:0:
227,289,136626,2,0,P|202:260|192:223,1,77.0000023498536,8|0,0:0|0:0,0:0:0:0:
171,110,137020,1,0,0:0:0:0:
266,8,137217,2,0,P|293:35|305:72,1,77.0000023498536,0|8,0:0|0:0,0:0:0:0:
168,29,137612,1,4,0:0:0:0:
168,29,138007,5,8,0:0:0:0:
83,90,138204,2,0,L|97:165,1,77.0000023498536,8|0,0:0|0:0,0:0:0:0:
185,249,138599,2,0,P|205:176|169:109,1,154.000004699707,8|8,0:0|0:0,0:0:0:0:
83,90,139191,1,0,0:0:0:0:
170,109,139388,6,0,P|208:109|244:97,1,77.0000023498536,4|0,0:0|0:0,0:0:0:0:
318,56,139784,1,8,0:0:0:0:
402,68,139980,2,0,P|440:67|475:52,1,77.0000023498536
492,136,140375,1,0,0:0:0:0:
497,220,140572,2,0,P|493:258|476:292,1,77.0000023498536,8|0,0:0|0:0,0:0:0:0:
416,352,140967,5,4,0:0:0:0:
338,316,141165,2,0,P|299:314|263:326,1,77.0000023498536,0|8,0:0|0:0,0:0:0:0:
184,357,141560,2,0,P|110:377|38:353,1,154.000004699707
14,272,142151,1,8,0:0:0:0:
32,188,142349,1,0,0:0:0:0:
105,139,142546,6,0,P|117:175|118:213,1,77.0000023498536,4|0,0:0|0:0,0:0:0:0:
119,296,142940,1,8,0:0:0:0:
202,281,143139,2,0,P|247:222|231:149,1,154.000004699707
151,79,143731,2,0,P|123:105|104:138,1,77.0000023498536,8|0,0:0|0:0,0:0:0:0:
104,218,144125,5,4,0:0:0:0:
256,27,144519,1,4,0:0:0:0:
408,218,144915,1,4,0:0:0:0:
256,357,145309,1,4,0:0:0:0:
48,287,145704,6,0,P|26:255|15:218,1,77.0000023498536,4|0,0:0|0:0,0:0:0:0:
36,136,146099,1,8,0:0:0:0:
36,136,146296,1,4,0:0:0:0:
213,87,146691,1,0,0:0:0:0:
213,87,146888,2,0,L|202:163,1,77.0000023498536,8|4,0:0|0:0,0:0:0:0:
299,297,147481,1,0,0:0:0:0:
299,297,147678,2,0,L|309:220,1,77.0000023498536,8|4,0:0|0:0,0:0:0:0:
476,136,148270,1,8,0:0:0:0:
475,136,148467,2,0,P|492:101|490:63,1,77.0000023498536,8|0,0:0|0:0,0:0:0:0:
376,68,148862,5,4,0:0:0:0:
256,171,149257,1,8,0:0:0:0:
136,68,149651,1,0,0:0:0:0:
172,231,150046,1,8,0:0:0:0:
291,258,150244,2,0,P|345:189|324:115,1,154.000004699707,4|0,0:0|0:0,0:0:0:0:
178,129,150836,2,0,P|150:102|135:66,1,77.0000023498536,8|0,0:0|0:0,0:0:0:0:
334,129,151231,2,0,P|361:102|375:67,1,77.0000023498536,8|0,0:0|0:0,0:0:0:0:
256,21,151625,1,8,0:0:0:0:
256,192,152020,12,0,153599,0:0:0:0:
256,192,153994,5,8,0:0:0:0:
101,288,154389,2,0,L|66:281,3,35,8|0|0|0,0:0|0:0|0:0|0:0,0:0:0:0:
73,235,154784,2,0,L|38:228,3,35,8|0|0|0,0:0|0:0|0:0|0:0,0:0:0:0:
25,188,155178,6,0,L|32:115,1,70,4|0,0:0|0:0,0:0:0:0:
81,59,155573,1,8,0:0:0:0:
157,59,155770,1,0,0:0:0:0:
222,100,155968,2,0,P|254:101|302:90,1,70
360,60,156363,1,0,0:0:0:0:
474,126,156560,5,4,0:0:0:0:
497,278,156955,1,0,0:0:0:0:
430,328,157152,1,8,0:0:0:0:
356,286,157349,2,0,P|293:255|225:263,1,140,2|0,0:0|0:0,0:0:0:0:
149,300,157941,1,8,0:0:0:0:
149,300,158336,6,0,L|136:231,1,70,2|2,0:0|0:0,0:0:0:0:
79,179,158731,1,8,0:0:0:0:
119,113,158928,1,2,0:0:0:0:
51,74,159126,2,0,P|41:40|46:6,1,70
117,37,159520,1,8,0:0:0:0:
213,80,159718,6,0,P|248:87|282:82,1,70,4|0,0:0|0:0,0:0:0:0:
416,127,160113,2,0,P|381:133|347:128,1,70,2|8,0:0|0:0,0:0:0:0:
212,167,160507,2,0,P|246:173|280:168,1,70,2|8,0:0|0:0,0:0:0:0:
414,213,160902,2,0,P|379:219|345:214,1,70,8|0,0:0|0:0,0:0:0:0:
469,273,161297,1,0,0:0:0:0:
502,148,161494,6,0,P|492:78|455:46,1,105.000004005432,4|0,0:0|0:0,0:0:0:0:
354,26,162284,1,8,0:0:0:0:
238,29,162678,1,0,0:0:0:0:
238,29,162876,1,2,0:0:0:0:
246,141,163270,5,0,0:0:0:0:
246,141,163468,2,0,L|244:215,1,52.5000020027161,2|0,0:0|0:0,0:0:0:0:
226,248,163863,1,2,0:0:0:0:
190,293,164060,2,0,P|155:295|132:288,1,52.5000020027161,2|8,0:0|0:0,0:0:0:0:
83,272,164455,1,0,0:0:0:0:
15,167,164652,6,0,P|7:132|15:98,1,70,4|0,0:0|0:0,0:0:0:0:
75,50,165047,1,8,0:0:0:0:
151,51,165244,2,0,P|220:49|284:21,1,140
419,60,165836,2,0,P|384:64|349:59,1,70,8|0,0:0|0:0,0:0:0:0:
242,130,166231,6,0,P|276:133|311:128,1,70,2|0,0:0|0:0,0:0:0:0:
383,166,166626,1,8,0:0:0:0:
412,290,166823,2,0,P|367:320|277:304,1,140
212,284,167415,1,8,0:0:0:0:
212,284,167810,6,0,L|211:206,1,70,2|0,0:0|0:0,0:0:0:0:
166,150,168205,1,8,0:0:0:0:
166,150,168599,1,8,0:0:0:0:
242,141,168797,2,0,L|246:69,1,70
180,27,169191,6,0,P|113:11|46:28,1,140
6,95,169784,1,8,0:0:0:0:
41,163,169981,1,8,0:0:0:0:
11,233,170178,2,0,B|15:302,1,70,8|2,0:0|0:0,0:0:0:0:
132,354,170573,2,0,B|127:284,1,70,8|0,0:0|0:0,0:0:0:0:
166,150,170968,5,4,0:0:0:0:
166,150,171363,2,0,L|169:66,1,70,8|0,0:0|0:0,0:0:0:0:
233,38,171757,1,0,0:0:0:0:
303,69,171955,2,0,L|388:55,1,70,0|8,0:0|0:0,0:0:0:0:
438,19,172349,1,0,0:0:0:0:
490,75,172547,6,0,L|496:144,1,70
492,221,172941,1,8,0:0:0:0:
506,296,173139,1,0,0:0:0:0:
462,359,173336,2,0,L|367:347,1,70
332,301,173731,1,8,0:0:0:0:
332,301,174126,5,0,0:0:0:0:
388,248,174323,1,0,0:0:0:0:
313,227,174520,2,0,L|328:143,1,70,8|0,0:0|0:0,0:0:0:0:
375,99,174915,1,0,0:0:0:0:
335,32,175113,2,0,L|255:20,1,70,0|8,0:0|0:0,0:0:0:0:
190,36,175507,1,0,0:0:0:0:
156,109,175705,6,0,L|12:94,1,140,4|8,0:0|0:0,0:0:0:0:
4,170,176297,1,0,0:0:0:0:
47,233,176494,2,0,L|64:386,1,140,4|8,0:0|0:0,0:0:0:0:
138,382,177086,1,0,0:0:0:0:
278,334,177284,5,4,0:0:0:0:
278,334,177678,1,8,0:0:0:0:
348,362,177876,1,0,0:0:0:0:
410,317,178073,1,0,0:0:0:0:
480,348,178270,2,0,L|485:267,1,70,0|8,0:0|0:0,0:0:0:0:
503,197,178665,1,0,0:0:0:0:
382,233,178863,6,0,L|312:226,1,70
245,263,179257,1,8,0:0:0:0:
176,236,179455,1,0,0:0:0:0:
103,274,179652,2,0,L|99:182,1,70
24,123,180047,2,0,L|20:36,1,70,8|0,0:0|0:0,0:0:0:0:
141,19,180441,5,4,0:0:0:0:
284,74,180836,1,8,0:0:0:0:
430,25,181231,1,0,0:0:0:0:
482,81,181428,1,8,0:0:0:0:
452,152,181626,2,0,L|458:221,1,70,8|4,0:0|0:0,0:0:0:0:
397,363,182218,6,0,L|390:293,1,70,0|8,0:0|0:0,0:0:0:0:
331,243,182613,1,0,0:0:0:0:
256,261,182810,2,0,B|164:258,1,70
129,311,183205,1,0,0:0:0:0:
52,306,183402,1,0,0:0:0:0:
16,205,183599,6,0,L|16:128,1,77.0000023498536,4|0,0:0|0:0,0:0:0:0:
70,52,183994,1,8,0:0:0:0:
150,111,184191,2,0,B|187:100|215:72,1,77.0000023498536,0|2,0:0|0:0,0:0:0:0:
289,18,184586,2,0,P|325:20|381:48,1,77.0000023498536,2|8,0:0|0:0,0:0:0:0:
449,85,184981,1,0,0:0:0:0:
493,174,185178,2,0,L|502:274,1,77.0000023498536,2|0,0:0|0:0,0:0:0:0:
400,239,185573,1,8,0:0:0:0:
317,183,185770,2,0,P|280:172|242:178,1,77.0000023498536,0|2,0:0|0:0,0:0:0:0:
269,340,186165,2,0,L|276:245,1,77.0000023498536,2|8,0:0|0:0,0:0:0:0:
350,328,186560,1,0,0:0:0:0:
190,367,186757,6,0,L|197:272,1,77.0000023498536,4|0,0:0|0:0,0:0:0:0:
102,326,187152,1,8,0:0:0:0:
109,226,187349,1,0,0:0:0:0:
200,213,187547,2,0,L|195:290,1,77.0000023498536,2|2,0:0|0:0,0:0:0:0:
102,326,187941,1,8,0:0:0:0:
17,271,188139,1,0,0:0:0:0:
42,144,188336,6,0,B|39:64,1,77.0000023498536,4|0,0:0|0:0,0:0:0:0:
184,15,188731,2,0,L|177:105,1,77.0000023498536,8|0,0:0|0:0,0:0:0:0:
333,91,189126,2,0,L|328:15,1,77.0000023498536,6|0,0:0|0:0,0:0:0:0:
472,67,189520,2,0,B|470:144,1,77.0000023498536,12|0,0:0|0:0,0:0:0:0:
391,338,189915,6,0,L|384:257,1,77.0000023498536,2|0,0:0|0:0,0:0:0:0:
297,242,190310,2,0,L|220:236,1,77.0000023498536,8|0,0:0|0:0,0:0:0:0:
152,172,190705,2,0,L|142:87,1,77.0000023498536,2|0,0:0|0:0,0:0:0:0:
228,134,191099,1,8,0:0:0:0:
143,95,191297,1,0,0:0:0:0:
81,230,191494,6,0,P|137:260|224:232,1,154.000004699707,2|8,0:0|0:0,0:0:0:0:
316,160,192086,1,0,0:0:0:0:
228,133,192284,2,0,P|270:73|344:73,1,154.000004699707,2|8,0:0|0:0,0:0:0:0:
493,170,193073,5,2,0:0:0:0:
395,244,193270,1,2,0:0:0:0:
509,290,193468,1,8,0:0:0:0:
399,69,193863,5,2,0:0:0:0:
314,197,194060,1,2,0:0:0:0:
207,87,194257,1,2,0:0:0:0:
107,189,194455,1,4,0:0:0:0:
18,279,197613,6,0,L|12:313,2,35
60,219,198007,1,0,0:0:0:0:
132,233,198204,1,0,0:0:0:0:
175,169,198402,2,0,P|219:142|271:145,1,105.000004005432
337,179,198994,1,0,0:0:0:0:
410,180,199191,5,0,0:0:0:0:
410,180,199290,1,0,0:0:0:0:
410,180,199389,2,0,P|442:178|471:158,1,52.5000020027161
503,111,199783,1,0,0:0:0:0:
468,47,199981,2,0,P|422:23|371:26,1,105.000004005432
310,68,200573,1,0,0:0:0:0:
310,68,200770,1,0,0:0:0:0:
229,102,200968,6,0,L|169:92,1,52.5000020027161
107,72,201362,1,0,0:0:0:0:
62,130,201560,2,0,P|37:132|10:121,1,52.5000020027161
9,195,201954,1,0,0:0:0:0:
21,267,202152,2,0,P|26:291|44:313,1,52.5000020027161
138,374,202547,5,4,0:0:0:0:
256,260,202941,1,4,0:0:0:0:
374,374,203336,1,4,0:0:0:0:
464,223,203731,1,4,0:0:0:0:
464,223,204126,6,0,P|474:200|471:154,1,70,4|0,0:0|0:0,0:0:0:0:
447,83,204520,1,8,0:0:0:0:
388,29,204718,1,4,0:0:0:0:
388,29,205112,1,0,0:0:0:0:
314,36,205310,2,0,P|279:39|245:31,1,70,8|4,0:0|0:0,0:0:0:0:
53,87,205902,1,0,0:0:0:0:
126,94,206100,2,0,P|160:96|194:88,1,70,8|4,0:0|0:0,0:0:0:0:
383,146,206691,1,2,0:0:0:0:
310,153,206889,2,0,P|275:155|241:147,1,70,2|2,0:0|0:0,0:0:0:0:
136,172,207283,6,0,L|56:179,1,70,4|0,0:0|0:0,0:0:0:0:
128,313,207678,2,0,P|127:278|113:246,1,70,8|0,0:0|0:0,0:0:0:0:
56,300,208073,1,0,0:0:0:0:
202,330,208270,2,0,L|278:319,1,70,0|8,0:0|0:0,0:0:0:0:
392,367,208665,5,4,0:0:0:0:
472,219,209060,1,8,0:0:0:0:
472,219,209159,1,0,0:0:0:0:
472,219,209257,2,0,L|480:140,1,70,8|0,0:0|0:0,0:0:0:0:
448,70,209652,2,0,P|384:43|315:55,1,140,8|8,0:0|0:0,0:0:0:0:
242,96,210244,1,0,0:0:0:0:
264,191,210441,6,0,P|294:213|348:224,1,77.0000023498536,4|0,0:0|0:0,0:0:0:0:
398,160,210835,1,8,0:0:0:0:
472,219,211033,2,0,P|471:257|457:293,1,77.0000023498536
398,355,211428,1,0,0:0:0:0:
306,340,211625,2,0,P|279:331|221:345,1,77.0000023498536,8|0,0:0|0:0,0:0:0:0:
120,372,212020,5,0,0:0:0:0:
29,353,212218,2,0,L|22:276,1,77.0000023498536,0|8,0:0|0:0,0:0:0:0:
63,190,212612,2,0,P|140:192|208:159,1,154.000004699707
252,77,213204,1,8,0:0:0:0:
170,32,213402,1,0,0:0:0:0:
208,159,213599,6,0,P|243:169|294:158,1,77.0000023498536
368,133,213993,1,8,0:0:0:0:
455,164,214191,2,0,P|457:114|383:40,1,154.000004699707
367,132,214783,2,0,P|376:170|366:206,1,77.0000023498536,8|0,0:0|0:0,0:0:0:0:
307,345,215178,5,4,0:0:0:0:
208,159,215572,1,4,0:0:0:0:
86,338,215968,1,4,0:0:0:0:
4,134,216362,1,4,0:0:0:0:
4,134,216757,6,0,P|11:171|37:198,1,77.0000023498536,4|0,0:0|0:0,0:0:0:0:
111,119,217152,1,8,0:0:0:0:
198,55,217349,1,4,0:0:0:0:
394,144,217744,1,0,0:0:0:0:
486,89,217941,2,0,L|490:12,1,77.0000023498536,8|4,0:0|0:0,0:0:0:0:
468,226,218533,1,0,0:0:0:0:
394,144,218731,2,0,L|398:67,1,77.0000023498536,8|4,0:0|0:0,0:0:0:0:
289,253,219323,1,8,0:0:0:0:
389,220,219520,2,0,L|393:143,1,77.0000023498536,8|0,0:0|0:0,0:0:0:0:
314,27,219915,5,4,0:0:0:0:
96,49,220310,1,8,0:0:0:0:
99,264,220704,1,0,0:0:0:0:
248,105,221099,1,8,0:0:0:0:
334,167,221297,6,0,P|349:93|313:26,1,154.000004699707,4|0,0:0|0:0,0:0:0:0:
169,49,221889,2,0,P|132:58|86:43,1,77.0000023498536,8|0,0:0|0:0,0:0:0:0:
84,163,222283,2,0,P|123:164|159:151,1,77.0000023498536,8|0,0:0|0:0,0:0:0:0:
242,208,222678,1,0,0:0:0:0:
256,192,223073,12,2,224652,0:0:0:0:
144,227,225047,6,0,L|138:261,3,35,8|0|0|0,0:0|0:0|0:0|0:0,0:0:0:0:
153,307,225441,2,0,L|222:296,1,70,8|0,0:0|0:0,0:0:0:0:
318,275,225836,2,0,L|318:309,3,35,8|0|8|0,0:0|0:0|0:0|0:0,0:0:0:0:
351,344,226231,6,0,P|386:342|417:327,1,70,4|0,0:0|0:0,0:0:0:0:
496,282,226626,1,8,0:0:0:0:
459,165,226823,2,0,P|398:132|330:140,1,140,0|4,0:0|0:0,0:0:0:0:
246,181,227415,1,2,0:0:0:0:
164,140,227613,1,8,0:0:0:0:
164,140,227711,1,8,0:0:0:0:
164,140,227810,6,0,L|167:53,1,70,8|0,0:0|0:0,0:0:0:0:
253,96,228205,1,8,0:0:0:0:
330,140,228402,2,0,P|340:84|297:16,1,140,2|8,0:0|0:0,0:0:0:0:
166,70,228994,1,2,0:0:0:0:
166,70,229389,6,0,P|127:64|97:44,1,70,4|0,0:0|0:0,0:0:0:0:
27,100,229784,1,8,0:0:0:0:
49,219,229981,2,0,P|111:237|187:210,1,140,0|4,0:0|0:0,0:0:0:0:
330,140,230573,1,2,0:0:0:0:
413,175,230770,1,8,0:0:0:0:
413,175,230869,1,8,0:0:0:0:
413,175,230968,6,0,P|447:177|499:162,1,70,8|0,0:0|0:0,0:0:0:0:
439,88,231363,1,8,0:0:0:0:
455,252,231560,2,0,P|386:261|319:228,1,140,0|2,0:0|0:0,0:0:0:0:
242,155,232152,1,8,0:0:0:0:
242,155,232547,6,0,L|234:225,1,70,4|2,0:0|0:0,0:0:0:0:
185,317,232941,1,8,0:0:0:0:
95,356,233139,1,2,0:0:0:0:
95,356,233534,2,0,L|87:265,1,70,4|2,0:0|0:0,0:0:0:0:
25,202,233928,1,8,0:0:0:0:
25,202,234027,1,8,0:0:0:0:
25,202,234126,6,0,L|17:111,1,70,8|2,0:0|0:0,0:0:0:0:
110,56,234520,1,8,0:0:0:0:
222,86,234718,1,8,0:0:0:0:
316,304,235113,1,4,0:0:0:0:
256,192,235705,12,0,244389,0:0:0:0:
