osu file format v14

[General]
AudioFilename: op full ver.mp3
AudioLeadIn: 0
PreviewTime: 52349
Countdown: 0
SampleSet: Soft
StackLeniency: 0.7
Mode: 0
LetterboxInBreaks: 0
WidescreenStoryboard: 0

[Editor]
Bookmarks: 442,13073,25507,38731,52547,65178,77810,87284,99718,112941,126757,139389,152020,155178,197810,210441,223073,226231,235705
DistanceSpacing: 0.5
BeatDivisor: 4
GridSize: 8
TimelineZoom: 1.5

[Metadata]
Title:oath sign
TitleUnicode:oath sign
Artist:LiSA
ArtistUnicode:LiSA
Creator:smallboat
Version:Excalibur
Source:Fate/Zero
Tags:フェイト opening type moon ufotable aniplex 2011 2012 anime visual novel game comic movie card saber archer seven master servant sword fire ghost magic gate four holy cup survive battle break fantasy legend Takeuchi Takashi Urobuchi Gen
BeatmapID:1126460
BeatmapSetID:531561

[Difficulty]
HPDrainRate:7
CircleSize:4.3
OverallDifficulty:8.3
ApproachRate:9
SliderMultiplier:1.9
SliderTickRate:1

[Events]
//Background and Video events
0,0,"bg5.jpg",0,0
Video,0,"amv.flv"
//Break Periods
//Storyboard Layer 0 (Background)
//Storyboard Layer 1 (Fail)
//Storyboard Layer 2 (Pass)
//Storyboard Layer 3 (Foreground)
//Storyboard Sound Samples

[TimingPoints]
442,394.736842105263,4,2,4,30,1,0
442,-125,4,2,4,30,0,0
12481,-125,4,2,4,10,0,0
13073,-100,4,2,4,40,0,0
13270,-100,4,2,1,55,0,0
25507,-100,4,2,3,45,0,0
25705,-100,4,2,1,80,0,0
31823,-100,4,2,3,35,0,0
32020,-100,4,2,1,80,0,0
36560,-100,4,2,2,70,0,0
36757,-100,4,2,1,80,0,0
38336,-100,4,2,1,40,0,0
38731,-125,4,2,1,55,0,0
44652,-100,4,2,2,70,0,0
44849,-100,4,2,1,70,0,0
47810,-100,4,2,1,75,0,0
48402,-100,4,2,2,60,0,0
48599,-100,4,2,1,75,0,0
49191,-100,4,2,2,60,0,0
49389,-100,4,2,1,75,0,0
50770,-100,4,2,2,75,0,0
50968,-100,4,2,1,75,0,0
51165,-100,4,2,1,85,0,0
52349,-100,4,2,1,70,0,0
52547,-90.9090909090909,4,2,2,95,0,1
61428,-90.9090909090909,4,2,1,95,0,1
62020,-90.9090909090909,4,2,2,95,0,1
65178,-90.9090909090909,4,2,2,95,0,1
77810,-100,4,2,1,40,0,0
79389,-100,4,2,1,50,0,0
79784,-100,4,2,1,45,0,0
80968,-100,4,2,1,70,0,1
81955,-100,4,2,5,40,0,1
82547,-100,4,2,1,75,0,1
83534,-100,4,2,1,35,0,1
84126,-100,4,2,1,50,0,0
87284,-125,4,2,8,20,0,0
87481,-125,4,2,8,50,0,0
93600,-125,4,2,8,65,0,0
99718,-100,4,2,3,45,0,0
99915,-100,4,2,1,80,0,0
106034,-100,4,2,3,30,0,0
106231,-100,4,2,1,80,0,0
110770,-100,4,2,2,70,0,0
110968,-100,4,2,1,80,0,0
112547,-100,4,2,1,40,0,0
112941,-125,4,2,1,55,0,0
118863,-100,4,2,2,70,0,0
119060,-100,4,2,1,70,0,0
122020,-100,4,2,1,75,0,0
122613,-100,4,2,2,60,0,0
122810,-100,4,2,1,75,0,0
123402,-100,4,2,2,60,0,0
123599,-100,4,2,1,75,0,0
124981,-100,4,2,2,75,0,0
125178,-100,4,2,1,75,0,0
125376,-100,4,2,1,85,0,0
126560,-100,4,2,1,70,0,0
126757,-90.9090909090909,4,2,2,95,0,1
135639,-90.9090909090909,4,2,1,95,0,1
136231,-90.9090909090909,4,2,2,95,0,1
139389,-90.9090909090909,4,2,2,95,0,1
152020,-100,4,2,1,60,0,0
153599,-100,4,2,1,50,0,0
153994,-100,4,2,1,45,0,0
155178,-100,4,2,1,40,0,0
156560,-100,4,2,4,60,0,0
156757,-100,4,2,1,60,0,0
158928,-100,4,2,1,35,0,0
159718,-100,4,2,2,70,0,0
159915,-100,4,2,1,70,0,0
161494,-133.333333333333,4,2,4,65,0,0
161691,-133.333333333333,4,2,1,55,0,0
164652,-100,4,2,4,75,0,0
164849,-100,4,2,1,75,0,0
169784,-100,4,2,1,80,0,0
170968,-100,4,2,4,75,0,0
171165,-100,4,2,1,85,0,0
175705,-100,4,2,2,70,0,0
175902,-100,4,2,1,90,0,0
176494,-100,4,2,2,80,0,0
176691,-100,4,2,1,90,0,0
177284,-100,4,2,4,60,0,0
177481,-100,4,2,1,90,0,0
180441,-100,4,2,2,70,0,0
180639,-100,4,2,1,90,0,0
181823,-100,4,2,2,60,0,0
182020,-100,4,2,1,90,0,0
183599,-90.9090909090909,4,2,4,100,0,1
183797,-90.9090909090909,4,2,1,100,0,1
186757,-90.9090909090909,4,2,2,80,0,1
186955,-90.9090909090909,4,2,1,100,0,1
188336,-90.9090909090909,4,2,2,80,0,1
188534,-90.9090909090909,4,2,1,100,0,1
189126,-90.9090909090909,4,2,6,80,0,1
189323,-90.9090909090909,4,2,1,100,0,1
189520,-90.9090909090909,4,2,6,80,0,1
189718,-90.9090909090909,4,2,1,100,0,1
194455,-100,4,2,1,45,0,0
197810,-133.333333333333,4,2,1,40,0,0
202547,-100,4,2,2,70,0,0
204126,-100,4,2,2,85,0,0
206691,-100,4,2,1,85,0,0
207284,-100,4,2,2,85,0,0
210441,-90.9090909090909,4,2,2,95,0,1
216757,-90.9090909090909,4,2,2,95,0,1
223073,-100,4,2,1,70,0,0
224652,-100,4,2,1,50,0,0
225047,-100,4,2,1,80,0,0
226231,-100,4,2,2,85,0,0
226428,-100,4,2,1,85,0,0
227218,-100,4,2,2,75,0,0
227415,-100,4,2,1,85,0,0
229389,-100,4,2,2,70,0,0
229586,-100,4,2,1,70,0,0
230376,-100,4,2,2,70,0,0
230573,-100,4,2,1,70,0,0
232547,-100,4,2,2,70,0,0
232744,-100,4,2,1,70,0,0
233534,-100,4,2,2,70,0,0
233731,-100,4,2,1,70,0,0
235113,-100,4,2,1,45,0,0
235705,-100,4,2,1,5,0,0

[Colours]
Combo1 : 181,0,181
Combo2 : 253,253,0
Combo3 : 0,101,223
Combo4 : 0,230,0
Combo5 : 187,0,0

[HitObjects]
256,30,442,5,0,0:0:0:0:
133,172,836,1,0,0:0:0:0:
379,172,1231,1,0,0:0:0:0:
256,354,1626,1,0,0:0:0:0:
191,96,2020,1,0,0:0:0:0:
365,248,2415,1,0,0:0:0:0:
147,249,2810,2,0,P|255:277|364:249,1,228
256,174,3599,5,0,0:0:0:0:
156,344,3994,1,0,0:0:0:0:
356,344,4389,1,0,0:0:0:0:
256,90,4784,1,0,0:0:0:0:
147,249,5178,2,0,P|85:290|11:282,1,152
365,249,5968,2,0,P|426:290|500:282,1,152
462,102,6757,5,0,0:0:0:0:
315,1,7152,1,0,0:0:0:0:
256,180,7547,1,0,0:0:0:0:
201,17,7941,1,0,0:0:0:0:
49,101,8336,2,0,P|34:179|131:132,1,228
127,64,9126,5,0,0:0:0:0:
204,101,9323,1,0,0:0:0:0:
133,146,9520,1,0,0:0:0:0:
201,17,9718,1,0,0:0:0:0:
256,180,9915,1,0,0:0:0:0:
256,192,10014,12,0,12481,0:0:0:0:
126,125,13073,6,0,L|219:109,1,95,4|0,0:0|0:0,0:0:0:0:
260,187,13468,1,2,0:0:0:0:
55,178,13665,2,0,P|40:145|53:72,1,95,0|2,0:0|0:0,0:0:0:0:
219,108,14060,2,0,P|264:105|303:70,1,95,0|2,0:0|0:0,0:0:0:0:
464,18,14455,1,0,0:0:0:0:
464,18,14553,1,0,0:0:0:0:
464,18,14652,6,0,P|468:59|441:129,1,95,2|0,0:0|0:0,0:0:0:0:
341,177,15047,1,2,0:0:0:0:
219,108,15244,2,0,P|221:66|238:4,1,95,0|2,0:0|0:0,0:0:0:0:
385,251,15639,2,0,P|338:260|292:249,1,95,0|2,0:0|0:0,0:0:0:0:
155,141,16034,1,0,0:0:0:0:
155,141,16132,1,0,0:0:0:0:
155,141,16231,6,0,P|109:134|63:143,1,95,2|0,0:0|0:0,0:0:0:0:
12,306,16626,1,2,0:0:0:0:
160,225,16823,1,0,0:0:0:0:
276,315,17020,2,0,P|299:273|301:226,1,95,2|0,0:0|0:0,0:0:0:0:
143,310,17415,1,2,0:0:0:0:
73,140,17613,1,0,0:0:0:0:
73,140,17711,1,0,0:0:0:0:
73,140,17810,6,0,L|91:33,1,95,2|0,0:0|0:0,0:0:0:0:
189,91,18205,1,2,0:0:0:0:
143,310,18402,2,0,P|88:268|71:228,1,95,2|0,0:0|0:0,0:0:0:0:
212,80,18797,2,0,P|253:102|283:139,1,95,2|0,0:0|0:0,0:0:0:0:
386,278,19191,1,2,0:0:0:0:
386,278,19290,1,2,0:0:0:0:
386,278,19389,6,0,P|423:278|483:263,1,95
470,160,19784,1,2,0:0:0:0:
304,232,19981,2,0,P|262:242|208:232,1,95,0|2,0:0|0:0,0:0:0:0:
383,191,20376,2,0,P|425:187|485:138,1,95,0|2,0:0|0:0,0:0:0:0:
274,132,20770,1,0,0:0:0:0:
274,132,20869,1,0,0:0:0:0:
274,132,20968,6,0,P|228:134|170:114,1,95,2|0,0:0|0:0,0:0:0:0:
292,35,21363,1,2,0:0:0:0:
109,77,21560,2,0,P|62:74|22:50,1,95,0|2,0:0|0:0,0:0:0:0:
299,136,21955,2,0,P|345:130|387:108,1,95,0|2,0:0|0:0,0:0:0:0:
190,108,22349,1,0,0:0:0:0:
190,108,22448,1,0,0:0:0:0:
190,108,22547,6,0,P|183:62|184:13,1,95,2|0,0:0|0:0,0:0:0:0:
118,159,22941,1,2,0:0:0:0:
51,296,23139,5,0,0:0:0:0:
224,260,23336,1,2,0:0:0:0:
42,136,23534,1,0,0:0:0:0:
141,306,23731,1,2,0:0:0:0:
109,78,23928,1,0,0:0:0:0:
19,217,24126,5,0,0:0:0:0:
215,337,24323,1,0,0:0:0:0:
118,159,24520,2,0,P|101:203|93:250,1,95
255,185,24915,2,0,L|249:91,1,95
224,260,25310,1,10,0:0:0:0:
72,93,25507,6,0,P|150:62|256:96,1,190,4|0,0:0|0:0,0:0:0:0:
306,244,26099,1,8,0:0:0:0:
102,293,26297,2,0,P|60:297|14:269,1,95,0|2,0:0|0:0,0:0:0:0:
4,87,26691,1,2,0:0:0:0:
153,207,26889,1,8,0:0:0:0:
306,244,27086,6,0,P|312:203|283:138,1,95
156,198,27481,1,0,0:0:0:0:
132,362,27678,1,8,0:0:0:0:
298,337,27876,2,0,P|308:290|305:243,1,95,0|2,0:0|0:0,0:0:0:0:
161,189,28270,1,2,0:0:0:0:
215,337,28468,1,8,0:0:0:0:
428,376,28665,6,0,P|492:308|498:215,1,190
444,64,29257,1,8,0:0:0:0:
265,178,29455,2,0,P|234:133|236:73,1,95,0|2,0:0|0:0,0:0:0:0:
407,80,29849,1,2,0:0:0:0:
410,250,30047,1,8,0:0:0:0:
197,350,30244,6,0,P|149:351|105:334,1,95
16,176,30639,1,0,0:0:0:0:
167,276,30836,1,8,0:0:0:0:
211,88,31034,1,0,0:0:0:0:
418,259,31231,5,0,0:0:0:0:
178,174,31428,1,2,0:0:0:0:
315,350,31626,1,8,0:0:0:0:
211,88,31823,6,0,P|175:54|24:60,1,190,4|0,0:0|0:0,0:0:0:0:
88,218,32415,1,8,0:0:0:0:
256,300,32613,2,0,P|265:253|256:207,1,95,0|2,0:0|0:0,0:0:0:0:
94,115,33007,1,2,0:0:0:0:
9,287,33205,1,8,0:0:0:0:
177,359,33402,6,0,P|186:312|181:265,1,95
11,162,33797,1,0,0:0:0:0:
90,303,33994,1,8,0:0:0:0:
255,299,34191,2,0,P|302:293|343:270,1,95,0|2,0:0|0:0,0:0:0:0:
489,225,34586,1,2,0:0:0:0:
380,116,34784,1,8,0:0:0:0:
174,173,34981,6,0,P|159:128|170:82,1,95
278,123,35376,1,0,0:0:0:0:
448,161,35573,1,8,0:0:0:0:
347,299,35770,1,0,0:0:0:0:
347,299,35869,1,0,0:0:0:0:
347,299,35968,2,0,P|305:308|249:295,1,95,2|2,0:0|0:0,0:0:0:0:
174,173,36363,1,8,0:0:0:0:
388,206,36560,6,0,P|396:166|374:109,1,95,4|0,0:0|0:0,0:0:0:0:
197,101,36955,1,2,0:0:0:0:
299,201,37152,1,8,0:0:0:0:
419,33,37349,2,0,P|372:24|321:40,1,95,2|0,0:0|0:0,0:0:0:0:
248,153,37744,1,2,0:0:0:0:
152,274,37941,2,0,L|59:251,1,95,2|0,0:0|0:0,0:0:0:0:
10,33,38336,5,4,0:0:0:0:
20,29,38731,5,0,0:0:0:0:
74,110,38928,1,0,0:0:0:0:
173,107,39126,2,0,P|185:78|185:8,1,76
248,153,39520,2,0,P|285:151|322:140,1,76
418,58,39915,5,2,0:0:0:0:
389,168,40113,2,0,P|355:163|315:132,1,76
278,51,40507,1,0,0:0:0:0:
389,168,40705,2,0,P|426:167|463:156,1,76
406,295,41099,2,0,P|372:292|324:269,1,76
172,193,41494,5,2,0:0:0:0:
77,164,41691,1,0,0:0:0:0:
10,236,41889,1,0,0:0:0:0:
10,236,42086,1,0,0:0:0:0:
94,335,42284,2,0,P|101:302|93:249,1,76
16,366,42678,1,0,0:0:0:0:
157,375,42876,6,0,P|191:377|233:357,1,76,0|2,0:0|0:0,0:0:0:0:
353,264,43270,2,0,P|325:258|270:260,1,76
178,304,43665,1,0,0:0:0:0:
383,349,43863,2,0,P|415:329|435:297,1,76
335,187,44257,2,0,P|318:153|314:115,1,76
430,125,44652,5,4,0:0:0:0:
256,189,44849,1,0,0:0:0:0:
82,125,45047,1,0,0:0:0:0:
85,310,45244,2,0,P|132:316|177:303,1,95
426,310,45639,2,0,P|379:316|334:303,1,95
121,205,46034,6,0,P|92:175|83:116,1,95
204,85,46428,1,0,0:0:0:0:
81,124,46626,1,0,0:0:0:0:
85,310,46823,2,0,P|175:305|219:226,1,190
108,40,47415,1,8,0:0:0:0:
7,224,47613,1,8,0:0:0:0:
7,224,47711,1,8,0:0:0:0:
7,224,47810,5,8,0:0:0:0:
213,95,48007,1,0,0:0:0:0:
329,242,48205,1,8,0:0:0:0:
126,129,48402,2,0,P|105:86|107:39,1,95,4|0,0:0|0:0,0:0:0:0:
254,24,48797,1,0,0:0:0:0:
199,193,48994,1,8,0:0:0:0:
386,129,49191,6,0,P|406:86|404:39,1,95,4|0,0:0|0:0,0:0:0:0:
256,145,49586,5,0,0:0:0:0:
190,384,49784,1,8,0:0:0:0:
398,353,49981,1,0,0:0:0:0:
106,228,50178,1,0,0:0:0:0:
254,360,50376,1,0,0:0:0:0:
406,228,50573,1,8,0:0:0:0:
114,353,50770,6,0,P|79:330|54:279,1,95,4|0,0:0|0:0,0:0:0:0:
126,33,51165,1,8,0:0:0:0:
261,284,51363,1,8,0:0:0:0:
7,199,51560,1,8,0:0:0:0:
275,117,51757,2,0,L|267:211,1,95,8|0,0:0|0:0,0:0:0:0:
410,346,52152,1,8,0:0:0:0:
191,237,52349,1,0,0:0:0:0:
191,237,52448,1,0,0:0:0:0:
191,237,52547,5,4,0:0:0:0:
400,374,52744,1,0,0:0:0:0:
244,300,52941,1,8,0:0:0:0:
439,283,53139,2,0,P|440:236|374:171,1,104.500003189087
257,107,53534,1,0,0:0:0:0:
478,135,53731,1,8,0:0:0:0:
311,267,53928,1,0,0:0:0:0:
311,267,54027,1,0,0:0:0:0:
311,267,54126,5,0,0:0:0:0:
168,312,54323,1,0,0:0:0:0:
319,174,54520,1,8,0:0:0:0:
130,122,54718,2,0,P|142:72|173:31,1,104.500003189087
330,64,55113,1,0,0:0:0:0:
490,230,55310,1,8,0:0:0:0:
227,180,55507,1,0,0:0:0:0:
305,352,55705,5,0,0:0:0:0:
141,209,55902,1,0,0:0:0:0:
390,226,56099,1,8,0:0:0:0:
166,309,56297,2,0,P|114:308|67:286,1,104.500003189087
66,159,56691,1,0,0:0:0:0:
235,257,56889,1,8,0:0:0:0:
45,372,57086,1,0,0:0:0:0:
25,74,57284,5,4,0:0:0:0:
25,74,57678,2,0,P|72:71|126:86,1,104.500003189087,4|0,0:0|0:0,0:0:0:0:
487,310,58073,2,0,P|440:313|372:290,1,104.500003189087,4|0,0:0|0:0,0:0:0:0:
217,34,58468,2,0,P|263:32|326:55,1,104.500003189087,4|0,0:0|0:0,0:0:0:0:
295,350,58863,6,0,P|248:353|187:331,1,104.500003189087,4|0,0:0|0:0,0:0:0:0:
106,215,59257,1,8,0:0:0:0:
406,215,59455,1,4,0:0:0:0:
406,215,59849,5,0,0:0:0:0:
75,148,60047,1,8,0:0:0:0:
437,148,60244,1,4,0:0:0:0:
437,148,60639,5,0,0:0:0:0:
35,210,60836,1,8,0:0:0:0:
476,210,61034,1,4,0:0:0:0:
476,210,61428,5,2,0:0:0:0:
217,308,61626,1,2,0:0:0:0:
399,88,61823,1,2,0:0:0:0:
382,379,62020,5,4,0:0:0:0:
209,193,62218,1,0,0:0:0:0:
477,133,62415,1,8,0:0:0:0:
285,373,62613,1,0,0:0:0:0:
166,133,62810,1,0,0:0:0:0:
404,170,63007,2,0,P|413:221|396:270,1,104.500003189087,0|8,0:0|0:0,0:0:0:0:
115,270,63402,2,0,P|98:221|107:170,1,104.500003189087,4|0,0:0|0:0,0:0:0:0:
256,28,63797,5,8,0:0:0:0:
54,57,63994,2,0,L|29:167,1,104.500003189087,8|0,0:0|0:0,0:0:0:0:
44,361,64389,1,8,0:0:0:0:
44,361,64488,1,0,0:0:0:0:
44,361,64586,2,0,L|108:351,1,52.2500015945435
248,305,64784,1,0,0:0:0:0:
248,305,64882,1,0,0:0:0:0:
248,305,64981,2,0,L|196:294,1,52.2500015945435
54,222,65178,5,4,0:0:0:0:
249,165,65376,1,0,0:0:0:0:
103,143,65572,1,8,0:0:0:0:
317,227,65770,2,0,P|335:185|327:126,1,104.500003189087
177,87,66165,1,0,0:0:0:0:
41,212,66362,1,8,0:0:0:0:
259,279,66559,1,0,0:0:0:0:
259,279,66658,1,0,0:0:0:0:
259,279,66757,5,4,0:0:0:0:
265,57,66955,1,0,0:0:0:0:
172,194,67151,1,8,0:0:0:0:
224,349,67349,2,0,P|270:353|324:326,1,104.500003189087
431,173,67744,1,0,0:0:0:0:
251,53,67941,1,8,0:0:0:0:
187,279,68138,1,0,0:0:0:0:
453,270,68336,6,0,P|455:223|430:172,1,104.500003189087,4|0,0:0|0:0,0:0:0:0:
241,49,68730,1,8,0:0:0:0:
187,279,68928,2,0,P|148:281|74:248,1,104.500003189087
84,24,69322,1,0,0:0:0:0:
242,190,69520,1,8,0:0:0:0:
26,195,69717,1,0,0:0:0:0:
325,105,69915,5,4,0:0:0:0:
325,105,70309,2,0,L|429:94,1,104.500003189087,4|0,0:0|0:0,0:0:0:0:
187,279,70704,2,0,L|77:291,1,104.500003189087,4|0,0:0|0:0,0:0:0:0:
325,279,71099,2,0,L|431:291,1,104.500003189087,4|0,0:0|0:0,0:0:0:0:
256,124,71494,6,0,L|256:7,1,104.500003189087,4|0,0:0|0:0,0:0:0:0:
398,71,71888,1,8,0:0:0:0:
114,71,72086,1,4,0:0:0:0:
114,71,72481,5,0,0:0:0:0:
432,142,72678,1,8,0:0:0:0:
80,142,72876,1,4,0:0:0:0:
80,142,73270,5,0,0:0:0:0:
461,208,73468,1,8,0:0:0:0:
51,208,73665,1,4,0:0:0:0:
26,277,74060,5,8,0:0:0:0:
256,350,74257,1,8,0:0:0:0:
486,277,74454,1,0,0:0:0:0:
256,350,74652,6,0,P|205:340|162:311,1,104.500003189087,4|0,0:0|0:0,0:0:0:0:
257,34,75047,2,0,P|308:43|351:72,1,104.500003189087,8|0,0:0|0:0,0:0:0:0:
419,265,75441,1,0,0:0:0:0:
256,104,75639,1,0,0:0:0:0:
93,265,75836,1,8,0:0:0:0:
326,265,76034,6,0,P|370:171|352:70,1,209.000006378174,4|0,0:0|0:0,0:0:0:0:
185,221,76626,2,0,P|144:252|94:264,1,104.500003189087,8|0,0:0|0:0,0:0:0:0:
327,163,77020,2,0,P|369:131|419:119,1,104.500003189087,8|0,0:0|0:0,0:0:0:0:
471,269,77415,1,2,0:0:0:0:
471,269,77514,1,0,0:0:0:0:
471,269,77613,2,0,L|395:263,1,52.2500015945435
256,192,77810,1,4,0:0:0:0:
256,192,77909,12,0,79191,0:0:0:0:
125,96,79389,5,0,0:0:0:0:
118,93,79586,1,0,0:0:0:0:
112,92,79784,6,0,L|18:80,1,95,8|0,0:0|0:0,0:0:0:0:
256,196,80178,1,8,0:0:0:0:
400,292,80376,1,8,0:0:0:0:
400,292,80474,1,8,0:0:0:0:
400,292,80573,2,0,L|521:306,1,95,8|0,0:0|0:0,0:0:0:0:
453,174,80968,5,4,0:0:0:0:
256,325,81165,1,0,0:0:0:0:
59,174,81363,1,8,0:0:0:0:
332,189,81560,2,0,P|378:157|396:119,1,95,8|0,0:0|0:0,0:0:0:0:
194,32,81955,2,0,P|115:15|6:38,1,190,4|0,0:0|0:0,0:0:0:0:
256,60,82547,5,0,0:0:0:0:
87,239,82744,1,0,0:0:0:0:
425,239,82941,1,8,0:0:0:0:
180,189,83139,2,0,P|134:157|116:119,1,95,8|0,0:0|0:0,0:0:0:0:
318,32,83534,2,0,P|397:15|506:38,1,190,4|0,0:0|0:0,0:0:0:0:
332,189,84126,5,4,0:0:0:0:
256,192,84224,12,0,86889,0:0:0:0:
99,104,87284,6,0,P|134:117|171:113,1,76,4|0,0:0|0:0,0:0:0:0:
256,53,87679,1,2,0:0:0:0:
340,113,87876,2,0,P|377:117|413:104,1,76,0|2,0:0|0:0,0:0:0:0:
445,254,88271,2,0,P|415:230|398:196,1,76,0|2,0:0|0:0,0:0:0:0:
336,261,88666,1,8,0:0:0:0:
477,176,88863,6,0,P|498:144|504:107,1,76,8|0,0:0|0:0,0:0:0:0:
441,12,89258,1,2,0:0:0:0:
331,55,89455,2,0,P|293:58|255:52,1,76,0|2,0:0|0:0,0:0:0:0:
108,38,89850,2,0,P|136:22|201:21,1,76,0|2,0:0|0:0,0:0:0:0:
256,128,90245,1,0,0:0:0:0:
86,198,90442,6,0,L|81:122,1,76,8|0,0:0|0:0,0:0:0:0:
187,93,90837,1,2,0:0:0:0:
169,203,91034,1,0,0:0:0:0:
75,273,91231,2,0,L|85:197,1,76,2|0,0:0|0:0,0:0:0:0:
19,353,91626,1,0,0:0:0:0:
0,224,91824,1,8,0:0:0:0:
150,280,92021,6,0,P|187:277|222:262,1,76,8|0,0:0|0:0,0:0:0:0:
109,351,92416,1,2,0:0:0:0:
260,331,92613,2,0,P|289:301|298:266,1,76,0|2,0:0|0:0,0:0:0:0:
277,155,93007,1,0,0:0:0:0:
169,126,93205,2,0,P|160:162|171:198,1,76
402,309,93600,6,0,P|410:276|400:229,1,76,8|0,0:0|0:0,0:0:0:0:
298,269,93995,1,8,0:0:0:0:
414,162,94191,2,0,P|421:129|407:82,1,76,0|8,0:0|0:0,0:0:0:0:
274,82,94586,2,0,P|266:118|277:155,1,76,0|8,0:0|0:0,0:0:0:0:
327,244,94981,1,0,0:0:0:0:
492,238,95178,6,0,P|494:204|479:158,1,76,8|0,0:0|0:0,0:0:0:0:
410,88,95574,1,8,0:0:0:0:
277,155,95770,2,0,P|244:166|197:165,1,76,0|8,0:0|0:0,0:0:0:0:
56,131,96165,2,0,P|89:132|132:116,1,76,0|8,0:0|0:0,0:0:0:0:
204,47,96560,1,0,0:0:0:0:
380,133,96758,6,0,P|401:108|411:61,1,76,8|0,0:0|0:0,0:0:0:0:
308,47,97152,1,8,0:0:0:0:
277,155,97350,1,0,0:0:0:0:
204,47,97547,1,8,0:0:0:0:
167,143,97744,1,0,0:0:0:0:
97,37,97941,1,8,0:0:0:0:
56,131,98139,1,0,0:0:0:0:
9,240,98337,5,0,0:0:0:0:
154,295,98534,1,0,0:0:0:0:
167,143,98731,2,0,L|173:68,1,76
323,236,99126,2,0,L|330:312,1,76
172,310,99521,1,0,0:0:0:0:
455,374,99718,6,0,P|467:290|422:186,1,190,4|0,0:0|0:0,0:0:0:0:
325,58,100310,1,8,0:0:0:0:
167,143,100508,2,0,P|126:147|76:121,1,95,0|2,0:0|0:0,0:0:0:0:
206,26,100902,1,2,0:0:0:0:
16,72,101100,1,8,0:0:0:0:
134,236,101297,6,0,P|180:242|222:222,1,95
332,66,101692,1,0,0:0:0:0:
139,59,101889,1,8,0:0:0:0:
280,173,102087,2,0,P|317:191|370:181,1,95,0|2,0:0|0:0,0:0:0:0:
418,24,102481,1,2,0:0:0:0:
257,77,102679,1,8,0:0:0:0:
388,251,102876,6,0,P|444:189|440:87,1,190
293,9,103468,1,8,0:0:0:0:
202,126,103666,2,0,P|162:100|139:60,1,95,0|2,0:0|0:0,0:0:0:0:
182,249,104060,1,2,0:0:0:0:
98,163,104258,1,8,0:0:0:0:
303,277,104455,6,0,P|345:279|391:246,1,95
498,300,104850,1,0,0:0:0:0:
327,203,105047,1,8,0:0:0:0:
285,349,105245,1,0,0:0:0:0:
485,201,105441,5,2,0:0:0:0:
313,213,105639,1,0,0:0:0:0:
485,307,105837,1,8,0:0:0:0:
212,368,106034,6,0,P|130:370|55:290,1,190,4|0,0:0|0:0,0:0:0:0:
96,126,106626,1,8,0:0:0:0:
268,156,106824,2,0,P|280:115|261:54,1,95,0|2,0:0|0:0,0:0:0:0:
123,42,107218,1,2,0:0:0:0:
104,212,107416,1,8,0:0:0:0:
326,231,107613,6,0,P|355:194|361:147,1,95
461,43,108008,1,0,0:0:0:0:
463,206,108205,1,8,0:0:0:0:
299,306,108402,2,0,P|261:278|249:233,1,95,0|2,0:0|0:0,0:0:0:0:
361,147,108797,1,2,0:0:0:0:
177,228,108995,1,8,0:0:0:0:
39,78,109192,6,0,P|75:48|122:41,1,95
262,170,109586,1,0,0:0:0:0:
133,314,109784,1,8,0:0:0:0:
13,164,109981,1,0,0:0:0:0:
13,164,110080,1,0,0:0:0:0:
13,164,110178,1,2,0:0:0:0:
121,40,110376,1,2,0:0:0:0:
271,158,110574,1,8,0:0:0:0:
87,217,110771,6,0,P|82:176|101:120,1,95,4|0,0:0|0:0,0:0:0:0:
279,148,111166,1,2,0:0:0:0:
256,366,111363,1,8,0:0:0:0:
425,217,111560,2,0,P|430:176|411:120,1,95,2|0,0:0|0:0,0:0:0:0:
256,18,111955,1,2,0:0:0:0:
277,231,112152,2,0,P|235:252|188:257,1,95,2|0,0:0|0:0,0:0:0:0:
20,169,112547,5,4,0:0:0:0:
20,169,112942,5,0,0:0:0:0:
102,95,113139,1,0,0:0:0:0:
202,154,113337,2,0,P|235:158|293:138,1,76
355,62,113731,1,0,0:0:0:0:
448,144,113928,1,0,0:0:0:0:
459,40,114126,5,0,0:0:0:0:
344,177,114323,2,0,P|307:168|276:147,1,76
174,84,114718,1,0,0:0:0:0:
181,249,114915,2,0,P|218:240|249:219,1,76
300,344,115310,2,0,P|263:335|232:314,1,76,2|0,0:0|0:0,0:0:0:0:
135,184,115705,5,0,0:0:0:0:
168,74,115902,1,0,0:0:0:0:
63,50,116100,1,0,0:0:0:0:
63,50,116297,1,0,0:0:0:0:
202,144,116495,2,0,P|238:135|271:116,1,76
104,115,116889,1,0,0:0:0:0:
88,238,117086,6,0,P|51:229|18:210,1,76
71,344,117481,2,0,P|108:335|141:316,1,76
11,294,117876,1,0,0:0:0:0:
179,384,118073,2,0,P|203:354|219:320,1,76
333,384,118468,2,0,P|308:354|292:320,1,76
256,111,118863,5,4,0:0:0:0:
169,225,119060,1,0,0:0:0:0:
343,225,119258,1,0,0:0:0:0:
157,292,119455,2,0,P|110:286|74:256,1,95
355,292,119849,2,0,P|401:286|437:256,1,95
256,111,120245,6,0,P|253:153|282:198,1,95
488,208,120639,1,0,0:0:0:0:
362,74,120837,1,0,0:0:0:0:
169,225,121034,2,0,P|110:216|63:104,1,190
222,24,121626,1,8,0:0:0:0:
352,185,121824,1,8,0:0:0:0:
352,185,121922,1,8,0:0:0:0:
352,185,122020,5,8,0:0:0:0:
472,71,122218,1,0,0:0:0:0:
456,279,122416,1,8,0:0:0:0:
236,202,122613,2,0,P|236:159|259:113,1,95,4|0,0:0|0:0,0:0:0:0:
454,149,123008,1,0,0:0:0:0:
510,326,123205,1,8,0:0:0:0:
238,365,123402,6,0,P|196:358|155:324,1,95,4|0,0:0|0:0,0:0:0:0:
53,159,123797,1,0,0:0:0:0:
160,6,123995,1,8,0:0:0:0:
122,255,124192,1,0,0:0:0:0:
256,26,124389,1,0,0:0:0:0:
390,255,124586,1,0,0:0:0:0:
352,6,124784,1,8,0:0:0:0:
142,178,124981,2,0,P|99:180|41:146,1,95,4|0,0:0|0:0,0:0:0:0:
43,329,125376,5,8,0:0:0:0:
256,112,125574,1,8,0:0:0:0:
469,329,125770,1,8,0:0:0:0:
256,207,125968,2,0,L|256:112,1,95,8|0,0:0|0:0,0:0:0:0:
135,376,126363,1,8,0:0:0:0:
377,376,126560,1,8,0:0:0:0:
377,376,126659,1,8,0:0:0:0:
377,376,126757,5,4,0:0:0:0:
374,139,126955,1,0,0:0:0:0:
195,242,127151,1,8,0:0:0:0:
406,234,127349,2,0,P|404:187|370:135,1,104.500003189087
243,303,127744,1,0,0:0:0:0:
490,242,127941,1,8,0:0:0:0:
411,6,128138,1,0,0:0:0:0:
411,6,128237,1,0,0:0:0:0:
411,6,128336,5,0,0:0:0:0:
194,88,128534,1,0,0:0:0:0:
331,237,128730,1,8,0:0:0:0:
168,315,128928,2,0,P|122:319|62:294,1,104.500003189087
10,55,129323,1,0,0:0:0:0:
131,217,129520,1,8,0:0:0:0:
256,47,129717,1,0,0:0:0:0:
332,309,129915,5,4,0:0:0:0:
332,98,130113,1,0,0:0:0:0:
505,204,130309,1,8,0:0:0:0:
267,335,130507,2,0,P|228:337|157:307,1,104.500003189087
16,130,130901,1,0,0:0:0:0:
256,117,131099,1,8,0:0:0:0:
321,377,131296,1,0,0:0:0:0:
111,215,131494,5,4,0:0:0:0:
111,215,131888,2,0,L|7:203,1,104.500003189087,4|0,0:0|0:0,0:0:0:0:
401,215,132284,2,0,L|504:203,1,104.500003189087,4|0,0:0|0:0,0:0:0:0:
256,117,132678,2,0,L|256:12,1,104.500003189087,4|0,0:0|0:0,0:0:0:0:
203,254,133073,6,0,P|152:244|110:214,1,104.500003189087,4|0,0:0|0:0,0:0:0:0:
121,43,133467,1,8,0:0:0:0:
391,43,133665,1,4,0:0:0:0:
191,348,134060,5,0,0:0:0:0:
191,348,134257,1,8,0:0:0:0:
321,36,134454,1,4,0:0:0:0:
321,348,134849,5,0,0:0:0:0:
321,348,135047,1,8,0:0:0:0:
191,36,135243,1,4,0:0:0:0:
256,320,135638,5,2,0:0:0:0:
126,151,135836,1,2,0:0:0:0:
386,151,136033,1,2,0:0:0:0:
155,248,136231,5,4,0:0:0:0:
256,43,136428,1,0,0:0:0:0:
357,248,136625,1,8,0:0:0:0:
108,58,136823,1,0,0:0:0:0:
404,58,137020,1,0,0:0:0:0:
155,248,137217,2,0,P|109:244|61:201,1,104.500003189087,0|8,0:0|0:0,0:0:0:0:
357,248,137613,2,0,P|403:244|451:201,1,104.500003189087,4|0,0:0|0:0,0:0:0:0:
301,126,138007,5,8,0:0:0:0:
430,309,138204,2,0,P|446:265|446:205,1,104.500003189087,8|0,0:0|0:0,0:0:0:0:
386,3,138599,1,8,0:0:0:0:
386,3,138698,1,0,0:0:0:0:
386,3,138796,2,0,L|394:74,1,52.2500015945435
314,176,138994,1,8,0:0:0:0:
314,176,139093,1,0,0:0:0:0:
314,176,139191,2,0,L|297:111,1,52.2500015945435
128,166,139389,5,4,0:0:0:0:
156,29,139586,1,0,0:0:0:0:
128,166,139784,1,8,0:0:0:0:
314,176,139980,2,0,P|373:171|413:138,1,104.500003189087
318,13,140375,1,0,0:0:0:0:
284,247,140572,1,8,0:0:0:0:
462,82,140769,1,0,0:0:0:0:
462,82,140868,1,0,0:0:0:0:
462,82,140968,5,4,0:0:0:0:
256,48,141165,1,0,0:0:0:0:
463,198,141363,1,8,0:0:0:0:
209,253,141560,2,0,P|158:248|115:219,1,104.500003189087
87,17,141954,1,0,0:0:0:0:
256,74,142151,1,8,0:0:0:0:
425,17,142348,1,0,0:0:0:0:
256,193,142547,5,4,0:0:0:0:
301,11,142744,1,0,0:0:0:0:
129,94,142940,1,8,0:0:0:0:
303,253,143139,2,0,P|354:248|397:219,1,104.500003189087
495,44,143534,1,0,0:0:0:0:
323,172,143730,1,8,0:0:0:0:
424,371,143927,1,0,0:0:0:0:
88,371,144125,5,4,0:0:0:0:
88,371,144520,2,0,P|87:324|119:268,1,104.500003189087,4|0,0:0|0:0,0:0:0:0:
424,370,144915,2,0,P|422:319|398:273,1,104.500003189087,4|0,0:0|0:0,0:0:0:0:
107,193,145310,2,0,P|107:141|129:94,1,104.500003189087,4|0,0:0|0:0,0:0:0:0:
403,192,145704,6,0,P|403:141|382:93,1,104.500003189087,4|0,0:0|0:0,0:0:0:0:
479,236,146099,1,8,0:0:0:0:
194,30,146296,1,4,0:0:0:0:
194,30,146691,5,0,0:0:0:0:
194,30,146889,1,8,0:0:0:0:
318,354,147086,1,4,0:0:0:0:
318,30,147481,5,0,0:0:0:0:
318,30,147678,1,8,0:0:0:0:
194,354,147876,1,4,0:0:0:0:
126,122,148270,5,8,0:0:0:0:
386,122,148468,1,8,0:0:0:0:
256,319,148664,1,0,0:0:0:0:
126,122,148863,6,0,L|107:19,1,104.500003189087,4|0,0:0|0:0,0:0:0:0:
404,19,149257,2,0,L|385:121,1,104.500003189087,8|0,0:0|0:0,0:0:0:0:
334,217,149651,1,0,0:0:0:0:
256,70,149849,1,0,0:0:0:0:
178,217,150046,1,8,0:0:0:0:
409,295,150244,6,0,P|445:212|380:119,1,209.000006378174,4|0,0:0|0:0,0:0:0:0:
177,217,150836,2,0,P|132:190|108:145,1,104.500003189087,8|0,0:0|0:0,0:0:0:0:
256,70,151231,1,8,0:0:0:0:
256,70,151330,1,0,0:0:0:0:
255,70,151428,2,0,P|281:67|307:72,1,52.2500015945435
434,132,151626,1,8,0:0:0:0:
434,132,151724,1,0,0:0:0:0:
434,132,151823,2,0,P|409:130|384:121,1,52.2500015945435
387,30,152020,5,6,0:0:0:0:
473,206,152218,1,0,0:0:0:0:
296,253,152415,2,0,L|307:159,1,95,8|0,0:0|0:0,0:0:0:0:
397,41,152810,1,2,0:0:0:0:
390,245,153007,1,2,0:0:0:0:
173,293,153205,2,0,L|183:198,1,95,8|0,0:0|0:0,0:0:0:0:
318,14,153599,5,0,0:0:0:0:
183,198,153797,1,0,0:0:0:0:
20,350,153994,2,0,L|30:255,1,95,8|0,0:0|0:0,0:0:0:0:
193,78,154389,1,8,0:0:0:0:
193,78,154488,1,0,0:0:0:0:
193,78,154586,2,0,L|201:133,1,47.5
314,205,154784,1,8,0:0:0:0:
314,205,154882,1,0,0:0:0:0:
314,205,154981,2,0,L|306:153,1,47.5
397,119,155178,5,4,0:0:0:0:
464,332,155376,1,0,0:0:0:0:
251,262,155573,1,8,0:0:0:0:
183,65,155770,5,0,0:0:0:0:
114,32,155968,1,0,0:0:0:0:
42,55,156165,1,0,0:0:0:0:
6,122,156363,1,0,0:0:0:0:
160,274,156560,6,0,P|202:279|251:261,1,95,4|0,0:0|0:0,0:0:0:0:
318,66,156955,1,0,0:0:0:0:
194,197,157152,1,8,0:0:0:0:
381,226,157349,2,0,P|427:221|467:195,1,95,2|0,0:0|0:0,0:0:0:0:
379,33,157744,1,0,0:0:0:0:
223,123,157941,2,0,P|183:114|142:70,1,95,8|0,0:0|0:0,0:0:0:0:
72,163,158336,5,2,0:0:0:0:
257,14,158534,1,2,0:0:0:0:
425,102,158731,1,8,0:0:0:0:
476,45,158928,5,2,0:0:0:0:
505,125,159126,1,0,0:0:0:0:
446,183,159323,1,0,0:0:0:0:
370,148,159520,1,8,0:0:0:0:
370,148,159619,1,8,0:0:0:0:
370,148,159718,6,0,P|339:118|322:64,1,95,4|0,0:0|0:0,0:0:0:0:
142,236,160113,2,0,P|170:262|190:315,1,95,2|8,0:0|0:0,0:0:0:0:
323,314,160507,2,0,P|337:269|370:235,1,95,2|8,0:0|0:0,0:0:0:0:
188,69,160902,2,0,P|174:114|141:148,1,95,8|0,0:0|0:0,0:0:0:0:
90,62,161297,1,0,0:0:0:0:
225,189,161494,6,0,P|249:162|264:130,1,71.2500027179719,4|0,0:0|0:0,0:0:0:0:
142,236,161889,2,0,L|53:246,1,71.2500027179719
19,336,162284,2,0,L|104:338,1,71.2500027179719,8|0,0:0|0:0,0:0:0:0:
212,373,162678,1,0,0:0:0:0:
322,313,162876,2,0,L|314:243,1,71.2500027179719,2|0,0:0|0:0,0:0:0:0:
232,180,163270,5,0,0:0:0:0:
142,236,163468,2,0,P|130:207|129:161,1,71.2500027179719,2|0,0:0|0:0,0:0:0:0:
239,173,163863,1,2,0:0:0:0:
370,236,164060,2,0,P|382:203|378:147,1,71.2500027179719,2|8,0:0|0:0,0:0:0:0:
246,165,164455,1,0,0:0:0:0:
383,167,164652,6,0,P|391:132|374:70,1,95,4|0,0:0|0:0,0:0:0:0:
222,91,165047,1,8,0:0:0:0:
222,91,165244,2,0,P|173:82|141:42,1,95,0|0,0:0|0:0,0:0:0:0:
289,6,165639,1,0,0:0:0:0:
377,75,165836,2,0,P|423:85|470:80,1,95,8|0,0:0|0:0,0:0:0:0:
449,274,166231,6,0,P|413:243|366:238,1,95,2|0,0:0|0:0,0:0:0:0:
220,278,166626,1,8,0:0:0:0:
220,278,166823,2,0,P|179:272|139:230,1,95
256,153,167218,1,0,0:0:0:0:
141,235,167415,2,0,L|139:329,1,95,8|0,0:0|0:0,0:0:0:0:
371,149,167810,6,0,L|375:34,1,95,2|0,0:0|0:0,0:0:0:0:
256,22,168205,1,8,0:0:0:0:
204,207,168402,1,0,0:0:0:0:
334,364,168599,1,8,0:0:0:0:
334,364,168797,2,0,P|380:359|414:327,1,95
256,153,169191,6,0,P|210:138|163:139,1,95
11,238,169586,1,0,0:0:0:0:
306,296,169784,1,8,0:0:0:0:
158,66,169981,1,8,0:0:0:0:
90,383,170178,1,8,0:0:0:0:
310,202,170376,1,2,0:0:0:0:
7,144,170573,2,0,B|11:238,1,95,8|0,0:0|0:0,0:0:0:0:
306,296,170968,6,0,B|310:198,1,95,4|0,0:0|0:0,0:0:0:0:
112,197,171363,2,0,L|109:291,1,95,8|0,0:0|0:0,0:0:0:0:
221,379,171757,5,0,0:0:0:0:
247,158,171955,1,0,0:0:0:0:
425,316,172152,1,8,0:0:0:0:
456,119,172349,1,0,0:0:0:0:
250,63,172547,6,0,L|246:157,1,95
311,320,172941,1,8,0:0:0:0:
467,218,173139,1,0,0:0:0:0:
359,59,173336,1,0,0:0:0:0:
153,59,173534,1,0,0:0:0:0:
233,236,173731,2,0,L|338:228,1,95,8|0,0:0|0:0,0:0:0:0:
375,27,174126,5,0,0:0:0:0:
160,65,174323,1,0,0:0:0:0:
233,236,174520,2,0,L|247:342,1,95,8|0,0:0|0:0,0:0:0:0:
316,148,174915,1,0,0:0:0:0:
132,192,175113,1,0,0:0:0:0:
245,330,175310,2,0,L|339:341,1,95,8|0,0:0|0:0,0:0:0:0:
60,265,175705,6,0,L|64:153,1,95,4|0,0:0|0:0,0:0:0:0:
229,43,176099,1,8,0:0:0:0:
325,223,176297,1,0,0:0:0:0:
148,371,176494,6,0,L|138:276,1,95,4|0,0:0|0:0,0:0:0:0:
241,60,176889,1,8,0:0:0:0:
387,184,177086,1,0,0:0:0:0:
130,192,177284,6,0,L|126:97,1,95,4|0,0:0|0:0,0:0:0:0:
261,77,177678,1,8,0:0:0:0:
48,135,177876,1,0,0:0:0:0:
282,88,178073,1,0,0:0:0:0:
172,277,178270,1,0,0:0:0:0:
308,100,178468,2,0,L|319:-9,1,95,8|0,0:0|0:0,0:0:0:0:
505,91,178863,5,0,0:0:0:0:
329,291,179060,1,0,0:0:0:0:
334,105,179257,1,8,0:0:0:0:
500,262,179455,1,0,0:0:0:0:
260,197,179652,1,0,0:0:0:0:
402,38,179849,1,0,0:0:0:0:
500,262,180047,2,0,L|504:366,1,95,8|0,0:0|0:0,0:0:0:0:
409,132,180441,6,0,L|401:37,1,95,4|0,0:0|0:0,0:0:0:0:
110,38,180836,2,0,L|103:132,1,95,8|0,0:0|0:0,0:0:0:0:
16,273,181231,1,0,0:0:0:0:
320,304,181428,1,8,0:0:0:0:
209,64,181626,1,8,0:0:0:0:
102,252,181823,2,0,L|109:346,1,95,4|0,0:0|0:0,0:0:0:0:
267,358,182218,1,0,0:0:0:0:
401,184,182415,5,8,0:0:0:0:
174,160,182613,1,0,0:0:0:0:
399,274,182810,2,0,B|411:245|411:245|397:201|397:201|406:168,1,95
406,52,183106,1,0,0:0:0:0:
421,40,183205,1,0,0:0:0:0:
439,35,183303,1,0,0:0:0:0:
457,33,183402,1,0,0:0:0:0:
475,37,183501,1,0,0:0:0:0:
495,47,183599,6,0,L|486:162,1,104.500003189087,4|0,0:0|0:0,0:0:0:0:
323,236,183994,1,8,0:0:0:0:
498,336,184191,2,0,L|486:233,1,104.500003189087,0|2,0:0|0:0,0:0:0:0:
256,120,184586,1,2,0:0:0:0:
14,336,184784,1,8,0:0:0:0:
24,101,184981,1,0,0:0:0:0:
206,217,185178,6,0,B|257:236|257:236|303:218,1,104.500003189087,2|0,0:0|0:0,0:0:0:0:
58,159,185573,1,8,0:0:0:0:
208,193,185770,2,0,B|256:209|256:209|326:186,1,104.500003189087,0|2,0:0|0:0,0:0:0:0:
451,34,186165,1,2,0:0:0:0:
256,120,186363,1,8,0:0:0:0:
61,34,186560,1,0,0:0:0:0:
208,176,186757,6,0,B|256:192|256:192|326:169,1,104.500003189087,4|0,0:0|0:0,0:0:0:0:
448,109,187152,1,8,0:0:0:0:
369,301,187349,1,0,0:0:0:0:
256,16,187547,1,2,0:0:0:0:
143,301,187744,1,2,0:0:0:0:
65,110,187941,1,8,0:0:0:0:
256,368,188139,1,0,0:0:0:0:
77,213,188336,6,0,B|64:109,1,104.500003189087,4|0,0:0|0:0,0:0:0:0:
448,109,188731,2,0,L|436:212,1,104.500003189087,8|0,0:0|0:0,0:0:0:0:
70,317,189126,2,0,B|77:212,1,104.500003189087,6|0,0:0|0:0,0:0:0:0:
435,212,189520,2,0,L|442:319,1,104.500003189087,12|0,0:0|0:0,0:0:0:0:
155,351,189915,6,0,L|164:228,1,104.500003189087,2|0,0:0|0:0,0:0:0:0:
357,33,190310,2,0,L|349:137,1,104.500003189087,8|0,0:0|0:0,0:0:0:0:
162,246,190705,1,2,0:0:0:0:
133,208,190803,1,0,0:0:0:0:
138,161,190902,1,0,0:0:0:0:
165,123,191001,1,0,0:0:0:0:
206,100,191099,1,8,0:0:0:0:
392,278,191297,1,0,0:0:0:0:
149,363,191494,6,0,P|107:342|83:289,1,104.500003189087,2|0,0:0|0:0,0:0:0:0:
135,59,191889,1,8,0:0:0:0:
384,182,192086,1,0,0:0:0:0:
158,267,192284,1,2,0:0:0:0:
197,22,192481,1,2,0:0:0:0:
399,174,192678,2,0,L|392:287,1,104.500003189087,8|0,0:0|0:0,0:0:0:0:
245,344,193073,5,2,0:0:0:0:
504,214,193270,1,2,0:0:0:0:
275,39,193468,2,0,L|268:146,1,104.500003189087,8|0,0:0|0:0,0:0:0:0:
54,281,193863,5,2,0:0:0:0:
179,12,194060,1,2,0:0:0:0:
478,93,194257,1,2,0:0:0:0:
107,141,194455,1,4,0:0:0:0:
256,192,194553,12,0,197415,0:0:0:0:
151,307,197612,5,0,0:0:0:0:
151,307,197711,1,0,0:0:0:0:
151,307,197810,1,0,0:0:0:0:
256,263,198007,1,0,0:0:0:0:
361,307,198204,1,0,0:0:0:0:
475,312,198402,2,0,P|470:275|451:245,1,71.2500027179719
349,197,198797,1,0,0:0:0:0:
235,191,198994,1,0,0:0:0:0:
138,130,199191,1,0,0:0:0:0:
138,130,199290,1,0,0:0:0:0:
138,130,199389,5,0,0:0:0:0:
241,82,199586,1,0,0:0:0:0:
354,71,199783,1,0,0:0:0:0:
443,141,199981,2,0,P|478:143|509:127,1,71.2500027179719
463,40,200376,1,0,0:0:0:0:
348,48,200573,1,0,0:0:0:0:
230,59,200770,1,0,0:0:0:0:
140,239,200968,5,0,0:0:0:0:
229,320,201165,1,0,0:0:0:0:
117,367,201362,1,0,0:0:0:0:
36,276,201560,2,0,P|33:244|41:200,1,71.2500027179719
92,45,201954,1,0,0:0:0:0:
185,186,202152,1,0,0:0:0:0:
236,51,202349,1,0,0:0:0:0:
406,198,202547,5,4,0:0:0:0:
406,198,202941,2,0,L|519:184,1,95,4|0,0:0|0:0,0:0:0:0:
106,198,203336,2,0,L|-7:184,1,95,4|0,0:0|0:0,0:0:0:0:
384,308,203731,2,0,L|497:294,1,95,4|0,0:0|0:0,0:0:0:0:
128,308,204126,6,0,L|15:294,1,95,4|0,0:0|0:0,0:0:0:0:
138,133,204520,1,8,0:0:0:0:
384,308,204718,1,4,0:0:0:0:
384,308,205113,5,0,0:0:0:0:
478,296,205310,1,8,0:0:0:0:
192,47,205507,1,4,0:0:0:0:
128,308,205902,5,0,0:0:0:0:
32,297,206099,1,8,0:0:0:0:
320,47,206296,1,4,0:0:0:0:
320,337,206691,5,2,0:0:0:0:
44,373,206889,1,2,0:0:0:0:
89,106,207086,1,2,0:0:0:0:
199,374,207284,5,4,0:0:0:0:
315,148,207481,1,0,0:0:0:0:
23,155,207678,1,8,0:0:0:0:
163,307,207876,1,0,0:0:0:0:
152,64,208073,1,0,0:0:0:0:
304,223,208270,2,0,P|346:215|387:181,1,95,0|8,0:0|0:0,0:0:0:0:
173,138,208665,2,0,P|126:135|89:106,1,95,4|0,0:0|0:0,0:0:0:0:
256,39,209060,5,8,0:0:0:0:
256,39,209159,1,0,0:0:0:0:
256,39,209257,2,0,P|297:17|349:25,1,95,8|0,0:0|0:0,0:0:0:0:
475,165,209652,2,0,P|438:184|374:178,1,95,8|0,0:0|0:0,0:0:0:0:
241,111,210047,1,8,0:0:0:0:
241,111,210145,1,0,0:0:0:0:
241,111,210244,2,0,L|246:165,1,47.5
183,297,210441,5,4,0:0:0:0:
157,78,210639,1,0,0:0:0:0:
325,186,210835,1,8,0:0:0:0:
78,314,211033,2,0,P|53:274|54:215,1,104.500003189087
224,31,211428,1,0,0:0:0:0:
275,267,211625,1,8,0:0:0:0:
99,148,211822,1,0,0:0:0:0:
380,106,212020,5,0,0:0:0:0:
398,355,212218,1,0,0:0:0:0:
210,223,212414,1,8,0:0:0:0:
457,314,212612,2,0,P|493:278|501:227,1,104.500003189087
437,35,213007,1,0,0:0:0:0:
391,280,213204,1,8,0:0:0:0:
228,107,213401,1,0,0:0:0:0:
85,328,213599,5,0,0:0:0:0:
327,377,213797,1,0,0:0:0:0:
176,159,213993,1,8,0:0:0:0:
391,280,214191,2,0,P|416:249|430:164,1,104.500003189087
354,20,214585,1,0,0:0:0:0:
210,223,214783,1,8,0:0:0:0:
66,27,214980,1,0,0:0:0:0:
397,93,215178,5,4,0:0:0:0:
397,93,215572,2,0,P|443:103|503:89,1,104.500003189087,4|0,0:0|0:0,0:0:0:0:
115,93,215968,2,0,P|72:103|-3:81,1,104.500003189087,4|0,0:0|0:0,0:0:0:0:
387,293,216362,2,0,P|406:244|400:193,1,104.500003189087,4|0,0:0|0:0,0:0:0:0:
123,291,216757,6,0,P|105:243|110:191,1,104.500003189087,4|0,0:0|0:0,0:0:0:0:
256,33,217151,1,8,0:0:0:0:
256,351,217349,1,4,0:0:0:0:
256,351,217744,5,0,0:0:0:0:
174,37,217941,1,8,0:0:0:0:
123,291,218139,1,4,0:0:0:0:
123,291,218534,5,0,0:0:0:0:
338,37,218731,1,8,0:0:0:0:
389,291,218928,1,4,0:0:0:0:
389,291,219323,5,8,0:0:0:0:
256,111,219520,1,8,0:0:0:0:
123,291,219717,1,0,0:0:0:0:
443,242,219915,6,0,L|459:118,1,104.500003189087,4|0,0:0|0:0,0:0:0:0:
56,139,220310,2,0,L|71:255,1,104.500003189087,8|0,0:0|0:0,0:0:0:0:
180,344,220704,1,0,0:0:0:0:
443,242,220902,1,0,0:0:0:0:
164,170,221099,1,8,0:0:0:0:
443,242,221297,6,0,P|484:148|447:53,1,209.000006378174,4|0,0:0|0:0,0:0:0:0:
248,80,221889,2,0,P|198:67|160:32,1,104.500003189087,8|0,0:0|0:0,0:0:0:0:
320,33,222284,1,8,0:0:0:0:
320,33,222382,1,0,0:0:0:0:
320,33,222481,2,0,P|358:30|395:49,1,52.2500015945435
362,173,222678,1,0,0:0:0:0:
362,173,222777,1,0,0:0:0:0:
362,173,222876,2,0,P|347:151|340:126,1,52.2500015945435
459,87,223073,5,6,0:0:0:0:
443,242,223270,1,0,0:0:0:0:
345,347,223468,2,0,L|231:329,1,95,8|0,0:0|0:0,0:0:0:0:
277,202,223863,1,2,0:0:0:0:
435,328,224060,1,2,0:0:0:0:
192,281,224257,2,0,L|189:186,1,95,8|0,0:0|0:0,0:0:0:0:
304,30,224652,5,2,0:0:0:0:
357,258,224849,1,2,0:0:0:0:
138,116,225047,5,8,0:0:0:0:
138,116,225145,1,0,0:0:0:0:
138,116,225244,2,0,L|161:49,1,47.5
269,131,225441,1,8,0:0:0:0:
269,131,225540,1,0,0:0:0:0:
269,131,225639,2,0,L|203:154,1,47.5
107,225,225836,1,8,0:0:0:0:
107,225,225935,1,0,0:0:0:0:
107,225,226034,2,0,L|164:204,1,47.5,8|0,0:0|0:0,0:0:0:0:
285,224,226231,5,4,0:0:0:0:
222,54,226428,1,0,0:0:0:0:
44,153,226626,1,8,0:0:0:0:
285,224,226823,2,0,P|327:217|369:178,1,95
427,10,227218,1,4,0:0:0:0:
220,43,227415,1,2,0:0:0:0:
400,109,227613,1,8,0:0:0:0:
400,109,227711,1,8,0:0:0:0:
400,109,227810,5,8,0:0:0:0:
190,165,228007,1,0,0:0:0:0:
356,308,228205,1,8,0:0:0:0:
132,333,228402,2,0,P|132:286|150:241,1,95,2|0,0:0|0:0,0:0:0:0:
310,133,228797,2,0,P|313:109|309:86,1,47.5,8|0,0:0|0:0,0:0:0:0:
219,32,228994,1,2,0:0:0:0:
219,32,229093,1,0,0:0:0:0:
219,32,229191,2,0,L|170:40,1,47.5
81,101,229389,5,4,0:0:0:0:
32,275,229586,1,0,0:0:0:0:
235,242,229784,1,8,0:0:0:0:
5,132,229981,2,0,P|4:89|28:33,1,95
170,87,230376,5,4,0:0:0:0:
329,310,230573,1,2,0:0:0:0:
124,208,230770,1,8,0:0:0:0:
124,208,230869,1,8,0:0:0:0:
124,208,230968,5,8,0:0:0:0:
314,168,231165,1,0,0:0:0:0:
232,374,231363,1,8,0:0:0:0:
409,255,231560,2,0,P|416:213|398:161,1,95,0|2,0:0|0:0,0:0:0:0:
250,52,231955,1,2,0:0:0:0:
135,215,232152,2,0,P|178:223|247:181,1,95,8|0,0:0|0:0,0:0:0:0:
387,32,232547,5,4,0:0:0:0:
172,141,232744,1,2,0:0:0:0:
348,263,232941,1,8,0:0:0:0:
91,148,233139,2,0,L|82:38,1,95,2|0,0:0|0:0,0:0:0:0:
321,43,233534,5,4,0:0:0:0:
191,341,233731,1,2,0:0:0:0:
468,359,233928,1,8,0:0:0:0:
468,359,234027,1,8,0:0:0:0:
468,359,234126,5,8,0:0:0:0:
353,184,234323,1,2,0:0:0:0:
207,51,234520,1,8,0:0:0:0:
98,250,234718,2,0,L|87:345,1,95,8|0,0:0|0:0,0:0:0:0:
414,134,235113,2,0,L|426:39,1,95,4|0,0:0|0:0,0:0:0:0:
256,192,235705,12,0,244389,0:0:0:0:
