osu file format v14

[General]
AudioFilename: op full ver.mp3
AudioLeadIn: 0
PreviewTime: 52349
Countdown: 0
SampleSet: Soft
StackLeniency: 0.7
Mode: 0
LetterboxInBreaks: 0
WidescreenStoryboard: 0

[Editor]
Bookmarks: 442,13073,25507,38731,52547,65178,77810,87284,99718,112941,126757,139389,152020,155178,197810,210441,223073,226231,235705
DistanceSpacing: 1.1
BeatDivisor: 2
GridSize: 8
TimelineZoom: 1.4

[Metadata]
Title:oath sign
TitleUnicode:oath sign
Artist:LiSA
ArtistUnicode:LiSA
Creator:smallboat
Version:Easy
Source:Fate/Zero
Tags:フェイト opening type moon ufotable aniplex 2011 2012 anime visual novel game comic movie card saber archer seven master servant sword fire ghost magic gate four holy cup survive battle break fantasy legend Takeuchi Takashi Urobuchi Gen
BeatmapID:1126459
BeatmapSetID:531561

[Difficulty]
HPDrainRate:3
CircleSize:2.8
OverallDifficulty:2.6
ApproachRate:3
SliderMultiplier:0.8
SliderTickRate:1

[Events]
//Background and Video events
0,0,"bg1.jpg",0,0
Video,0,"amv.flv"
//Break Periods
2,10114,11633
2,84326,85844
2,194655,196370
//Storyboard Layer 0 (Background)
//Storyboard Layer 1 (Fail)
//Storyboard Layer 2 (Pass)
//Storyboard Layer 3 (Foreground)
//Storyboard Sound Samples

[TimingPoints]
442,394.736842105263,4,2,4,30,1,0
442,-100,4,2,4,30,0,0
12481,-100,4,2,4,10,0,0
13073,-100,4,2,4,40,0,0
13270,-100,4,2,1,55,0,0
25507,-100,4,2,3,45,0,0
25705,-100,4,2,1,80,0,0
31823,-100,4,2,3,35,0,0
32020,-100,4,2,1,80,0,0
36560,-100,4,2,2,70,0,0
36757,-100,4,2,1,80,0,0
38336,-100,4,2,1,40,0,0
38731,-100,4,2,1,55,0,0
44652,-100,4,2,2,70,0,0
44849,-100,4,2,1,70,0,0
47810,-100,4,2,1,75,0,0
48402,-100,4,2,2,60,0,0
48599,-100,4,2,1,75,0,0
49191,-100,4,2,2,60,0,0
49389,-100,4,2,1,75,0,0
50770,-100,4,2,2,75,0,0
50968,-100,4,2,1,75,0,0
51165,-100,4,2,10,85,0,0
51757,-100,4,2,1,85,0,0
52349,-100,4,2,1,70,0,0
52547,-100,4,2,2,95,0,1
52941,-100,4,2,9,95,0,1
53139,-100,4,2,2,95,0,1
54520,-100,4,2,9,95,0,1
54718,-100,4,2,2,95,0,1
56099,-100,4,2,9,95,0,1
56297,-100,4,2,2,95,0,1
61428,-100,4,2,1,95,0,1
62020,-100,4,2,2,95,0,1
62415,-100,4,2,9,95,0,1
62613,-100,4,2,2,95,0,1
65178,-100,4,2,2,95,0,1
65573,-100,4,2,9,95,0,1
65770,-100,4,2,2,95,0,1
67152,-100,4,2,9,95,0,1
67349,-100,4,2,2,95,0,1
68731,-100,4,2,9,95,0,1
68928,-100,4,2,2,95,0,1
75047,-100,4,2,9,95,0,1
75244,-100,4,2,2,95,0,1
77020,-100,4,2,9,95,0,1
77218,-100,4,2,2,95,0,1
77810,-100,4,2,1,40,0,0
79389,-100,4,2,1,50,0,0
79784,-100,4,2,1,45,0,0
80968,-100,4,2,1,70,0,1
81363,-100,4,2,10,70,0,1
81560,-100,4,2,1,70,0,1
81955,-100,4,2,5,40,0,1
82547,-100,4,2,1,75,0,1
82941,-100,4,2,10,75,0,1
83139,-100,4,2,1,75,0,1
83534,-100,4,2,1,35,0,1
84126,-100,4,2,1,50,0,0
87284,-100,4,2,8,20,0,0
87481,-100,4,2,8,50,0,0
87678,-100,4,2,11,50,0,0
88468,-100,4,2,8,50,0,0
89257,-100,4,2,11,50,0,0
90047,-100,4,2,8,50,0,0
90836,-100,4,2,11,50,0,0
91626,-100,4,2,8,50,0,0
92415,-100,4,2,11,50,0,0
93205,-100,4,2,8,50,0,0
93600,-100,4,2,8,65,0,0
99718,-100,4,2,3,45,0,0
99915,-100,4,2,1,80,0,0
106034,-100,4,2,3,30,0,0
106231,-100,4,2,1,80,0,0
110770,-100,4,2,2,70,0,0
110968,-100,4,2,1,80,0,0
112547,-100,4,2,1,40,0,0
112941,-100,4,2,1,55,0,0
118863,-100,4,2,2,70,0,0
119060,-100,4,2,1,70,0,0
122020,-100,4,2,1,75,0,0
122415,-100,4,2,10,75,0,0
122613,-100,4,2,2,60,0,0
122810,-100,4,2,1,75,0,0
123402,-100,4,2,2,60,0,0
123599,-100,4,2,1,75,0,0
124981,-100,4,2,2,75,0,0
125178,-100,4,2,1,75,0,0
125376,-100,4,2,10,85,0,0
125968,-100,4,2,1,85,0,0
126560,-100,4,2,1,70,0,0
126757,-100,4,2,2,95,0,1
127152,-100,4,2,9,95,0,1
127349,-100,4,2,2,95,0,1
128731,-100,4,2,9,95,0,1
128928,-100,4,2,2,95,0,1
130310,-100,4,2,9,95,0,1
130507,-100,4,2,2,95,0,1
135639,-100,4,2,1,95,0,1
136231,-100,4,2,2,95,0,1
136626,-100,4,2,9,95,0,1
136823,-100,4,2,2,95,0,1
139389,-100,4,2,2,95,0,1
139784,-100,4,2,9,95,0,1
139981,-100,4,2,2,95,0,1
141363,-100,4,2,9,95,0,1
141560,-100,4,2,2,95,0,1
142941,-100,4,2,9,95,0,1
143139,-100,4,2,2,95,0,1
149257,-100,4,2,9,95,0,1
149455,-100,4,2,2,95,0,1
151231,-100,4,2,9,95,0,1
151428,-100,4,2,2,95,0,1
152020,-100,4,2,1,60,0,0
153599,-100,4,2,1,50,0,0
153994,-100,4,2,1,45,0,0
155178,-100,4,2,1,40,0,0
156560,-100,4,2,4,60,0,0
156757,-100,4,2,1,60,0,0
158928,-100,4,2,1,35,0,0
159718,-100,4,2,2,70,0,0
159915,-100,4,2,1,70,0,0
161494,-100,4,2,4,65,0,0
161691,-100,4,2,1,55,0,0
164652,-100,4,2,4,75,0,0
164849,-100,4,2,1,75,0,0
165047,-100,4,2,10,75,0,0
165244,-100,4,2,1,75,0,0
166626,-100,4,2,10,75,0,0
166823,-100,4,2,1,75,0,0
169784,-100,4,2,1,80,0,0
170968,-100,4,2,4,75,0,0
171165,-100,4,2,1,85,0,0
175705,-100,4,2,2,70,0,0
175902,-100,4,2,1,90,0,0
176494,-100,4,2,2,80,0,0
176691,-100,4,2,1,90,0,0
177284,-100,4,2,4,60,0,0
177481,-100,4,2,1,90,0,0
180441,-100,4,2,2,70,0,0
180639,-100,4,2,1,90,0,0
181626,-100,4,2,10,90,0,0
181823,-100,4,2,2,60,0,0
182020,-100,4,2,1,90,0,0
183599,-100,4,2,4,100,0,1
183797,-100,4,2,1,100,0,1
183994,-100,4,2,10,100,0,1
184191,-100,4,2,1,100,0,1
185573,-100,4,2,10,100,0,1
185770,-100,4,2,1,100,0,1
186757,-100,4,2,2,80,0,1
186955,-100,4,2,1,100,0,1
187152,-100,4,2,10,100,0,1
187349,-100,4,2,1,100,0,1
188336,-100,4,2,2,80,0,1
188534,-100,4,2,1,100,0,1
189126,-100,4,2,6,80,0,1
189323,-100,4,2,1,100,0,1
189520,-100,4,2,6,80,0,1
189718,-100,4,2,1,100,0,1
194455,-100,4,2,1,45,0,0
197810,-100,4,2,1,40,0,0
202547,-100,4,2,2,70,0,0
204126,-100,4,2,2,85,0,0
206691,-100,4,2,1,85,0,0
207284,-100,4,2,2,85,0,0
207678,-100,4,2,9,85,0,0
207876,-100,4,2,2,85,0,0
210441,-100,4,2,2,95,0,1
210836,-100,4,2,9,95,0,1
211034,-100,4,2,2,95,0,1
212415,-100,4,2,9,95,0,1
212613,-100,4,2,2,95,0,1
213994,-100,4,2,9,95,0,1
214191,-100,4,2,2,95,0,1
216757,-100,4,2,2,95,0,1
220310,-100,4,2,9,95,0,1
220507,-100,4,2,2,95,0,1
222284,-100,4,2,9,95,0,1
222481,-100,4,2,2,95,0,1
223073,-100,4,2,1,70,0,0
224652,-100,4,2,1,50,0,0
225047,-100,4,2,1,80,0,0
226231,-100,4,2,2,85,0,0
226428,-100,4,2,1,85,0,0
226626,-100,4,2,10,85,0,0
226823,-100,4,2,1,85,0,0
227218,-100,4,2,2,75,0,0
227415,-100,4,2,1,85,0,0
228205,-100,4,2,10,85,0,0
228402,-100,4,2,1,85,0,0
229389,-100,4,2,2,70,0,0
229586,-100,4,2,1,70,0,0
229784,-100,4,2,10,70,0,0
229981,-100,4,2,1,70,0,0
230376,-100,4,2,2,70,0,0
230573,-100,4,2,1,70,0,0
231363,-100,4,2,10,70,0,0
231560,-100,4,2,1,70,0,0
232547,-100,4,2,2,70,0,0
232744,-100,4,2,1,70,0,0
232941,-100,4,2,10,70,0,0
233139,-100,4,2,1,70,0,0
233534,-100,4,2,2,70,0,0
233731,-100,4,2,1,70,0,0
234520,-100,4,2,10,70,0,0
234718,-100,4,2,1,70,0,0
235113,-100,4,2,1,45,0,0
235705,-100,4,2,1,5,0,0

[Colours]
Combo1 : 181,0,181
Combo2 : 253,253,0
Combo3 : 0,101,223
Combo4 : 0,230,0
Combo5 : 187,0,0

[HitObjects]
211,305,442,5,0,0:0:0:0:
129,336,836,2,0,P|88:342|42:327,2,80
142,248,2020,2,0,L|125:137,2,80
304,316,3599,5,0,0:0:0:0:
390,299,3994,2,0,P|375:260|325:237,2,80
472,329,5178,2,0,P|489:294|497:254,1,80
482,166,5968,2,0,P|456:137|442:100,1,80
410,16,6757,5,0,0:0:0:0:
322,20,7152,2,0,L|237:11,2,80
369,94,8336,2,0,P|296:126|218:116,2,160
123,125,13073,6,0,P|155:80|143:15,2,120,4|0|0,0:0|0:0|0:0,0:0:0:0:
43,163,14652,2,0,P|32:105|65:56,2,120,2|0|2,0:0|0:0|0:0,0:0:0:0:
80,242,16231,6,0,P|83:302|60:370,2,120,2|0|2,0:0|0:0|0:0,0:0:0:0:
141,178,17810,2,0,P|197:158|256:158,2,120,2|2|0,0:0|0:0|0:0,0:0:0:0:
162,263,19389,6,0,P|181:323|231:348,2,120,0|0|2,0:0|0:0|0:0,0:0:0:0:
250,261,20968,2,0,P|312:251|372:191,2,120,2|0|2,0:0|0:0|0:0,0:0:0:0:
186,199,22547,5,2,0:0:0:0:
160,114,22941,1,2,0:0:0:0:
196,34,23336,2,0,L|275:24,1,80,2|2,0:0|0:0,0:0:0:0:
362,40,24126,1,0,0:0:0:0:
448,24,24520,2,0,L|477:189,1,160,0|10,0:0|0:0,0:0:0:0:
474,226,25507,6,0,P|420:248|362:238,1,120,4|8,0:0|0:0,0:0:0:0:
282,196,26494,1,2,0:0:0:0:
194,192,26889,2,0,L|181:356,1,160,8|8,0:0|0:0,0:0:0:0:
96,375,28073,1,2,0:0:0:0:
15,339,28468,6,0,P|1:262|23:186,1,160,8|8,0:0|0:0,0:0:0:0:
83,119,29652,2,0,L|67:8,1,80,2|8,0:0|0:0,0:0:0:0:
152,4,30441,1,0,0:0:0:0:
229,45,30836,1,8,0:0:0:0:
312,16,31231,2,0,B|348:2|348:2|388:11,1,80,0|8,0:0|0:0,0:0:0:0:
424,36,31823,6,0,P|460:82|470:141,1,120,4|8,0:0|0:0,0:0:0:0:
440,224,32810,1,2,0:0:0:0:
462,309,33205,2,0,P|396:350|320:332,1,160,8|8,0:0|0:0,0:0:0:0:
238,297,34389,1,2,0:0:0:0:
162,342,34784,2,0,P|85:330|31:273,1,160,8|8,0:0|0:0,0:0:0:0:
18,185,35968,6,0,L|14:76,1,80,2|8,0:0|0:0,0:0:0:0:
38,67,36560,2,0,P|95:88|202:67,1,160,4|2,0:0|0:0,0:0:0:0:
273,40,37744,2,0,L|392:51,1,120,2|4,0:0|0:0,0:0:0:0:
472,87,38731,6,0,P|481:47|462:2,2,80
424,160,39915,2,0,L|433:239,1,80,2|0,0:0|0:0,0:0:0:0:
409,324,40705,2,0,P|369:333|329:328,1,80
246,301,41494,5,2,0:0:0:0:
163,270,41889,2,0,P|161:229|181:176,2,80
110,341,43073,2,0,L|25:330,1,80,2|0,0:0|0:0,0:0:0:0:
18,243,43863,2,0,P|35:207|37:157,1,80
13,83,44652,6,0,P|43:32|107:21,1,120,4|0,0:0|0:0,0:0:0:0:
186,31,45639,1,0,0:0:0:0:
267,64,46034,2,0,L|356:88,1,80
334,172,46823,2,0,P|276:184|206:152,1,120,0|8,0:0|0:0,0:0:0:0:
130,170,47810,6,0,P|126:229|140:287,2,120,8|4|8,0:0|0:0|0:0,0:0:0:0:
160,138,49191,2,0,P|212:164|277:154,1,120,4|8,0:0|0:0,0:0:0:0:
332,219,50178,2,0,P|353:249|349:313,1,80,0|8,0:0|0:0,0:0:0:0:
348,334,50770,2,0,P|445:319|501:229,1,200,4|8,0:0|0:0,0:0:0:0:
484,152,52152,1,8,0:0:0:0:
405,112,52547,6,0,P|435:61|441:2,2,120,4|0|8,0:0|0:0|0:0,0:0:0:0:
330,64,54126,2,0,P|271:63|214:81,2,120,0|0|8,0:0|0:0|0:0,0:0:0:0:
344,150,55705,6,0,P|351:209|339:267,2,120,0|0|8,0:0|0:0|0:0,0:0:0:0:
260,177,57284,1,4,0:0:0:0:
174,158,57678,2,0,L|88:149,2,80,4|4|4,0:0|0:0|0:0,0:0:0:0:
202,241,58863,6,0,P|196:280|180:316,1,80,4|8,0:0|0:0,0:0:0:0:
161,356,59455,2,0,P|88:359|8:330,1,160,4|4,0:0|0:0,0:0:0:0:
16,242,60639,2,0,P|29:202|29:142,1,80,0|4,0:0|0:0,0:0:0:0:
22,76,61428,2,0,L|114:48,1,80,2|2,0:0|0:0,0:0:0:0:
142,56,62020,6,0,P|203:105|281:110,1,160,4|0,0:0|0:0,0:0:0:0:
317,83,63007,2,0,P|352:68|396:71,1,80,0|4,0:0|0:0,0:0:0:0:
459,128,63797,2,0,P|493:220|467:315,1,200,8|0,0:0|0:0,0:0:0:0:
385,282,65178,6,0,P|366:227|380:169,2,120,4|0|8,0:0|0:0|0:0,0:0:0:0:
322,343,66757,2,0,P|269:370|208:348,2,120,4|0|8,0:0|0:0|0:0,0:0:0:0:
263,276,68336,6,0,P|257:215|197:178,2,120,4|0|8,0:0|0:0|0:0,0:0:0:0:
175,262,69915,1,4,0:0:0:0:
114,326,70309,2,0,L|34:317,2,80,4|4|4,0:0|0:0|0:0,0:0:0:0:
93,240,71494,6,0,P|54:235|23:211,1,80,4|8,0:0|0:0,0:0:0:0:
6,169,72086,2,0,P|3:96|32:16,1,160,4|4,0:0|0:0,0:0:0:0:
119,28,73270,2,0,P|154:46|200:39,1,80,0|4,0:0|0:0,0:0:0:0:
257,102,74060,2,0,L|272:195,1,80,8|0,0:0|0:0,0:0:0:0:
290,219,74651,6,0,P|368:214|429:164,1,160,4|0,0:0|0:0,0:0:0:0:
472,86,75836,2,0,L|474:45,1,40,8|4,0:0|0:0,0:0:0:0:
366,3,76626,2,0,P|297:40|255:107,1,160,8|2,0:0|0:0,0:0:0:0:
256,192,77810,12,0,79389,0:0:0:0:
209,174,80968,6,0,P|209:233|237:286,2,120,4|8|0,0:0|0:0|0:0,0:0:0:0:
235,90,82547,2,0,P|289:67|362:67,2,120,0|8|0,0:0|0:0|0:0,0:0:0:0:
209,174,84126,5,4,0:0:0:0:
74,286,87284,6,0,P|38:240|31:181,2,120,4|0|2,0:0|0:0|0:0,0:0:0:0:
140,343,88863,2,0,L|259:334,2,120,8|0|2,0:0|0:0|0:0,0:0:0:0:
152,256,90441,6,0,L|271:247,2,120,8|0|0,0:0|0:0|0:0,0:0:0:0:
117,174,92020,2,0,L|108:54,2,120,8|0|0,0:0|0:0|0:0,0:0:0:0:
201,163,93599,6,0,L|192:43,2,120,8|0|8,0:0|0:0|0:0,0:0:0:0:
282,128,95178,2,0,L|273:8,2,120,8|0|8,0:0|0:0|0:0,0:0:0:0:
365,99,96758,5,8,0:0:0:0:
447,69,97152,1,8,0:0:0:0:
488,146,97547,2,0,L|483:244,1,80,8|8,0:0|0:0,0:0:0:0:
463,311,98337,1,0,0:0:0:0:
392,362,98731,2,0,P|312:368|238:331,1,160,0|0,0:0|0:0,0:0:0:0:
213,300,99718,6,0,P|167:297|90:328,1,120,4|8,0:0|0:0,0:0:0:0:
28,375,100705,1,2,0:0:0:0:
14,288,101100,2,0,P|10:207|26:128,1,160,8|8,0:0|0:0,0:0:0:0:
53,46,102284,1,2,0:0:0:0:
141,46,102679,6,0,P|220:55|297:38,1,160,8|8,0:0|0:0,0:0:0:0:
384,19,103863,2,0,P|423:16|461:28,1,80,2|8,0:0|0:0,0:0:0:0:
493,110,104652,1,0,0:0:0:0:
453,188,105047,1,8,0:0:0:0:
479,271,105442,2,0,L|492:360,1,80,2|8,0:0|0:0,0:0:0:0:
447,363,106034,6,0,P|391:345|331:350,1,120,4|8,0:0|0:0,0:0:0:0:
247,374,107021,1,2,0:0:0:0:
158,360,107416,2,0,P|88:325|47:257,1,160,8|8,0:0|0:0,0:0:0:0:
28,171,108600,1,2,0:0:0:0:
62,89,108995,2,0,P|111:87|206:16,1,160,8|8,0:0|0:0,0:0:0:0:
288,25,110179,6,0,P|301:62|300:108,1,80,2|8,0:0|0:0,0:0:0:0:
310,145,110771,2,0,P|387:159|461:131,1,160,4|2,0:0|0:0,0:0:0:0:
492,213,111955,2,0,L|505:346,1,120,2|4,0:0|0:0,0:0:0:0:
418,352,112942,6,0,L|410:272,2,80
332,374,114126,2,0,L|324:294,1,80
269,225,114915,2,0,L|189:232,1,80,0|2,0:0|0:0,0:0:0:0:
120,288,115705,5,0,0:0:0:0:
42,246,116100,2,0,P|31:284|39:325,2,80
84,168,117284,2,0,P|93:128|78:81,1,80
130,16,118074,2,0,P|172:22|225:7,1,80
217,102,118863,6,0,L|208:234,1,120,4|0,0:0|0:0,0:0:0:0:
279,274,119849,1,0,0:0:0:0:
325,198,120244,2,0,L|308:107,1,80
322,34,121034,2,0,P|373:6|430:18,1,120,0|8,0:0|0:0,0:0:0:0:
389,96,122021,6,0,P|446:105|497:76,2,120,8|4|8,0:0|0:0|0:0,0:0:0:0:
366,133,123402,2,0,P|373:191|347:244,1,120,4|8,0:0|0:0,0:0:0:0:
299,321,124389,2,0,P|259:314|220:321,1,80,0|8,0:0|0:0,0:0:0:0:
184,346,124981,2,0,P|92:309|44:224,1,200,4|8,0:0|0:0,0:0:0:0:
30,137,126363,1,8,0:0:0:0:
45,49,126757,6,0,P|96:19|155:17,2,120,4|0|8,0:0|0:0|0:0,0:0:0:0:
30,137,128336,2,0,P|31:196|13:253,2,120,0|0|8,0:0|0:0|0:0,0:0:0:0:
113,106,129915,6,0,P|172:103|226:127,2,120,4|0|8,0:0|0:0|0:0,0:0:0:0:
107,194,131494,1,4,0:0:0:0:
130,278,131888,2,0,P|117:318|123:359,2,80,4|4|4,0:0|0:0|0:0,0:0:0:0:
205,323,133073,6,0,P|244:318|282:328,1,80,4|8,0:0|0:0,0:0:0:0:
320,350,133665,2,0,P|371:290|442:254,1,160,4|4,0:0|0:0,0:0:0:0:
491,180,134849,2,0,L|483:100,1,80,0|4,0:0|0:0,0:0:0:0:
396,83,135639,2,0,L|403:162,1,80,2|2,0:0|0:0,0:0:0:0:
374,195,136230,6,0,P|313:146|235:141,1,160,4|0,0:0|0:0,0:0:0:0:
203,172,137218,2,0,P|223:206|227:245,1,80,0|4,0:0|0:0,0:0:0:0:
217,333,138007,2,0,P|118:332|38:275,1,200,8|8,0:0|0:0,0:0:0:0:
17,190,139388,6,0,P|9:130|20:72,2,120,4|0|8,0:0|0:0|0:0,0:0:0:0:
101,164,140968,2,0,P|115:106|146:55,2,120,4|0|8,0:0|0:0|0:0,0:0:0:0:
185,188,142547,6,0,P|213:135|256:94,2,120,4|0|8,0:0|0:0|0:0,0:0:0:0:
173,275,144125,1,4,0:0:0:0:
200,357,144520,2,0,P|162:363|125:348,2,80,4|4|4,0:0|0:0|0:0,0:0:0:0:
257,289,145704,6,0,P|295:297|327:321,1,80,4|8,0:0|0:0,0:0:0:0:
348,359,146296,2,0,P|422:335|465:269,1,160,4|4,0:0|0:0,0:0:0:0:
454,182,147481,2,0,P|446:141|462:91,1,80,0|4,0:0|0:0,0:0:0:0:
417,22,148270,2,0,P|378:23|342:40,1,80,8|0,0:0|0:0,0:0:0:0:
324,81,148863,6,0,P|247:98|173:69,1,160,4|0,0:0|0:0,0:0:0:0:
99,21,150046,2,0,L|45:30,1,40,8|4,0:0|0:0,0:0:0:0:
78,158,150836,2,0,P|141:204|220:204,1,160,8|8,0:0|0:0,0:0:0:0:
256,192,152020,12,0,153599,0:0:0:0:
145,89,155178,6,0,L|141:128,1,40,4|0,0:0|0:0,0:0:0:0:
168,212,155770,2,0,P|222:268|300:279,1,160,0|4,0:0|0:0,0:0:0:0:
387,266,156955,1,0,0:0:0:0:
463,222,157349,2,0,P|478:168|458:93,1,120,2|8,0:0|0:0,0:0:0:0:
391,58,158336,6,0,L|378:95,1,40,2|2,0:0|0:0,0:0:0:0:
321,164,158928,2,0,P|243:169|179:124,1,160,2|4,0:0|0:0,0:0:0:0:
93,106,160113,1,2,0:0:0:0:
28,165,160507,1,2,0:0:0:0:
21,252,160902,2,0,L|23:331,1,80,8|0,0:0|0:0,0:0:0:0:
58,359,161494,6,0,P|112:339|220:357,1,160,4|8,0:0|0:0,0:0:0:0:
297,372,162678,2,0,L|336:365,1,40,0|2,0:0|0:0,0:0:0:0:
417,329,163270,2,0,L|446:302,1,40,0|2,0:0|0:0,0:0:0:0:
490,225,163863,2,0,L|485:123,1,80,2|8,0:0|0:0,0:0:0:0:
402,117,164652,6,0,P|398:176|376:232,2,120,4|0|8,0:0|0:0|0:0,0:0:0:0:
317,142,166231,2,0,P|289:194|246:237,2,120,2|0|8,0:0|0:0|0:0,0:0:0:0:
236,105,167810,5,2,0:0:0:0:
157,66,168205,1,8,0:0:0:0:
73,92,168599,2,0,L|22:101,1,40,8|0,0:0|0:0,0:0:0:0:
17,185,169191,2,0,P|75:195|134:185,1,120,0|8,0:0|0:0,0:0:0:0:
193,250,170178,2,0,L|211:344,1,80,8|8,0:0|0:0,0:0:0:0:
284,373,170968,5,4,0:0:0:0:
365,340,171363,1,8,0:0:0:0:
448,366,171757,2,0,L|449:268,1,80,0|8,0:0|0:0,0:0:0:0:
496,211,172547,1,0,0:0:0:0:
462,129,172941,1,8,0:0:0:0:
470,41,173336,2,0,L|369:28,1,80,0|8,0:0|0:0,0:0:0:0:
311,70,174126,5,0,0:0:0:0:
232,31,174520,1,8,0:0:0:0:
145,49,174915,2,0,L|65:56,1,80,0|8,0:0|0:0,0:0:0:0:
18,131,175705,2,0,L|23:210,1,80,4|8,0:0|0:0,0:0:0:0:
57,292,176494,2,0,L|62:371,1,80,4|8,0:0|0:0,0:0:0:0:
148,350,177284,5,4,0:0:0:0:
233,371,177678,1,8,0:0:0:0:
315,339,178073,2,0,L|401:333,1,80,0|8,0:0|0:0,0:0:0:0:
477,364,178863,1,0,0:0:0:0:
497,278,179257,1,8,0:0:0:0:
453,201,179652,2,0,L|373:206,1,80,0|8,0:0|0:0,0:0:0:0:
293,169,180441,5,4,0:0:0:0:
219,217,180836,1,8,0:0:0:0:
151,273,181231,2,0,P|89:272|44:237,1,120,0|4,0:0|0:0,0:0:0:0:
19,153,182218,2,0,L|22:113,1,40,0|8,0:0|0:0,0:0:0:0:
72,40,182810,2,0,L|151:35,1,80
237,54,183599,6,0,P|296:55|353:36,2,120,4|0|8,0:0|0:0|0:0,0:0:0:0:
177,118,185178,2,0,P|175:177|194:234,2,120,2|0|8,0:0|0:0|0:0,0:0:0:0:
262,139,186757,6,0,L|404:129,2,120,4|0|8,0:0|0:0|0:0,0:0:0:0:
292,221,188336,2,0,L|371:214,1,80,4|8,0:0|0:0,0:0:0:0:
448,259,189126,2,0,L|454:338,1,80,6|12,0:0|0:0,0:0:0:0:
373,374,189915,5,2,0:0:0:0:
285,367,190310,2,0,L|205:358,1,80,8|2,0:0|0:0,0:0:0:0:
130,311,191099,1,8,0:0:0:0:
46,339,191494,2,0,L|39:259,1,80,2|8,0:0|0:0,0:0:0:0:
20,173,192284,2,0,L|13:93,1,80,2|8,0:0|0:0,0:0:0:0:
56,16,193073,5,2,0:0:0:0:
134,55,193468,1,8,0:0:0:0:
217,27,193863,2,0,L|233:145,1,120,2|4,0:0|0:0,0:0:0:0:
300,47,197810,6,0,L|430:36,2,120
220,84,199389,2,0,L|90:73,2,120
289,137,200968,6,0,L|419:126,2,120
205,164,202547,1,4,0:0:0:0:
132,213,202941,2,0,P|92:211|57:193,2,80,4|4|4,0:0|0:0|0:0,0:0:0:0:
210,254,204126,6,0,P|228:289|237:328,1,80,4|8,0:0|0:0,0:0:0:0:
269,357,204718,2,0,P|348:360|418:324,1,160,4|4,0:0|0:0,0:0:0:0:
477,259,205902,2,0,L|483:179,1,80,0|4,0:0|0:0,0:0:0:0:
460,94,206691,2,0,L|380:87,1,80,2|2,0:0|0:0,0:0:0:0:
345,115,207283,6,0,P|266:110|205:60,1,160,4|0,0:0|0:0,0:0:0:0:
173,28,208270,2,0,P|134:26|95:35,1,80,0|4,0:0|0:0,0:0:0:0:
30,95,209060,2,0,P|32:193|89:273,1,200,8|8,0:0|0:0,0:0:0:0:
176,255,210441,6,0,P|170:313|129:356,2,120,4|0|8,0:0|0:0|0:0,0:0:0:0:
150,170,212020,2,0,P|155:111|196:68,2,120,0|0|8,0:0|0:0|0:0,0:0:0:0:
235,148,213599,6,0,L|363:140,2,120,0|0|8,0:0|0:0|0:0,0:0:0:0:
196,68,215178,1,4,0:0:0:0:
116,104,215573,2,0,L|107:18,2,80,4|4|4,0:0|0:0|0:0,0:0:0:0:
81,185,216757,6,0,P|75:227|49:275,1,80,4|8,0:0|0:0,0:0:0:0:
48,303,217349,2,0,P|126:304|194:263,1,160,4|4,0:0|0:0,0:0:0:0:
225,181,218533,2,0,L|306:192,1,80,0|4,0:0|0:0,0:0:0:0:
344,270,219323,2,0,P|354:308|349:348,1,80,8|0,0:0|0:0,0:0:0:0:
384,375,219915,6,0,P|446:325|479:253,1,160,4|0,0:0|0:0,0:0:0:0:
473,165,221099,2,0,L|468:125,1,40,8|4,0:0|0:0,0:0:0:0:
336,105,221889,2,0,P|270:146|192:137,1,160,8|0,0:0|0:0,0:0:0:0:
256,192,223073,12,2,224652,0:0:0:0:
304,342,226231,6,0,P|362:328|409:293,2,120,4|0|2,0:0|0:0|0:0,0:0:0:0:
219,315,227810,2,0,P|160:301|113:266,2,120,8|2|2,0:0|0:0|0:0,0:0:0:0:
280,251,229389,6,0,P|338:237|385:202,2,120,4|0|2,0:0|0:0|0:0,0:0:0:0:
210,197,230968,2,0,P|151:183|104:148,2,120,8|0|8,0:0|0:0|0:0,0:0:0:0:
241,113,232547,6,0,P|292:84|351:84,1,120,4|2,0:0|0:0,0:0:0:0:
429,126,233534,1,4,0:0:0:0:
419,257,234126,2,0,P|363:273|304:263,1,120,8|8,0:0|0:0,0:0:0:0:
256,192,235113,1,4,0:0:0:0:
256,192,235705,12,0,244389,0:0:0:0:
