osu file format v9

[General]
AudioFilename: crossing.mp3
AudioLeadIn: 2000
PreviewTime: 45598
Countdown: 0
SampleSet: Soft
StackLeniency: 0.4
Mode: 0
LetterboxInBreaks: 0

[Editor]
DistanceSpacing: 1.2
BeatDivisor: 4
GridSize: 4

[Metadata]
Title:crossing field (TV Size)
Artist:LiSA
Creator:W h i t e
Version:Insane
Source:Sword Art Online
Tags:Opening SAO ignorethis

[Difficulty]
HPDrainRate:8
CircleSize:4
OverallDifficulty:7
ApproachRate:8
SliderMultiplier:1.6
SliderTickRate:1

[Events]
//Background and Video events
0,0,"bg.png"
Video,0,"video.avi"
//Break Periods
//Storyboard Layer 0 (Background)
//Storyboard Layer 1 (Fail)
//Storyboard Layer 2 (Pass)
//Storyboard Layer 3 (Foreground)
//Storyboard Sound Samples
//Background Colour Transformations
3,100,163,162,255

[TimingPoints]
-658,335.195530726257,4,2,1,40,1,0
2693,-100,4,2,1,45,0,0
4369,-100,4,2,1,50,0,0
5375,-100,4,2,1,60,0,0
6380,-100,4,1,1,60,0,0
6464,-100,4,2,1,60,0,0
6715,-100,4,1,1,60,0,0
6799,-100,4,2,1,60,0,0
7051,-100,4,1,1,60,0,0
7134,-100,4,2,1,60,0,0
7386,-100,4,1,1,60,0,0
7470,-100,4,2,1,60,0,0
7721,-100,4,1,1,60,0,0
7805,-100,4,2,1,60,0,0
8056,-100,4,1,1,60,0,0
8140,-100,4,2,1,60,0,0
8391,-100,4,1,1,60,0,0
8475,-100,4,2,1,60,0,0
8727,-100,4,1,1,60,0,0
8810,-100,4,2,1,60,0,0
9062,-100,4,1,1,60,0,0
9146,-100,4,2,1,60,0,0
9397,-100,4,1,1,60,0,0
9481,-100,4,2,1,60,0,0
9732,-100,4,1,1,60,0,0
9816,-100,4,2,1,60,0,0
16771,-100,4,2,1,70,0,0
21464,-100,4,1,1,50,0,0
21799,-100,4,1,1,60,0,0
22134,-100,4,2,1,70,0,0
32190,-100,4,2,1,30,0,0
32525,-100,4,2,1,45,0,0
32861,-100,4,2,1,60,0,0
38224,-100,4,2,1,70,0,0
46268,-100,4,2,1,70,0,1
56324,-100,4,2,1,70,0,0
56995,-100,4,2,1,70,0,1
67721,-100,4,2,1,70,0,0
70905,-80,4,2,1,70,0,0
71576,-66.6666666666667,4,2,1,70,0,0
72246,-100,4,2,1,70,0,0
83810,-100,4,2,1,50,0,0
84648,-100,4,2,1,40,0,0
85486,-100,4,2,1,30,0,0
86324,-100,4,2,1,20,0,0
87162,-100,4,2,1,10,0,0
87833,-100,4,2,1,5,0,0

[Colours]
Combo1 : 255,128,64
Combo2 : 0,255,255
Combo3 : 255,0,0

[HitObjects]
76,292,12,1,2
108,212,179,1,0
160,280,347,1,2
160,280,682,6,0,B|188:328|272:316|292:268,1,160,2|0
28,220,1352,1,8
220,232,1687,1,2
144,56,2023,1,0
148,176,2190,1,8
252,112,2358,1,0
252,112,2693,6,0,B|272:80|320:60|368:80|388:112,1,160,8|0
308,268,3196,1,0
316,252,3280,1,0
320,232,3364,2,0,B|332:192|320:152,1,80,8|0
144,56,3699,2,0,B|132:96|144:136,1,80,8|0
216,216,4034,1,8
216,216,4369,5,0
252,112,4537,2,0,B|340:120|392:52,1,160,2|0
220,36,5039,2,0,B|180:32|144:56,1,80,8|0
64,136,5375,5,2
56,152,5458,1,0
52,172,5542,1,0
52,192,5626,1,0
56,212,5710,1,2
64,232,5794,1,0
76,248,5877,1,0
92,260,5961,1,0
112,268,6045,6,0,B|148:288|188:276,1,80,4|0
220,160,6380,2,0,B|180:171|160:208,1,80,8|0
284,208,6715,2,0,B|312:152|288:96|228:84,1,160,8|0
164,32,7218,1,0
300,36,7386,6,0,B|376:80|452:36,1,160,8|0
408,156,7889,1,0
436,280,8056,2,0,B|452:320|444:360,1,80,8|0
316,240,8391,2,0,B|300:200|308:160,1,80,0|0
352,328,8727,2,0,B|324:356|287:344|279:328|271:312|236:300|207:328,1,160,8|0
96,240,9397,6,0,B|80:204|80:204|96:166,2,80
20,160,9900,2,0,B|52:88,1,80,12|0
148,88,10235,1,0
168,88,10319,1,0
188,88,10403,2,0,B|268:88,1,80,8|2
192,312,11408,6,0,B|256:264|256:264|320:312,1,160,4|2
344,224,11911,2,0,B|408:272,1,80,0|0
404,156,12246,2,0,B|420:116|408:76,1,80,0|2
484,40,12581,2,0,B|448:80|372:72|340:36,1,160
312,140,13084,6,0,B|272:128|232:140,1,80,2|0
184,260,13419,2,0,B|224:272|264:260,1,80,0|0
156,180,13755,1,2
64,196,13922,1,0
24,280,14090,6,0,B|56:308|56:308|56:352|92:384|132:380,1,160,0|2
212,296,14593,2,0,B|172:284|136:304,1,80
312,324,14928,2,0,B|352:336|388:316,1,80,0|2
404,208,15263,2,0,B|360:128|416:60,1,160
304,120,15766,1,2
312,204,15933,1,0
240,68,16101,5,4
216,72,16436,1,0
192,76,16771,6,0,B|176:114|176:114|192:150,1,80,4|0
108,228,17106,2,0,B|124:190|124:190|108:154,1,80,8|2
188,280,17442,2,0,B|208:312|256:332|304:312|324:280,1,160,0|8
256,216,17944,1,2
416,188,18112,6,0,B|396:172|380:172|364:172|344:188,1,80,0|0
404,328,18447,2,0,B|424:344|440:344|456:344|476:328,1,80,8|2
480,240,18782,1,2
432,108,18950,1,0
496,160,19118,1,8
448,28,19285,1,2
348,92,19453,5,0
348,92,19537,1,0
348,92,19620,2,0,B|308:104|268:92,1,80,2|8
160,140,19956,1,0
184,256,20123,2,0,B|212:228|248:240|256:256|264:272|300:284|329:256,2,160,0|10|0
84,236,20961,5,2
104,136,21128,1,8
204,156,21296,1,0
300,112,21464,1,0
308,132,21548,1,0
320,148,21632,1,0
336,160,21715,1,0
356,168,21799,1,8
376,172,21883,1,0
396,172,21967,1,0
416,168,22051,1,0
436,160,22134,6,0,B|456:124|444:84,1,80,4|2
472,248,22470,1,8
380,292,22637,1,2
380,292,22721,1,8
380,292,22805,2,0,B|300:292,1,80,0|0
208,328,23140,2,0,B|192:308|192:292|192:276|208:255,1,80,8|0
48,256,23475,6,0,B|76:224|80:184,1,80,0|2
76,164,23727,1,0
72,144,23810,1,8
184,140,23978,1,2
204,144,24062,1,0
224,148,24146,2,0,B|256:176|296:180,1,80,0|2
372,144,24481,6,0,B|316:152|280:208|296:264,1,160,8|0
392,240,24984,1,2
468,172,25151,1,8
476,152,25235,1,0
480,132,25319,2,0,B|484:92|480:52,1,80,10|2
304,16,25654,2,0,B|300:56|304:96,1,80,0|8
324,200,25989,6,0,B|304:168|256:148|208:168|188:200,1,160,2|0
256,320,26492,2,0,B|256:240,1,80,8|0
144,136,26827,5,0
144,136,27162,1,2
304,92,27498,6,0,B|344:80|384:92,1,80,4|0
436,220,27833,2,0,B|396:232|356:220,1,80,8|2
340,212,28084,1,0
324,200,28168,1,0
428,324,28336,5,0
332,316,28503,1,0
260,252,28671,2,0,B|216:212|228:140|288:124,1,160,10|0
324,200,29174,2,0,B|168:168,1,160,10|0
156,268,29676,1,0
80,208,29844,1,10
80,208,30179,6,0,B|64:192|64:192|56:164|68:136,1,80,0|2
124,20,30514,2,0,B|140:36|140:36|148:64|136:92,1,80,8|0
220,136,30849,1,2
220,136,31017,1,0
284,72,31185,1,2
284,72,31353,1,8
312,160,31520,2,0,B|376:184|420:132,1,120,2|0
440,144,31855,2,0,B|448:184|440:224,1,80,8|2
200,256,32190,5,0
212,272,32274,1,0
228,284,32358,1,0
248,292,32442,1,0
268,296,32525,1,8
288,296,32609,1,0
308,292,32693,1,0
328,284,32777,1,0
344,272,32861,6,0,B|392:204|364:120,1,160,4|2
296,56,33363,2,0,B|248:124|276:208,1,160,0|2
192,141,33866,2,0,B|192:100|208:64,1,80,8|0
124,220,34202,6,0,B|69:195|63:126|105:85,1,160,0|2
200,216,34704,2,0,B|208:260|168:296|132:300|132:300|164:324,1,160,0|2
24,316,35207,2,0,B|88:364,1,80,8|0
252,316,35542,6,0,B|300:248|272:164,1,160,4|0
360,264,36045,1,2
344,144,36213,1,0
452,192,36380,1,0
292,92,36548,2,0,B|248:88|232:48,1,80,10|0
212,40,36799,1,0
192,36,36883,6,0,B|176:64|140:60|140:60|144:96|128:124|96:140,1,160,0|2
76,224,37386,2,0,B|112:144|64:72,1,160,0|2
164,208,37889,1,4
168,228,37972,1,0
180,248,38056,1,0
196,264,38140,1,0
216,272,38224,2,0,B|256:288|296:272,1,80,4|0
256,184,38559,5,0
264,92,38727,2,0,B|304:76|344:92,1,80,2|0
184,128,39062,2,0,B|150:101|144:58,1,80,2|0
80,200,39397,2,0,B|60:244|69:288|102:315|144:317,1,160,0|2
280,308,39900,1,8
380,216,40067,1,0
320,100,40235,6,0,B|308:72|320:44|320:44|340:36,1,80,2|0
468,76,40570,2,0,B|480:104|468:132|468:132|448:140,1,80,8|0
300,228,40905,2,0,B|256:224|228:256,2,80,2|0|8
168,308,41408,6,0,B|128:312|88:308,1,80,0|0
184,156,41743,2,0,B|224:152|264:156,1,80,2|8
152,228,42079,1,0
8,216,42246,2,0,B|52:220|80:188,1,80,0|0
80,52,42581,1,4
80,52,42917,5,8
244,80,43168,1,10
140,208,43419,1,10
41,161,43587,6,0,B|11:195|4:242|34:280|71:292,1,160,4|0
252,304,44090,2,0,B|272:228,2,80,2|0|0
352,268,44593,2,0,B|372:192|372:192|356:152|312:144,1,160,2|0
220,144,45095,1,0
176,236,45263,1,8
176,236,45347,1,8
176,236,45430,1,8
252,304,45598,5,2
404,320,45766,1,0
384,168,45933,1,2
384,168,46268,6,0,B|400:148|400:132|400:116|384:95,1,80,4|2
220,72,46604,2,0,B|204:92|204:108|204:124|220:145,1,80,8|0
296,208,46939,1,2
208,280,47106,2,0,B|128:296,1,80,0|8
108,300,47358,1,0
88,304,47442,1,0
200,180,47609,5,0
224,76,47777,1,2
124,108,47944,1,8
88,24,48112,1,0
32,96,48280,2,0,B|48:136|36:176,1,80,2|0
144,164,48615,1,8
272,92,48782,5,2
292,100,48866,1,0
312,104,48950,2,0,B|352:112|392:96,1,80,0|2
468,40,49285,1,8
476,140,49453,1,2
368,20,49620,1,0
380,184,49788,1,0
472,252,49956,5,8
472,252,50123,2,0,B|464:296|484:332,2,80,2|0|0
368,300,50626,1,8
260,320,50794,2,0,B|222:336|222:336|186:320,1,80,2|0
308,184,51129,2,0,B|345:167|345:167|381:183,1,80,0|8
344,52,51464,1,2
224,100,51632,6,0,B|188:84|144:92,1,80,4|0
136,228,51967,2,0,B|172:244|216:236,1,80,8|2
272,44,52302,2,0,B|196:8|116:28,1,160,0|8
180,164,52805,1,0
312,264,52972,6,0,B|372:196|456:240,1,160,2|8
392,316,53475,1,0
264,356,53643,2,0,B|204:328|208:260,1,120,2|0
196,240,53978,2,0,B|172:276|128:272,1,80,8|0
128,180,54313,5,2
224,208,54481,1,0
308,152,54648,1,8
200,108,54816,2,0,B|172:76|128:84,1,80,2|0
24,188,55151,2,0,B|52:220|96:212,1,80,2|8
184,304,55486,5,12
100,92,55822,1,0
100,92,55989,1,4
320,252,56324,6,0,B|356:232,3,40,2|0|0|0
376,156,56660,2,0,B|412:176,3,40,2|0|0|0
432,252,56995,2,0,B|456:284|464:324,1,80,4|2
296,176,57330,1,8
316,96,57498,1,0
240,232,57665,6,0,B|184:196|128:232,1,120,2|0
112,220,58000,2,0,B|108:176|140:148,1,80,8|0
320,252,58336,2,0,B|324:296|292:324,1,80,0|2
184,296,58671,1,8
80,320,58838,1,0
112,220,59006,6,0,B|60:196|56:116|104:88,1,160,2|8
224,124,59509,1,0
224,124,59593,1,0
224,124,59676,2,0,B|188:148|148:152,1,80,0|2
184,40,60012,1,8
284,44,60179,1,0
264,208,60347,5,2
328,132,60514,1,0
256,280,60682,2,0,B|292:296|336:288,1,80,8|0
352,280,60933,1,0
368,272,61017,1,0
276,156,61185,5,2
184,188,61352,1,8
164,284,61520,2,0,B|124:296|80:272|76:228,1,120,0|0
76,208,61855,2,0,B|73:165|109:140,1,80,0|8
240,84,62190,1,2
228,216,62358,5,4
288,336,62525,1,2
172,280,62693,1,8
304,256,62861,1,0
204,352,63028,6,0,B|148:376|92:336|96:276,1,160,2|8
184,256,63531,1,0
340,260,63699,2,0,B|396:236|452:276|448:336,1,160,2|8
348,356,64201,1,0
264,240,64369,6,0,B|276:200|312:176|356:184,1,120,2|0
380,184,64704,2,0,B|424:192|460:172,1,80,8|0
408,88,65039,1,2
212,156,65375,1,8
212,156,65543,1,0
212,156,65877,6,0,B|192:112|192:112|168:80|128:72|92:84,1,160,2|4
124,164,66381,1,0
80,264,66548,1,0
192,256,66715,1,8
284,220,66883,6,0,B|316:192|304:148,2,80,10|8|8
268,320,67386,1,8
284,308,67470,1,0
304,300,67553,1,0
324,296,67637,1,0
344,296,67721,6,0,B|376:312|408:308|408:308|416:296,1,80,4|2
460,184,68056,2,0,B|428:168|396:172|396:172|388:184,1,80,8|0
416,80,68391,1,2
320,108,68559,1,0
212,92,68727,6,0,B|148:124|104:72,1,120,8|0
55,133,69062,2,0,B|68:92|104:72,1,80,2|0
156,256,69397,2,0,B|143:214|107:195,1,80,8|2
240,200,69732,1,0
248,304,69900,1,2
300,160,70067,1,8
328,260,70235,6,0,B|368:276|404:256,1,80,4|0
324,336,70570,1,2
364,196,70738,1,8
312,76,70905,6,0,B|324:44|364:32|396:48,1,100,4|0
244,116,71241,1,2
372,124,71408,1,8
228,188,71576,6,0,B|216:228|160:244|128:220,1,120.000004577637,4|0
184,68,71911,1,2
184,68,72079,1,8
68,108,72246,5,4
128,220,72414,2,0,B|124:264|176:292|212:268,1,120,2|0
280,296,72749,2,0,B|360:292,1,80,8|0
312,172,73084,5,4
388,208,73252,1,2
288,92,73419,2,0,B|332:96|360:68,1,80,8|0
228,148,73755,1,0
428,132,73922,5,2
476,204,74090,1,8
320,256,74257,1,0
368,328,74425,2,0,B|328:372|248:344|244:292,1,160,2|8
116,224,74928,2,0,B|36:240,1,80,2|0
228,148,75263,1,0
208,144,75347,1,0
188,140,75430,2,0,B|120:94,1,80,10|0
208,228,75766,5,4
288,200,75933,1,8
196,212,76268,5,4
352,136,76436,1,8
184,192,76771,5,4
436,176,76939,1,8
320,328,77274,5,2
172,316,77442,1,8
172,316,77609,1,0
252,244,77777,1,10
240,228,77861,1,8
224,216,77944,1,0
204,208,78028,1,8
184,204,78112,1,10
164,204,78196,1,0
144,208,78280,1,8
124,216,78363,1,0
108,228,78447,6,0,B|76:200|72:160,1,80,6|2
124,44,78782,2,0,B|156:72|160:112,1,80,8|0
264,120,79118,2,0,B|328:188|408:136,1,160,2|8
416,232,79620,6,0,B|440:264|436:308,1,80,2|0
308,324,79956,2,0,B|284:292|288:248,1,80,0|8
204,304,80291,2,0,B|152:344|92:312,1,120
16,300,80626,2,0,B|56:288|92:312,1,80,2|8
144,236,80961,1,0
104,160,81129,6,0,B|84:120|104:84,1,80,4|2
272,96,81464,2,0,B|292:136|272:172,1,80,8|0
188,128,81799,1,10
204,44,81967,1,8
348,52,82134,1,8
448,52,82302,6,0,B|456:96|428:136|388:140,1,120,10|0
424,208,82637,2,0,B|392:180|387:140,1,80,8|2
352,268,82972,1,0
256,260,83140,5,10
244,240,83224,1,0
236,216,83308,1,0
232,192,83391,1,0
236,168,83475,1,10
244,144,83559,1,0
256,124,83643,1,4
256,192,83810,12,0,87833
