osu file format v9

[General]
AudioFilename: crossing.mp3
AudioLeadIn: 2000
PreviewTime: 45598
Countdown: 0
SampleSet: Soft
StackLeniency: 0.4
Mode: 0
LetterboxInBreaks: 0

[Editor]
DistanceSpacing: 1.2
BeatDivisor: 4
GridSize: 4

[Metadata]
Title:crossing field (TV Size)
Artist:LiSA
Creator:W h i t e
Version:Hard
Source:Sword Art Online
Tags:Opening SAO ignorethis

[Difficulty]
HPDrainRate:5
CircleSize:4
OverallDifficulty:5
ApproachRate:7
SliderMultiplier:1.4
SliderTickRate:1

[Events]
//Background and Video events
0,0,"bg.png"
Video,0,"video.avi"
//Break Periods
//Storyboard Layer 0 (Background)
//Storyboard Layer 1 (Fail)
//Storyboard Layer 2 (Pass)
//Storyboard Layer 3 (Foreground)
//Storyboard Sound Samples
//Background Colour Transformations
3,100,163,162,255

[TimingPoints]
-658,335.195530726257,4,2,1,40,1,0
2693,-100,4,2,1,45,0,0
4369,-100,4,2,1,50,0,0
5375,-100,4,2,1,60,0,0
6380,-100,4,1,1,60,0,0
6464,-100,4,2,1,60,0,0
6715,-100,4,1,1,60,0,0
6799,-100,4,2,1,60,0,0
7051,-100,4,1,1,60,0,0
7134,-100,4,2,1,60,0,0
7386,-100,4,1,1,60,0,0
7470,-100,4,2,1,60,0,0
7721,-100,4,1,1,60,0,0
7805,-100,4,2,1,60,0,0
8056,-100,4,1,1,60,0,0
8140,-100,4,2,1,60,0,0
8391,-100,4,1,1,60,0,0
8475,-100,4,2,1,60,0,0
8727,-100,4,1,1,60,0,0
8810,-100,4,2,1,60,0,0
9062,-100,4,1,1,60,0,0
9146,-100,4,2,1,60,0,0
9397,-100,4,1,1,60,0,0
9481,-100,4,2,1,60,0,0
9732,-100,4,1,1,60,0,0
9816,-100,4,2,1,60,0,0
16771,-100,4,2,1,70,0,0
21464,-100,4,1,1,50,0,0
21799,-100,4,1,1,60,0,0
22134,-100,4,2,1,70,0,0
32190,-100,4,2,1,30,0,0
32525,-100,4,2,1,45,0,0
32861,-100,4,2,1,60,0,0
38224,-100,4,2,1,70,0,0
46268,-100,4,2,1,70,0,1
56324,-100,4,2,1,70,0,0
56995,-100,4,2,1,70,0,1
67721,-100,4,2,1,70,0,0
83810,-100,4,2,1,50,0,0
84648,-100,4,2,1,40,0,0
85486,-100,4,2,1,30,0,0
86324,-100,4,2,1,20,0,0
87162,-100,4,2,1,10,0,0
87833,-100,4,2,1,5,0,0

[Colours]
Combo1 : 255,128,64
Combo2 : 0,255,255
Combo3 : 255,0,0

[HitObjects]
256,132,12,2,0,B|256:64,2,70,2|0|2
196,260,682,2,0,B|232:264|256:292|256:292|280:264|316:260,1,140,2|0
388,140,1352,2,0,B|320:176|256:132,1,140,8|2
116,152,2023,1,0
136,220,2190,1,8
196,260,2358,1,0
336,264,2693,6,0,B|360:312|424:312|448:264,1,140,8|0
448,120,3363,2,0,B|424:72|360:72|336:120,1,140,2|8
276,156,3866,1,0
276,228,4034,1,8
140,192,4369,5,0
140,264,4537,2,0,B|72:256|72:256|40:192,1,140,2|0
140,120,5039,1,0
140,120,5207,2,0,B|72:128|72:128|40:192,1,140,2|0
180,192,5877,5,0
180,192,5961,1,0
180,192,6045,2,0,B|244:144|308:192,1,140,4|0
392,192,6548,2,0,B|392:260,1,70,0|8
308,276,6883,5,0
236,324,7051,2,0,B|204:332|168:324,1,70
52,192,7386,2,0,B|116:144|180:192,1,140,8|0
116,248,7889,1,0
32,256,8056,6,0,B|28:220|52:192,1,70,8|0
48,44,8391,2,0,B|52:80|28:108,1,70
112,96,8727,2,0,B|176:68|176:68|240:96,1,140,8|0
408,92,9397,2,0,B|340:92,2,70
460,160,9900,6,0,B|484:192|460:224,1,70,4|0
316,224,10235,2,0,B|292:192|316:160,1,70,0|8
388,192,10570,1,2
196,112,11408,6,0,B|220:80|256:72|292:80|316:112,1,140,4|2
256,172,11911,2,0,B|256:240,1,70
288,320,12246,2,0,B|256:344|224:320,1,70,0|2
148,284,12581,2,0,B|116:260|108:224|116:188|148:164,1,140
212,108,13084,1,2
300,108,13252,1,0
364,164,13419,2,0,B|396:188|404:224|396:260|364:284,1,140,0|2
428,128,14090,6,0,B|408:52|328:44,1,140,0|2
304,124,14593,1,0
256,192,14760,1,0
208,124,14928,1,0
184,44,15095,2,0,B|104:52|84:128,2,140,2|0|2
256,196,16101,5,4
256,212,16436,1,0
256,228,16771,6,0,B|256:296,1,70,4|2
332,260,17106,2,0,B|368:260|396:236,1,70,8|0
396,148,17442,2,0,B|368:124|332:124,2,70,2|0|8
468,192,17944,1,2
432,72,18112,6,0,B|372:36|296:40,1,140,0|8
212,40,18615,1,0
148,96,18782,2,0,B|128:128|144:164,1,70,2|0
220,260,19118,2,0,B|240:228|224:192,1,70,8|2
308,192,19453,6,0,B|336:212|348:248,1,70
432,232,19788,2,0,B|437:265|420:299,1,70,8|0
340,328,20123,2,0,B|292:392|216:352,2,140,0|10|0
176,284,21129,1,8
84,144,21464,6,0,B|120:140,3,35
160,140,21799,2,0,B|196:144,3,35,8|0|0|0
236,144,22134,6,0,B|300:112|300:112|352:156,1,140,4|8
428,192,22637,2,0,B|496:192,2,70,10|8|0
352,228,23140,1,2
352,228,23308,2,0,B|300:272|300:272|236:240,1,140,0|8
152,240,23810,6,0,B|152:200|180:180,1,70,8|0
256,140,24146,1,2
184,96,24313,2,0,B|172:60|192:28,2,70,0|8|0
104,128,24816,6,0,B|52:180|60:256,1,140,2|8
112,324,25319,2,0,B|144:336|180:324,1,70,0|0
256,288,25654,1,2
332,324,25822,1,8
324,240,25989,6,0,B|372:224|420:260|420:312,1,140
484,260,26492,1,10
344,164,26827,1,0
344,164,27162,1,10
196,76,27498,6,0,B|256:112|256:112|316:76,1,140,4|8
396,96,28000,2,0,B|424:120|436:152,1,70,2|0
400,228,28336,1,0
320,248,28503,1,0
256,304,28671,6,0,B|184:276|172:200,1,140,10|0
192,120,29174,2,0,B|176:208|92:200,1,140,8|2
108,120,29676,1,0
108,120,29844,1,8
276,128,30179,6,0,B|340:152,1,70,2|0
416,192,30514,1,8
276,256,30682,2,0,B|340:232,1,70,2|0
180,192,31185,1,2
32,276,31520,1,0
32,108,31855,1,2
200,100,32190,6,0,B|284:112|328:192|284:272|200:284,1,280,0|4
60,192,33196,1,2
200,100,33531,2,0,B|256:56,1,70
340,56,33866,2,0,B|364:88|400:96|436:88|460:56,1,140,8|2
356,184,34537,2,0,B|388:212|396:244|388:280|356:304,2,140,0|2|8
256,324,35542,6,0,B|256:184,1,140,4|0
248,100,36045,2,0,B|272:68|308:60|344:68|368:100,1,140,2|0
356,184,36548,1,8
192,148,36883,6,0,B|140:156|116:216|132:256,1,140,2|0
160,336,37386,2,0,B|120:352|60:328|52:276,1,140,2|0
36,196,37889,2,0,B|4:212,2,35,4|0|0
36,112,38224,6,0,B|32:44,1,70,4|2
112,84,38559,1,8
188,56,38727,2,0,B|192:124,1,70,2|0
196,212,39062,2,0,B|236:216|256:184,1,70,2|8
312,124,39397,1,0
396,140,39565,6,0,B|404:176,3,35,2|0|0|0
444,184,39900,2,0,B|436:220,3,35,10|0|0|0
408,248,40235,2,0,B|384:300|324:296,1,105,2|0
284,308,40570,2,0,B|312:372,1,70,10|0
168,328,40905,6,0,B|140:264,1,70,8|2
104,188,41241,1,0
180,148,41408,2,0,B|216:152|236:184,1,70,2|8
308,144,41743,2,0,B|330:172|322:209,1,70,2|0
404,188,42079,2,0,B|400:112|348:64,1,140,2|0
264,76,42581,1,4
100,112,42917,6,0,B|92:140|104:164|104:164|84:184|84:212,2,105,8|8|10
184,128,43587,2,0,B|192:80|148:32|104:32,1,140,4|2
28,68,44090,2,0,B|12:108|20:152|20:152|8:176|8:204,1,140
36,284,44593,1,2
304,216,45095,5,0
304,216,45263,2,0,B|268:216,2,35,8|8|8
336,304,45598,5,2
424,272,45766,1,0
396,184,45933,1,2
396,184,46268,6,0,B|408:152|400:116,1,70,4|2
316,52,46604,2,0,B|304:84|312:120,1,70,8|0
228,112,46939,2,0,B|168:168|100:120,1,140,2|8
56,192,47442,1,0
101,263,47609,6,0,B|116:332,1,70,0|2
200,320,47944,2,0,B|185:251,1,70,8|0
268,276,48280,2,0,B|300:236|356:232|396:264,1,140,2|8
336,324,48782,2,0,B|324:184,1,140,0|2
316,100,49285,5,8
316,100,49453,1,0
248,148,49620,2,0,B|216:164|180:160,1,70,2|0
56,104,49956,2,0,B|88:88|124:92,1,70,8|0
104,172,50291,1,0
44,232,50458,6,0,B|68:264|104:272|140:264|164:232,1,140,2|0
248,232,50961,2,0,B|316:244,1,70,2|0
276,340,51296,2,0,B|208:328,1,70,8|0
352,316,51632,6,0,B|400:304|420:240|388:204,1,140,4|8
316,160,52134,1,0
392,120,52302,6,0,B|380:72|312:56|276:84,1,140,2|8
228,152,52805,1,0
188,80,52972,6,0,B|140:92|124:160|152:196,1,140,0|8
228,232,53475,1,0
156,280,53643,6,0,B|120:292|88:272,1,70,2|0
4,192,53978,2,0,B|40:180|72:200,1,70,8|0
72,116,54313,2,0,B|72:72|116:20|156:16,1,140,4|8
232,52,54816,2,0,B|284:52|284:52|312:68|312:68|368:68,1,140,2|0
452,64,55319,1,8
404,132,55486,6,0,B|372:156|364:192|372:228|404:252,1,140,4|0
464,192,55989,1,8
336,304,56324,6,0,B|300:312,3,35,2|0|0|0
264,292,56660,2,0,B|228:284,3,35,2|0|0|0
188,296,56995,6,0,B|156:308|120:296,1,70,4|2
76,184,57330,2,0,B|108:172|144:184,1,70,8|0
224,216,57665,2,0,B|252:144|212:80,1,140,2|8
132,104,58168,1,0
300,88,58336,6,0,B|316:120|312:156,1,70,0|2
416,196,58671,2,0,B|400:164|404:128,1,70,8|0
492,228,59006,2,0,B|448:300|372:264,1,140,2|8
292,284,59509,1,0
208,288,59676,6,0,B|176:304|140:292,1,70,0|2
88,192,60012,2,0,B|120:176|156:188,1,70,8|0
236,212,60347,1,2
320,204,60514,1,0
268,136,60682,1,8
320,204,60849,6,0,B|380:160|384:84,1,140,0|2
304,64,61352,1,8
220,72,61520,2,0,B|184:80|160:104,1,70,0|2
92,228,61855,2,0,B|128:220|152:196,1,70,0|8
236,212,62190,1,0
304,252,62358,6,0,B|292:296|224:316|188:280,1,140,4|8
108,308,62861,1,0
92,228,63028,6,0,B|48:216|28:148|64:112,1,140,2|8
136,68,63531,1,0
220,72,63699,6,0,B|288:108|352:64,1,140,2|8
432,84,64201,1,0
376,148,64369,6,0,B|348:220|396:280,1,140,2|8
316,312,64872,1,0
284,236,65039,5,2
284,236,65207,1,0
288,152,65375,2,0,B|272:120|276:84,1,70,10|0
200,236,65877,6,0,B|156:260|156:260|144:292|120:308|84:308,1,140,2|4
80,228,66380,2,0,B|64:196|72:160,1,70,2|0
104,80,66715,1,8
188,68,66883,6,0,B|204:100|196:136,2,70,8|8|10
272,52,67386,2,0,B|300:32,2,35,10|0|0
320,112,67721,2,0,B|352:100|388:112,1,70,4|2
420,192,68056,2,0,B|388:204|352:192,1,70,8|0
268,180,68391,6,0,B|256:212|264:248,1,70,2|0
416,260,68727,2,0,B|428:228|420:192,1,70,8|0
324,292,69062,2,0,B|312:340|236:348|212:304,1,140,0|8
148,248,69565,1,2
180,172,69732,2,0,B|112:156,2,70,0|0|8
248,124,70235,6,0,B|232:92|236:56,1,70,4|0
316,80,70570,1,2
388,124,70738,1,8
388,124,70906,6,0,B|420:108|456:112,1,70,4|0
432,192,71241,1,2
388,264,71409,1,8
388,264,71576,6,0,B|404:296|400:332,1,70,4|0
320,308,71911,1,2
248,264,72079,1,8
248,264,72246,5,4
176,308,72414,2,0,B|164:340|116:352|88:328,1,105,2|0
88,328,72749,2,0,B|64:304|32:288,1,70,8|0
80,208,73084,6,0,B|88:156|152:132|188:152,1,140,4|8
260,108,73587,1,0
264,192,73755,1,2
348,188,73922,2,0,B|416:168,1,70,0|8
432,84,74257,5,2
432,84,74425,2,0,B|488:212,1,140,0|8
412,244,74928,1,0
332,268,75095,2,0,B|324:304|332:336,1,70,2|0
248,336,75430,2,0,B|256:300|248:268,1,70,8|0
164,264,75766,6,0,B|128:252|116:216,1,70,4|8
40,68,76268,2,0,B|68:42|105:50,1,70,4|8
272,64,76771,2,0,B|279:101|254:129,1,70,4|8
408,64,77274,5,2
344,116,77442,1,8
424,144,77609,1,0
360,196,77777,6,0,B|348:228,3,35,10|8|0|8
328,268,78112,2,0,B|316:300,3,35,10|8|0|0
300,340,78447,6,0,B|228:372|172:316,1,140,4|8
60,192,79118,2,0,B|128:192,2,70,2|0|8
184,132,79620,2,0,B|220:192|220:192|184:252,1,140,2|0
256,292,80123,1,8
328,252,80291,2,0,B|292:192|292:192|328:132,1,140,2|0
316,48,80794,2,0,B|292:16|256:8|220:16|196:48,1,140,8|4
108,192,81464,5,0
272,160,81799,2,0,B|248:192|272:224,1,70,2|8
348,192,82134,1,8
412,248,82302,6,0,B|460:224|460:160|412:136,1,140,10|8
336,104,82805,1,10
256,80,82972,1,0
176,104,83140,2,0,B|128:128|128:192|176:216,1,140,10|10
256,244,83643,1,4
256,192,83810,12,0,87833
