osu file format v9

[General]
AudioFilename: crossing.mp3
AudioLeadIn: 2000
PreviewTime: 45598
Countdown: 0
SampleSet: Soft
StackLeniency: 0.4
Mode: 0
LetterboxInBreaks: 0

[Editor]
DistanceSpacing: 1.2
BeatDivisor: 4
GridSize: 4

[Metadata]
Title:crossing field (TV Size)
Artist:LiSA
Creator:W h i t e
Version:Easy
Source:Sword Art Online
Tags:Opening SAO ignorethis

[Difficulty]
HPDrainRate:1
CircleSize:3
OverallDifficulty:2
ApproachRate:3
SliderMultiplier:0.8
SliderTickRate:1

[Events]
//Background and Video events
0,0,"bg.png"
Video,0,"video.avi"
//Break Periods
//Storyboard Layer 0 (Background)
//Storyboard Layer 1 (Fail)
//Storyboard Layer 2 (Pass)
//Storyboard Layer 3 (Foreground)
//Storyboard Sound Samples
//Background Colour Transformations
3,100,163,162,255

[TimingPoints]
-658,335.195530726257,4,2,1,40,1,0
2693,-100,4,2,1,45,0,0
4369,-100,4,2,1,50,0,0
5375,-100,4,2,1,60,0,0
6380,-100,4,1,1,60,0,0
6464,-100,4,2,1,60,0,0
6715,-100,4,1,1,60,0,0
6799,-100,4,2,1,60,0,0
7051,-100,4,1,1,60,0,0
7134,-100,4,2,1,60,0,0
7386,-100,4,1,1,60,0,0
7470,-100,4,2,1,60,0,0
8056,-100,4,1,1,60,0,0
8140,-100,4,2,1,60,0,0
8391,-100,4,1,1,60,0,0
8475,-100,4,2,1,60,0,0
8727,-100,4,1,1,60,0,0
8810,-100,4,2,1,60,0,0
9062,-100,4,1,1,60,0,0
9146,-100,4,2,1,60,0,0
9397,-100,4,1,1,60,0,0
9481,-100,4,2,1,60,0,0
9732,-100,4,1,1,60,0,0
9816,-100,4,2,1,60,0,0
16771,-100,4,2,1,70,0,0
17106,-100,4,2,2,70,0,0
17274,-100,4,2,1,70,0,0
18447,-100,4,2,2,70,0,0
18615,-100,4,2,1,70,0,0
19620,-100,4,2,2,70,0,0
20626,-100,4,2,1,70,0,0
25151,-100,4,2,2,70,0,0
25319,-100,4,2,1,70,0,0
26492,-100,4,2,2,70,0,0
26660,-100,4,2,1,70,0,0
27833,-100,4,2,2,70,0,0
28000,-100,4,2,1,70,0,0
32861,-100,4,2,1,60,0,0
38224,-100,4,2,1,70,0,0
46268,-100,4,2,1,70,0,1
47944,-100,4,2,2,70,0,1
48112,-100,4,2,1,70,0,1
50458,-100,4,2,2,70,0,1
51464,-100,4,2,1,70,0,1
54481,-100,4,2,2,70,0,1
55486,-100,4,2,1,70,0,1
56324,-100,4,2,1,70,0,0
56995,-100,4,2,1,70,0,1
60012,-100,4,2,2,70,0,1
60179,-100,4,2,1,70,0,1
61185,-100,4,2,2,70,0,1
62190,-100,4,2,1,70,0,1
65207,-100,4,2,2,70,0,1
66213,-100,4,2,1,70,0,1
67721,-100,4,2,1,70,0,0
80794,-100,4,2,2,70,0,0
80961,-100,4,2,1,70,0,0
81967,-100,4,2,2,70,0,0
82637,-100,4,2,1,70,0,0
83810,-100,4,2,1,50,0,0
84648,-100,4,2,1,40,0,0
85486,-100,4,2,1,30,0,0
86324,-100,4,2,1,20,0,0
87162,-100,4,2,1,10,0,0
87833,-100,4,2,1,5,0,0

[Colours]
Combo1 : 255,128,64
Combo2 : 0,255,255
Combo3 : 255,0,0

[HitObjects]
256,92,12,2,0,B|256:172,1,80,2|2
224,264,682,6,0,B|236:284|256:292|276:284|288:264,1,80,2|0
348,188,1352,1,8
408,264,1687,2,0,B|452:264|480:236,1,80,0|2
376,72,2693,6,0,B|340:44|304:72,1,80,8|0
208,72,3363,1,2
40,164,4034,5,8
136,168,4369,1,0
188,248,4704,2,0,B|208:280|256:300|304:280|324:248,1,160,2|8
412,76,6045,6,0,B|452:144,1,80,4|8
452,239,6715,2,0,B|412:308,1,80,8|0
328,260,7386,6,8,B|296:240|276:192|296:144|328:124,1,160,8|8
256,60,8391,1,0
164,88,8727,6,0,B|124:104|112:144,1,80,8|0
111,239,9397,2,0,B|124:280|164:296,1,80
212,296,9900,2,8,B|256:308|292:272|284:228,1,120,8|8
52,56,11408,6,0,B|52:136,1,80,4|2
148,136,12079,2,0,B|148:56,1,80,0|2
232,104,12749,2,0,B|263:152|240:216|176:224,1,160,0|0
80,224,13755,1,2
92,320,14090,6,0,B|128:348|164:320,1,80,0|2
256,292,14760,1,0
346,319,15095,2,0,B|384:348|420:320,2,80,2|0|2
328,224,16101,1,4
328,224,16771,6,0,B|296:204|276:156|296:108|328:88,1,160,4|0
236,56,17777,1,8
184,136,18112,2,0,B|164:168|116:188|68:168|48:136,1,160,2|0
32,232,19118,5,8
92,308,19453,2,0,B|252:308,2,160,2|0|2
256,212,21464,1,8
444,168,22134,6,0,B|364:168,1,80,4|8
288,108,22805,2,0,B|276:88|256:80|236:88|224:108,1,80,0|8
128,108,23475,5,2
40,144,23810,1,0
40,240,24146,2,0,B|76:268|112:240,1,80,0|8
124,336,24816,6,0,B|160:328|188:304|196:268|196:268|224:272|248:252,1,160,2|0
344,248,25822,1,8
364,156,26157,2,0,B|344:124|296:104|248:124|228:156,1,160,2|0
64,56,27498,6,0,B|224:56,1,160,4|2
320,44,28503,2,0,B|376:48|424:88|440:136,1,160,8|8
480,224,29509,2,0,B|444:252|408:224,1,80,2|8
312,220,30179,5,0
120,220,30849,2,0,B|116:172|176:164|172:116,2,120,2|8|0
172,300,32190,1,0
364,296,32861,5,4
96,192,33866,1,8
180,144,34201,2,0,B|236:108|292:144,2,120,0|2|8
180,240,35542,6,0,B|236:276|292:240,2,120,4|2|8
84,252,36883,2,0,B|84:132,2,120,0|2|8
32,332,38224,6,0,B|88:368|144:332|144:332|148:260|244:224|296:276,1,320,4|0
240,356,39900,1,8
336,348,40235,2,0,B|376:332|380:284,1,80,2|8
464,240,40905,6,0,B|444:176|372:168|336:192|336:192|364:156|372:80|328:40,1,320,4|0
268,116,42581,1,4
188,172,42917,1,2
188,172,43587,6,0,B|144:224|188:280,2,120,4|0|2
324,312,45263,1,8
316,128,46268,6,0,B|396:128,1,80,4|8
428,220,46939,2,0,B|348:220,1,80,0|8
324,312,47609,2,0,B|304:344|256:364|208:344|188:312,1,160,2|0
256,244,48615,1,8
160,240,48950,6,0,B|80:240,1,80,2|8
80,144,49620,2,0,B|160:144,1,80,0|8
224,72,50291,2,0,B|260:63|308:83|328:131|320:168,2,160,2|0|4
216,264,52302,6,0,B|296:264,1,80,2|8
384,304,52972,2,0,B|384:224,1,80,0|8
424,136,53643,2,0,B|344:136,1,80,2|8
340,40,54313,6,0,B|304:31|256:51|236:99|244:136,2,160,0|0|0
344,136,55989,1,4
88,272,56995,6,0,B|168:272,2,80,4|8|0
36,192,58000,1,8
88,112,58336,2,0,B|168:112,2,80,2|8|0
36,192,59341,1,8
132,192,59676,6,0,B|292:192,1,160,2|0
388,192,60682,1,8
456,124,61017,2,0,B|488:144|508:192|488:240|456:260,2,160,2|0|4
264,96,63028,6,0,B|184:96,1,80,2|8
184,192,63699,2,0,B|264:192,1,80,2|8
264,288,64369,2,0,B|184:288,1,80,2|8
92,260,65039,6,0,B|60:240|40:192|60:144|92:124,2,160,2|0|2
272,192,67051,1,8
464,192,67721,6,0,B|384:192,1,80,4|8
352,284,68391,2,0,B|314:312|278:284,1,80,0|8
184,276,69062,1,2
88,276,69397,1,8
136,192,69732,5,2
204,64,70235,2,0,B|184:32|136:12|88:32|68:64,2,160,4|4|4
272,192,72079,1,8
368,192,72414,6,0,B|452:192,2,80,0|8|4
308,116,73419,2,0,B|340:88|384:92,2,80,8|0|8
248,192,74425,1,0
308,268,74760,2,0,B|340:296|384:292,2,80,8|0|8
212,284,75766,5,4
100,192,76268,1,4
212,100,76771,1,4
496,152,77777,6,0,B|476:120|428:100|380:120|360:152,1,160,2|4
288,216,78782,5,8
332,300,79118,2,0,B|296:324|256:304,1,80,0|8
172,260,79788,2,0,B|148:224|168:184,1,80,0|8
216,100,80458,2,0,B|56:100,1,160,0|4
24,192,81464,5,8
108,240,81799,2,0,B|136:304|200:332|264:304|292:240,1,240,2|8
200,220,83140,1,10
256,192,83643,12,0,87833
