osu file format v9

[General]
AudioFilename: crossing field.mp3
AudioLeadIn: 2000
PreviewTime: 45598
Countdown: 0
SampleSet: Soft
StackLeniency: 0.4
Mode: 0
LetterboxInBreaks: 0

[Editor]
DistanceSpacing: 1.4
BeatDivisor: 4
GridSize: 4

[Metadata]
Title:crossing field (TV Size)
Artist:LiSA
Creator:No_Gu
Version:Normal
Source:SWORD ART ONLINE
Tags:SAO opening Netsukawa climbb65588 KanaRin

[Difficulty]
HPDrainRate:3
CircleSize:4
OverallDifficulty:3
ApproachRate:6
SliderMultiplier:0.56
SliderTickRate:1

[Events]
//Background and Video events
Video,0,"video.avi"
0,0,"BG.jpg"
//Break Periods
//Storyboard Layer 0 (Background)
//Storyboard Layer 1 (Fail)
//Storyboard Layer 2 (Pass)
//Storyboard Layer 3 (Foreground)
//Storyboard Sound Samples
//Background Colour Transformations
3,100,163,162,255

[TimingPoints]
-658,335.195530726257,4,2,1,50,1,0
12,-66.6666666666667,4,2,1,50,0,0
1353,-66.6666666666667,4,1,1,35,0,0
1436,-66.6666666666667,4,2,1,50,0,0
2191,-66.6666666666667,4,1,1,35,0,0
2274,-66.6666666666667,4,2,1,50,0,0
2693,-66.6666666666667,4,1,1,35,0,0
2777,-66.6666666666667,4,2,1,50,0,0
4034,-66.6666666666667,4,1,1,40,0,0
4118,-66.6666666666667,4,2,1,50,0,0
4872,-66.6666666666667,4,1,1,35,0,0
4956,-66.6666666666667,4,2,1,50,0,0
5375,-66.6666666666667,4,1,1,25,0,0
6045,-50,4,1,1,70,0,0
6213,-50,4,2,1,70,0,0
6381,-50,4,1,1,70,0,0
6548,-50,4,2,1,70,0,0
6716,-50,4,1,1,70,0,0
6883,-50,4,2,1,70,0,0
7051,-50,4,1,1,70,0,0
7219,-50,4,2,1,70,0,0
7386,-50,4,1,1,70,0,0
7554,-50,4,2,1,70,0,0
7721,-50,4,1,1,70,0,0
7889,-50,4,2,1,70,0,0
8057,-50,4,1,1,70,0,0
8224,-50,4,2,1,70,0,0
8392,-50,4,1,1,70,0,0
9230,-50,4,2,1,70,0,0
9397,-50,4,1,1,70,0,0
11409,-50,4,1,1,70,0,0
11576,-50,4,2,1,70,0,0
11744,-50,4,1,1,70,0,0
11911,-50,4,2,1,70,0,0
12079,-50,4,1,1,30,0,0
12247,-50,4,2,1,70,0,0
12414,-50,4,1,1,70,0,0
12582,-50,4,2,1,70,0,0
12749,-50,4,1,1,70,0,0
12917,-50,4,2,1,70,0,0
13085,-50,4,1,1,70,0,0
13252,-50,4,2,1,70,0,0
13420,-50,4,1,1,30,0,0
13587,-50,4,2,1,70,0,0
13755,-50,4,1,1,70,0,0
13923,-50,4,2,1,70,0,0
14090,-50,4,1,1,70,0,0
14258,-50,4,2,1,70,0,0
14425,-50,4,1,1,70,0,0
14593,-50,4,2,1,70,0,0
14760,-50,4,1,1,30,0,0
14928,-50,4,2,1,70,0,0
15096,-50,4,1,1,70,0,0
15263,-50,4,2,1,70,0,0
15431,-50,4,1,1,70,0,0
15598,-50,4,2,1,70,0,0
15766,-50,4,1,1,70,0,0
15933,-50,4,2,1,70,0,0
16101,-50,4,1,1,70,0,0
16269,-50,4,2,1,70,0,0
16436,-50,4,1,1,100,0,0
16604,-50,4,2,1,70,0,0
16771,-50,4,1,1,70,0,0
17107,-50,4,1,1,70,0,0
17274,-50,4,2,1,70,0,0
17442,-50,4,1,1,70,0,0
17777,-50,4,1,1,70,0,0
17945,-50,4,2,1,70,0,0
18112,-50,4,1,1,70,0,0
18280,-50,4,2,1,70,0,0
18447,-50,4,1,1,70,0,0
18615,-50,4,2,1,70,0,0
18782,-50,4,1,1,70,0,0
19118,-50,4,1,1,70,0,0
19285,-50,4,2,1,70,0,0
19453,-50,4,1,1,70,0,0
19620,-50,4,2,1,70,0,0
19788,-50,4,1,1,70,0,0
19955,-50,4,2,1,70,0,0
20123,-50,4,1,1,70,0,0
20458,-50,4,1,1,70,0,0
20626,-50,4,2,1,70,0,0
20793,-50,4,1,1,70,0,0
21129,-50,4,1,1,70,0,0
21464,-50,4,1,1,70,0,0
21631,-50,4,1,1,50,0,0
21799,-50,4,1,1,60,0,0
22134,-50,4,1,1,70,0,0
22302,-50,4,2,1,70,0,0
22469,-50,4,1,1,70,0,0
22637,-50,4,2,1,70,0,0
22805,-50,4,1,1,70,0,0
22972,-50,4,2,1,70,0,0
23140,-50,4,1,1,70,0,0
23307,-50,4,2,1,70,0,0
23475,-50,4,1,1,70,0,0
23642,-50,4,2,1,70,0,0
23810,-50,4,1,1,70,0,0
23977,-50,4,2,1,70,0,0
24145,-50,4,1,1,70,0,0
24313,-50,4,2,1,70,0,0
24480,-50,4,1,1,70,0,0
24648,-50,4,2,1,70,0,0
24815,-50,4,1,1,70,0,0
24983,-50,4,2,1,70,0,0
25151,-50,4,1,1,70,0,0
25318,-50,4,2,1,70,0,0
25486,-50,4,1,1,70,0,0
25653,-50,4,2,1,70,0,0
25821,-50,4,1,1,70,0,0
25989,-50,4,2,1,70,0,0
26156,-50,4,1,1,70,0,0
26324,-50,4,2,1,70,0,0
26491,-50,4,1,1,70,0,0
26659,-50,4,2,1,70,0,0
26826,-50,4,1,1,70,0,0
26994,-50,4,2,1,70,0,0
27162,-50,4,1,1,70,0,0
27330,-50,4,2,1,70,0,0
27498,-50,4,1,1,70,0,0
27666,-50,4,2,1,70,0,0
27833,-50,4,1,1,70,0,0
28001,-50,4,2,1,70,0,0
28168,-50,4,1,1,70,0,0
29342,-50,4,2,1,70,0,0
29509,-50,4,1,1,70,0,0
30012,-50,4,2,1,70,0,0
30179,-50,4,1,1,70,0,0
30347,-50,4,2,1,70,0,0
30515,-50,4,1,1,70,0,0
32861,-50,4,1,1,70,0,0
33196,-50,4,2,1,70,0,0
33364,-50,4,1,1,70,0,0
33531,-50,4,1,1,70,0,0
33867,-50,4,2,1,70,0,0
34202,-50,4,1,1,70,0,0
34537,-50,4,2,1,30,0,0
34705,-50,4,1,1,70,0,0
35543,-50,4,1,1,70,0,0
35878,-50,4,2,1,70,0,0
36045,-50,4,1,1,40,0,0
36213,-50,4,1,1,50,0,0
36381,-50,4,1,1,60,0,0
36548,-50,4,1,1,70,0,0
37219,-50,4,2,1,70,0,0
37386,-50,4,1,1,40,0,0
37554,-50,4,1,1,50,0,0
37721,-50,4,1,1,60,0,0
37889,-50,4,1,1,70,0,0
38224,-50,4,1,1,70,0,0
43587,-50,4,2,1,70,0,0
43923,-50,4,2,1,70,0,0
45096,-50,4,1,1,70,0,0
45934,-50,4,2,2,95,0,0
46269,-50,4,1,1,70,0,1
46772,-50,4,2,1,70,0,1
46939,-50,4,1,1,70,0,1
47107,-50,4,2,1,70,0,1
47274,-50,4,1,1,70,0,1
47442,-50,4,2,1,70,0,1
47610,-50,4,1,1,70,0,1
47777,-50,4,2,1,70,0,1
47945,-50,4,1,1,70,0,1
48112,-50,4,2,1,70,0,1
48280,-50,4,1,1,70,0,1
48448,-50,4,2,1,70,0,1
48615,-50,4,1,1,70,0,1
48783,-50,4,2,1,70,0,1
48950,-50,4,1,1,70,0,1
49118,-50,4,2,1,70,0,1
49286,-50,4,1,1,70,0,1
49453,-50,4,2,1,70,0,1
49621,-50,4,1,1,70,0,1
49788,-50,4,2,1,70,0,1
49956,-50,4,1,1,70,0,1
50124,-50,4,2,1,70,0,1
50291,-50,4,1,1,70,0,1
50459,-50,4,2,1,70,0,1
50626,-50,4,1,1,70,0,1
50794,-50,4,2,1,70,0,1
50962,-50,4,1,1,70,0,1
51129,-50,4,2,1,70,0,1
51297,-50,4,1,1,70,0,1
51464,-50,4,2,1,70,0,1
51632,-50,4,1,1,70,0,1
51800,-50,4,2,1,70,0,1
51967,-50,4,1,1,70,0,1
52135,-50,4,2,1,70,0,1
52302,-50,4,1,1,70,0,1
52470,-50,4,2,1,70,0,1
52638,-50,4,1,1,70,0,1
52805,-50,4,2,1,70,0,1
52973,-50,4,1,1,70,0,1
53140,-50,4,2,1,70,0,1
53308,-50,4,1,1,70,0,1
53476,-50,4,2,1,70,0,1
53643,-50,4,1,1,70,0,1
53811,-50,4,2,1,70,0,1
53978,-50,4,1,1,70,0,1
54146,-50,4,2,1,70,0,1
54314,-50,4,1,1,70,0,1
54481,-50,4,2,1,70,0,1
54649,-50,4,1,1,70,0,1
54816,-50,4,2,1,70,0,1
54984,-50,4,1,1,70,0,1
55319,-50,4,1,1,70,0,1
55990,-50,4,1,1,70,0,1
56325,-50,4,1,1,70,0,1
56911,-50,4,1,1,70,0,0
56995,-50,4,1,1,70,0,1
57163,-50,4,2,1,70,0,1
57330,-50,4,1,1,70,0,1
57498,-50,4,2,1,70,0,1
57665,-50,4,1,1,70,0,1
57833,-50,4,2,1,70,0,1
58000,-50,4,1,1,70,0,1
58168,-50,4,2,1,70,0,1
58336,-50,4,1,1,70,0,1
58503,-50,4,2,1,70,0,1
58671,-50,4,1,1,70,0,1
58838,-50,4,2,1,70,0,1
59006,-50,4,1,1,70,0,1
59174,-50,4,2,1,70,0,1
59341,-50,4,1,1,70,0,1
59509,-50,4,2,1,70,0,1
59677,-50,4,1,1,70,0,1
59844,-50,4,2,1,70,0,1
60012,-50,4,1,1,70,0,1
60179,-50,4,2,1,70,0,1
60347,-50,4,1,1,70,0,1
60514,-50,4,2,1,70,0,1
60682,-50,4,1,1,70,0,1
60850,-50,4,2,1,70,0,1
61017,-50,4,1,1,70,0,1
61185,-50,4,2,1,70,0,1
61352,-50,4,1,1,70,0,1
61520,-50,4,2,1,70,0,1
61688,-50,4,1,1,70,0,1
61855,-50,4,2,1,70,0,1
62023,-50,4,1,1,70,0,1
62190,-50,4,2,1,70,0,1
62358,-50,4,1,1,70,0,1
62526,-50,4,2,1,70,0,1
62693,-50,4,1,1,70,0,1
62861,-50,4,2,1,70,0,1
63028,-50,4,1,1,70,0,1
63196,-50,4,2,1,70,0,1
63364,-50,4,1,1,70,0,1
63531,-50,4,2,1,70,0,1
63699,-50,4,1,1,70,0,1
63866,-50,4,2,1,70,0,1
64034,-50,4,1,1,70,0,1
64202,-50,4,2,1,70,0,1
64369,-50,4,1,1,70,0,1
64537,-50,4,2,1,70,0,1
64704,-50,4,1,1,70,0,1
64872,-50,4,2,1,70,0,1
65040,-50,4,1,1,70,0,1
65207,-50,4,2,1,70,0,1
65375,-50,4,1,1,70,0,1
65542,-50,4,2,1,70,0,1
65710,-50,4,1,1,70,0,1
65878,-50,4,2,1,70,0,1
66045,-50,4,1,1,70,0,1
67051,-50,4,1,1,35,0,1
67386,-50,4,1,1,50,0,1
67637,-50,4,1,1,70,0,0
67721,-50,4,1,1,70,0,0
67889,-50,4,2,1,70,0,0
68057,-50,4,1,1,70,0,0
68224,-50,4,2,1,70,0,0
68392,-50,4,1,1,70,0,0
68559,-50,4,2,1,70,0,0
68727,-50,4,1,1,70,0,0
68895,-50,4,2,1,70,0,0
69062,-50,4,1,1,70,0,0
69230,-50,4,2,1,70,0,0
69397,-50,4,1,1,70,0,0
69565,-50,4,2,1,70,0,0
69733,-50,4,1,1,70,0,0
70068,-50,4,1,1,70,0,0
70235,-50,4,1,1,70,0,0
70906,-50,4,1,1,70,0,0
71576,-50,4,1,1,70,0,0
72247,-50,4,1,1,70,0,0
73085,-50,4,1,1,70,0,1
73252,-50,4,2,1,70,0,1
73420,-50,4,1,1,70,0,1
73587,-50,4,2,1,70,0,1
73755,-50,4,1,1,70,0,1
73923,-50,4,2,1,70,0,1
74090,-50,4,1,1,70,0,1
74258,-50,4,2,1,70,0,1
74425,-50,4,1,1,70,0,1
74593,-50,4,2,1,70,0,1
74760,-50,4,1,1,70,0,1
74928,-50,4,2,1,70,0,1
75096,-50,4,1,1,70,0,1
75598,-50,4,2,1,70,0,1
75766,-50,4,1,1,70,0,1
76269,-50,4,1,1,70,0,1
76772,-50,4,1,1,70,0,1
77107,-50,4,1,1,35,0,1
77274,-50,4,1,1,70,0,1
78364,-50,4,1,1,70,0,0
78448,-50,4,1,1,70,0,1
78615,-50,4,2,1,70,0,1
78783,-50,4,1,1,70,0,1
78950,-50,4,2,1,70,0,1
79118,-50,4,1,1,70,0,1
79286,-50,4,2,1,70,0,1
79453,-50,4,1,1,70,0,1
79621,-50,4,2,1,70,0,1
79788,-50,4,1,1,70,0,1
79956,-50,4,2,1,70,0,1
80124,-50,4,1,1,70,0,1
80291,-50,4,2,1,70,0,1
80459,-50,4,1,1,70,0,1
80626,-50,4,2,1,70,0,1
80794,-50,4,1,1,70,0,1
81129,-50,4,1,1,70,0,1
81297,-50,4,2,1,70,0,1
81464,-50,4,1,1,70,0,1
81632,-50,4,2,1,70,0,1
81800,-50,4,1,1,70,0,1
81967,-50,4,2,1,70,0,1
82135,-50,4,1,1,70,0,1
83559,-50,4,1,1,70,0,0
83643,-50,4,1,1,70,0,1
83727,-50,4,2,1,5,0,0

[Colours]
Combo1 : 128,255,128
Combo2 : 255,255,128
Combo3 : 128,255,255
Combo4 : 255,128,192

[HitObjects]
116,140,12,6,0,B|100:140|100:140|84:144|84:144|72:144,2,41.9999987483025,2|0|2
212,208,682,6,0,B|240:232|240:232|296:204|368:232,1,167.99999499321,2|0
436,328,1688,1,2
488,224,2023,2,0,B|492:164,1,41.9999987483025,2|0
392,120,2526,2,0,B|388:180,1,41.9999987483025,2|0
296,236,3029,1,0
232,140,3364,6,0,B|192:120|148:128,1,83.999997496605,2|0
136,244,4034,2,0,B|176:264|220:256,1,83.999997496605
324,208,4705,2,0,B|368:204,1,41.9999987483025,2|0
436,296,5207,2,0,B|392:300,1,41.9999987483025,2|0
216,44,6045,6,0,B|232:104|192:152,1,112,2|0
108,280,6716,2,0,B|152:320|212:304,1,112
256,236,7219,1,0
299,303,7386,2,0,B|360:320|404:280,1,112,2|0
317,149,8057,2,0,B|280:104|296:44,1,112,2|0
248,192,8727,6,0,B|216:184|216:184|184:216|144:208,2,112,2|0|0
104,132,9733,1,0
68,200,9900,2,0,B|56:264|88:312,1,112,10|0
164,304,10403,2,0,B|220:296,1,56,10|0
372,104,11409,6,0,B|392:156|376:216,1,112,4|0
304,352,12079,2,0,B|276:344|256:324|256:324|236:344|208:352,1,112,8|0
135,214,12749,2,0,B|120:156|140:104,1,112
292,60,13420,2,0,B|307:118|287:170,1,112,8|0
224,216,13923,1,0
296,252,14090,6,0,B|348:280|404:256,2,112,0|0|8
176,152,15096,2,0,B|121:172|65:156,2,112
64,260,16101,2,0,B|119:240|175:256,1,112,4|0
328,216,16772,6,0,B|384:212,2,56,4|0|10
196,136,17442,2,0,B|140:140,2,56,0|2|8
324,44,18112,2,0,B|360:76|356:128|332:152,1,112,0|8
272,104,18615,1,2
204,64,18783,2,0,B|148:68,2,56,0|0|10
196,220,19453,6,0,B|232:204|272:228|280:268,1,112,0|8
436,232,20124,2,0,B|436:200|420:180,2,56,2|0|8
292,164,20794,2,0,B|292:132|308:112,2,56,2|0|8
304,240,21297,1,0
232,212,21464,2,0,B|176:232|128:188,1,112,10|0
284,156,22135,5,4
132,120,22470,2,0,B|160:84|148:40,2,84,8|8|0
72,68,23140,2,0,B|32:80|32:80|32:120|0:140,2,112,8|0|8
100,224,24146,2,0,B|152:204|212:216,1,112,0|8
348,292,24816,5,0
428,156,25152,2,0,B|464:168|492:152|492:152|516:164,2,84,8|8|0
456,84,25822,2,0,B|392:68|360:120,2,112,8|0|8
300,80,26828,2,0,B|280:116|288:164|324:184,1,112,0|8
180,252,27498,6,0,B|168:196|184:140,2,112,4|10|0
136,316,28336,2,0,B|172:336|208:332|244:300,2,112,0|8|2
104,244,29174,2,0,B|68:224|32:228|-4:260,1,112,8|0
60,308,29677,1,0
8,368,29844,1,10
164,364,30179,6,0,B|168:328|152:308|152:308|176:292|180:260,1,112,0|8
144,112,30850,1,2
208,64,31017,2,0,B|320:64,2,112,0|8|0
212,144,31855,1,8
356,204,32191,2,0,B|412:212,2,56
300,148,32693,1,0
284,224,32861,6,0,B|236:264|156:212|176:148,1,168,4|0
96,288,33699,1,0
56,220,33867,1,8
140,88,34202,2,0,B|188:48|268:100|248:164,1,168
328,24,35040,1,0
368,92,35208,1,0
476,204,35543,6,0,B|416:212|396:272,1,112
428,344,36045,2,0,B|400:356|372:348,1,56
320,288,36381,2,0,B|308:260|316:232,1,56,0|8
164,188,36883,2,0,B|224:180|244:120,1,112
212,48,37385,2,0,B|240:36|268:44,1,56
320,104,37721,2,0,B|332:132|324:160,1,56,0|8
224,280,38224,5,4
288,328,38392,2,0,B|348:344|404:324,2,112
296,248,39230,2,0,B|316:192|288:136,1,112
244,76,39733,6,0,B|228:52|196:48,1,56
44,84,40235,1,0
180,160,40571,1,0
296,56,40906,2,0,B|354:35|436:53|492:136|478:249|384:299|292:289|235:252|220:188|234:137|296:124|333:149,1,560,0|4
184,104,42917,6,0,B|96:112,2,84
168,180,43587,2,0,B|72:188|72:188|12:176|0:80|44:40|44:40|208:24|208:24|240:36|260:60,1,504,4|0
320,112,45263,2,0,B|352:120|380:108,1,56,8|0
256,312,45934,1,8
116,240,46269,6,0,B|136:184|116:124,1,112,6|8
136,52,46772,1,0
200,96,46939,2,0,B|256:104|312:96,1,112,0|10
376,52,47442,1,0
394,129,47610,2,0,B|376:184|396:240,1,112,2|8
256,312,48280,1,2
116,240,48615,1,8
176,96,48950,6,0,B|168:40,2,56,2|0|8
336,96,49621,2,0,B|344:40,2,56,0|0|8
364,168,50124,2,0,B|416:196|476:180,1,112
496,256,50626,1,8
460,328,50794,2,0,B|412:300|352:320,1,112,0|2
280,352,51297,1,8
268,276,51464,1,0
192,268,51632,6,0,B|156:268|156:268|120:276|120:276|80:276,1,112,4|8
104,200,52135,2,0,B|48:200,1,56,0|2
48,44,52638,1,8
204,56,52973,2,0,B|240:56|240:56|276:72|276:72|312:72,1,112,2|8
376,28,53476,1,0
384,104,53643,2,0,B|400:160|372:212,1,112,2|8
232,288,54314,6,0,B|172:304|120:280,1,112,2|8
68,224,54816,2,0,B|44:168|60:112,3,112,0|0|2|2
116,60,55990,5,8
268,28,56325,1,2
384,132,56660,1,2
424,284,56995,6,0,B|372:312|316:296,1,112,6|8
256,244,57498,1,0
196,295,57666,2,0,B|140:312|88:284,2,112,0|10|2
184,216,58504,1,0
240,164,58671,2,8,B|324:144|376:252|304:312,1,224
364,360,59509,1,0
428,316,59677,6,0,B|416:260|440:200,1,112,2|8
332,88,60347,2,0,B|276:100|216:76,1,112,0|8
156,36,60850,2,0,B|100:24|40:48,1,112,2|2
52,124,61353,2,0,B|112:136|172:112,2,112,8|0|8
12,276,62358,5,4
160,228,62693,2,8,B|220:240|256:284|256:284|292:240|352:228,1,224
500,276,63699,5,2
388,168,64034,2,0,B|372:124|416:92|456:112,2,112,8|2|8
232,192,65040,2,0,B|172:208|116:180,2,112,2|10|0
264,120,65878,2,0,B|260:80|260:80|272:60|272:60|268:12,2,112,2|4|0
312,184,66716,2,8,B|428:180,2,112
180,92,67721,6,0,B|132:124|68:112,1,112,4|8
72,271,68392,2,0,B|132:260|180:292,1,112,0|8
332,292,69062,2,0,B|380:260|440:271,1,112,0|8
439,112,69733,2,0,B|380:124|332:92,1,112,0|8
256,192,70235,12,0,72247
256,192,72749,5,8
104,148,73085,6,0,B|136:156|140:192|136:224|104:236,1,112,6|8
36,268,73587,1,0
100,312,73755,2,0,B|152:336|208:312,1,112,0|8
352,248,74425,2,0,B|460:272,2,112,2|8|2
232,148,75431,1,0
116,44,75766,6,0,B|112:104,1,56,2|0
204,228,76269,2,0,B|154:194,1,56,2|0
4,220,76772,2,0,B|57:193,1,56,2|0
208,228,77274,1,0
280,196,77442,2,0,B|340:212|392:172,2,112,0|2|0
252,124,78280,1,0
176,112,78448,6,0,B|152:104|152:104|120:136|68:120,1,112,4|8
32,188,78950,2,0,B|108:212|168:184|168:184|196:196,1,168,0|8
176,272,79621,2,0,B|236:296|292:228|268:172,1,168,0|8
416,120,80459,6,0,B|448:136|476:124|476:124|480:152|512:168,1,112,0|8
452,224,80962,1,0
484,296,81129,2,0,B|424:312|384:264,2,112,2|8|2
380,180,82135,1,0
312,144,82302,6,0,B|256:140|200:144,1,112,10|0
128,180,82805,2,0,B|88:196|80:252|112:280,1,112,2|2
176,240,83308,2,0,B|292:252,1,112,0|4
256,192,83727,12,0,88168
