osu file format v9

[General]
AudioFilename: crossing field.mp3
AudioLeadIn: 2000
PreviewTime: 45598
Countdown: 0
SampleSet: Soft
StackLeniency: 0.7
Mode: 0
LetterboxInBreaks: 0

[Editor]
DistanceSpacing: 1.1
BeatDivisor: 4
GridSize: 4

[Metadata]
Title:crossing field (TV Size)
Artist:LiSA
Creator:No_Gu
Version:Easy
Source:SWORD ART ONLINE
Tags:SAO opening Netsukawa climbb65588 KanaRin

[Difficulty]
HPDrainRate:2
CircleSize:3
OverallDifficulty:2
ApproachRate:3
SliderMultiplier:0.8
SliderTickRate:1

[Events]
//Background and Video events
Video,0,"video.avi"
0,0,"BG.jpg"
//Break Periods
//Storyboard Layer 0 (Background)
//Storyboard Layer 1 (Fail)
//Storyboard Layer 2 (Pass)
//Storyboard Layer 3 (Foreground)
//Storyboard Sound Samples
//Background Colour Transformations
3,100,163,162,255

[TimingPoints]
-658,335.195530726257,4,2,1,50,1,0
1353,-100,4,1,1,25,0,0
1436,-100,4,2,1,50,0,0
2693,-100,4,1,1,25,0,0
2777,-100,4,2,1,50,0,0
4034,-100,4,1,1,25,0,0
4118,-100,4,2,1,50,0,0
5375,-100,4,1,1,25,0,0
6045,-100,4,1,1,70,0,0
9900,-100,4,2,1,50,0,0
10068,-100,4,1,1,70,0,0
10403,-100,4,2,1,50,0,0
10571,-100,4,1,1,70,0,0
11409,-100,4,1,1,50,0,0
16772,-100,4,1,1,60,0,0
32861,-100,4,1,1,45,0,0
33196,-100,4,2,1,45,0,0
34202,-100,4,1,1,45,0,0
34537,-100,4,2,1,45,0,0
35543,-100,4,1,1,45,0,0
35878,-100,4,2,1,45,0,0
36883,-100,4,1,1,45,0,0
37219,-100,4,2,1,45,0,0
38224,-100,4,1,1,45,0,0
39984,-100,4,2,1,45,0,0
40571,-100,4,1,1,45,0,0
40654,-100,4,2,1,45,0,0
40906,-100,4,1,1,45,0,0
43587,-100,4,2,1,45,0,0
45263,-100,4,1,1,45,0,0
45934,-100,4,2,2,95,0,0
46269,-100,4,1,1,70,0,1
56911,-100,4,1,1,70,0,0
56995,-100,4,1,1,70,0,1
67721,-100,4,1,1,70,0,0
73085,-100,4,1,1,70,0,1
78364,-100,4,1,1,70,0,0
78448,-100,4,1,1,70,0,1
83559,-100,4,1,1,70,0,0
83643,-100,4,1,1,70,0,1
83727,-100,4,2,1,5,0,0

[Colours]
Combo1 : 128,255,128
Combo2 : 255,255,128
Combo3 : 128,255,255
Combo4 : 255,128,192

[HitObjects]
72,76,682,6,0,B|120:44|184:84|168:156,1,160,2|0
344,152,2023,2,0,B|328:84|392:44|440:76,1,160,2|0
416,252,3364,6,0,B|448:300|408:364|340:348,1,160,2|0
171,348,4705,2,0,B|104:364|64:300|96:252,1,160,2|0
240,152,6045,6,0,B|292:152|292:152|344:168|344:168|396:168,2,160,2|0|2
188,80,7721,2,0,B|124:88|116:180|168:204,1,160
236,248,8727,6,0,B|228:312|136:320|114:272,1,160,2|0
44,220,9733,2,0,B|40:176,1,40,0|10
100,116,10235,2,0,B|104:72,2,40,0|10|0
300,204,11409,6,0,B|400:212|392:368|288:364,1,240
256,284,12749,2,0,B|164:280|164:280|156:224|104:184|44:208,1,240
8,132,14090,6,0,B|68:88|188:124|220:184,1,240
308,164,15431,2,0,B|332:204|376:208|420:204|448:164,1,160,0|6
376,112,16436,1,8
292,84,16772,6,0,B|248:92|232:132,1,80,4|8
148,100,17442,2,0,B|156:184,1,80,0|8
72,152,18112,2,0,B|56:112|12:104,2,80,2|8|0
20,224,19118,1,10
108,236,19453,5,0
56,308,19788,2,8,B|116:340|176:312|192:256,1,160
256,208,20794,1,2
322,264,21129,2,8,B|336:312|396:340|456:308,1,160
404,236,22135,6,0,B|424:156,1,80,4|8
372,88,22805,1,0
320,160,23140,2,8,B|304:204|256:204|208:204|192:160,2,160
256,100,24816,6,0,B|228:68|184:72,1,80,0|8
96,88,25487,1,0
56,168,25822,2,8,B|24:220|56:288|112:296,1,160
188,256,26828,1,0
256,200,27163,1,8
324,256,27498,5,4
404,295,27833,2,8,B|456:288|488:220|456:168,1,160,10|8
376,136,28839,1,0
336,56,29174,2,8,B|256:52|176:56,1,160
136,136,30179,5,0
108,220,30515,1,8
160,292,30850,2,0,B|184:296|212:284,1,40
272,240,31353,2,8,B|332:224|388:252,1,120,10|8
468,216,32191,2,0,B|480:136,1,80
404,88,32861,6,0,B|328:108|244:88|244:88|208:172,1,240,4|8
136,120,34202,2,0,B|112:180|112:180|128:232|192:272|260:240,1,240,0|8
304,164,35543,6,0,B|360:188|368:256|332:300|332:300|372:304|404:340,1,240,4|8
484,304,36883,2,0,B|464:272|436:256|436:256|444:192|416:128|360:104,1,240,0|12
332,32,38224,6,0,B|288:48|276:104|276:104|184:24|60:56,1,320,4|0
24,132,39900,1,0
68,208,40235,2,0,B|108:216|148:196,1,80,2|0
180,276,40906,6,0,B|224:260|236:204|236:204|328:284|450:253|450:253|480:184,1,400,0|4
428,112,42917,2,0,B|456:92|500:100,2,60
256,192,43587,12,8,45263
136,100,45934,5,8
112,184,46269,6,0,B|128:224|116:264,1,80,6|8
256,156,47274,1,8
395,262,47945,2,0,B|384:224|400:184,1,80,8|0
436,104,48615,1,8
356,68,48950,5,2
312,144,49286,2,8,B|308:196|256:196|204:196|200:144,1,160
156,68,50291,1,2
116,144,50626,2,8,B|124:236|204:268,1,160
256,336,51632,5,2
308,268,51967,2,8,B|388:236|396:144,1,160
344,72,52973,2,0,B|384:56|424:64,2,80,2|8|2
256,84,53978,1,8
168,72,54314,6,0,B|128:56|88:64,2,80,2|10|2
192,156,55319,2,0,B|200:176|196:204,1,40,0|2
140,264,55822,2,0,B|132:284|136:312,1,40,2|8
376,192,56995,5,6
444,140,57330,2,8,B|432:96|384:84|328:92|316:128,1,160
256,60,58336,1,2
196,128,58671,2,8,B|184:92|128:84|80:96|68:140,1,160
136,192,59677,5,2
84,264,60012,2,8,B|80:316|148:344|192:308|192:308|216:312,1,160,8|10
256,240,61017,1,0
306,310,61353,2,8,B|320:308|320:308|364:344|432:316|428:264,1,160,10|8
348,224,62358,6,0,B|352:144,1,80,4|8
256,292,63364,1,8
160,144,64034,6,0,B|164:224,1,80,8|0
92,276,64705,1,8
20,224,65040,2,0,B|24:144,1,80,2|8
172,48,66045,1,8
248,96,66381,2,0,B|288:104|332:96,1,80,2|8
404,52,67051,1,8
296,192,67721,5,4
299,280,68057,2,8,B|307:312|295:348|223:348|207:312|219:276,1,160,8|10
216,192,69062,1,2
140,152,69397,2,8,B|104:140|60:148|60:148|76:104|56:72,1,160
256,192,70235,12,0,72247
256,248,72749,5,8
300,324,73085,2,0,B|340:320|380:336,1,80,6|8
456,376,73755,1,0
452,288,74090,2,8,B|428:204|456:124,1,160
392,68,75096,2,0,B|352:48|312:64,1,80,2|8
348,144,75766,6,0,B|348:192|348:192|320:220|320:264,2,120,2|10|10
192,60,77442,1,8
112,96,77777,1,2
108,184,78112,1,0
180,236,78448,5,4
196,148,78783,2,8,B|276:136|356:152,1,160
420,212,79788,1,2
444,296,80124,2,8,B|392:304|352:268|352:268|336:296|304:304,1,160
256,228,81129,5,2
208,304,81464,2,8,B|176:296|160:268|160:268|120:304|68:296,1,160
88,208,82470,2,0,B|80:128,1,80,2|8
144,68,83140,2,0,B|204:88|264:56,1,120,2|4
256,192,83727,12,0,88168
