osu file format v11

[General]
AudioFilename: crossing field(TVsize).mp3
AudioLeadIn: 2000
PreviewTime: 45598
Countdown: 0
SampleSet: Soft
StackLeniency: 0.4
Mode: 0
LetterboxInBreaks: 0

[Editor]
DistanceSpacing: 1
BeatDivisor: 2
GridSize: 4

[Metadata]
Title:crossing field (TV Size)
TitleUnicode:crossing field (TV Size)
Artist:LiSA
ArtistUnicode:LiSA
Creator:LQA20Ans
Version:Easy
Source:SWORD ART ONLINE
Tags:SAO -Neipezi Kinzo coolcool Opening Kin -Kirito [Zzz]
BeatmapID:172906
BeatmapSetID:55043

[Difficulty]
HPDrainRate:2
CircleSize:3
OverallDifficulty:2
ApproachRate:3
SliderMultiplier:0.8
SliderTickRate:2

[Events]
//Background and Video events
Video,0,"BGA.avi"
0,0,"BG.jpg"
//Break Periods
//Storyboard Layer 0 (Background)
//Storyboard Layer 1 (Fail)
//Storyboard Layer 2 (Pass)
//Storyboard Layer 3 (Foreground)
//Storyboard Sound Samples
//Background Colour Transformations
3,100,163,162,255

[TimingPoints]
-658,335.195530726257,4,2,1,65,1,0
12,-133.333333333333,4,2,1,50,0,0
682,-133.333333333333,4,2,1,40,0,0
6045,-100,4,2,1,65,0,0
11409,-100,4,1,1,65,0,0
11576,-100,4,2,1,65,0,0
12079,-100,4,2,2,65,0,0
12247,-100,4,2,1,65,0,0
14090,-100,4,2,1,45,0,0
14760,-100,4,2,1,65,0,0
16101,-100,4,2,1,65,0,0
17107,-100,4,2,2,65,0,0
17274,-100,4,2,1,65,0,0
18448,-100,4,2,2,65,0,0
18615,-100,4,2,1,65,0,0
20459,-100,4,2,2,65,0,0
20626,-100,4,2,1,65,0,0
21129,-100,4,2,2,65,0,0
21297,-100,4,2,1,65,0,0
22135,-100,4,2,1,70,0,0
22470,-100,4,2,2,70,0,0
22638,-100,4,2,1,70,0,0
25152,-100,4,2,2,70,0,0
25319,-100,4,2,1,70,0,0
26492,-100,4,2,2,70,0,0
26660,-100,4,2,1,70,0,0
26828,-100,4,2,1,50,0,0
27498,-100,4,2,1,70,0,0
27833,-100,4,2,2,70,0,0
28001,-100,4,2,1,70,0,0
29174,-100,4,2,2,70,0,0
29342,-100,4,2,1,70,0,0
30179,-100,4,2,1,60,0,0
31185,-100,4,2,2,60,0,0
31353,-100,4,2,1,60,0,0
31855,-100,4,2,2,60,0,0
32023,-100,4,2,1,60,0,0
32861,-100,4,2,1,75,0,0
33029,-100,4,2,1,60,0,0
38224,-100,4,2,1,75,0,0
43755,-100,4,2,1,30,0,0
45263,-100,4,2,3,5,0,0
46269,-100,4,1,1,70,0,1
46604,-100,4,2,2,70,0,1
46772,-100,4,2,1,70,0,1
48615,-100,4,2,2,70,0,1
48783,-100,4,2,1,70,0,1
50626,-100,4,2,2,70,0,1
50794,-100,4,2,1,70,0,1
54649,-100,4,2,2,70,0,1
54816,-100,4,2,1,70,0,1
55319,-100,4,2,2,70,0,1
55487,-100,4,2,1,70,0,1
55990,-100,4,1,1,70,0,0
56325,-100,4,2,1,70,0,0
56995,-100,4,1,1,70,0,1
57330,-100,4,2,2,70,0,1
57498,-100,4,2,1,70,0,1
59342,-100,4,2,2,70,0,1
59509,-100,4,2,1,70,0,1
61353,-100,4,2,2,70,0,1
61520,-100,4,2,1,70,0,1
62023,-100,4,2,1,80,0,1
62358,-100,4,2,1,70,0,1
65375,-100,4,2,2,70,0,1
65543,-100,4,2,1,70,0,1
66045,-100,4,2,2,70,0,1
66213,-100,4,2,1,70,0,1
68057,-100,4,2,2,70,0,1
68224,-100,4,2,1,70,0,1
69397,-100,4,2,2,70,0,1
69565,-100,4,2,1,70,0,1
70068,-100,4,2,2,70,0,1
70235,-100,4,2,1,70,0,1
73420,-100,4,2,2,70,0,1
73587,-100,4,2,1,70,0,1
74760,-100,4,2,2,70,0,1
74928,-100,4,2,1,70,0,1
75766,-100,4,1,1,60,0,1
75934,-100,4,1,1,60,0,1
76604,-100,4,2,1,100,0,1
76772,-100,4,1,1,100,0,0
78448,-100,4,2,1,60,0,0
79453,-100,4,2,2,60,0,0
79621,-100,4,2,1,60,0,0
80794,-100,4,2,2,60,0,0
80962,-100,4,2,1,60,0,0
81800,-100,4,2,1,60,0,0
82973,-100,4,2,1,80,0,0
83308,-100,4,2,1,60,0,0
84146,-100,4,2,1,40,0,0
84481,-100,4,2,1,35,0,0
84816,-100,4,2,1,30,0,0
85152,-100,4,2,1,25,0,0
85487,-100,4,2,1,20,0,0
85822,-100,4,2,1,15,0,0
86157,-100,4,2,1,10,0,0
86492,-100,4,2,1,5,0,0

[Colours]
Combo1 : 255,128,0
Combo2 : 228,22,22
Combo3 : 86,106,175
Combo4 : 255,0,128

[HitObjects]
200,88,12,2,0,B|256:56|316:88,1,120.000004577637,2|4,0:0|0:0,0:0:0
256,192,1353,1,8,0:0:0
312,296,2023,2,0,B|256:328|196:296,1,120.000004577637,2|8,0:0|0:0,0:0:0
160,184,3364,6,0,B|192:128|252:104,1,120.000004577637,2|8,0:0|0:0,0:0:0
348,36,4705,2,0,P|368:92|352:156,1,120.000004577637,2|8,0:0|0:0,0:0:0
224,240,6046,6,0,B|203:145|283:96,1,160,4|8,0:0|0:0,0:0:0
131,160,7386,2,0,B|151:253|71:303,1,160,4|8,0:0|0:0,0:0:0
256,192,8727,12,4,10403,0:0:0
156,268,11409,6,0,P|256:328|352:256,1,240,4|0,0:0|0:0,0:0:0
372,192,12749,2,0,B|456:192,2,80,2|0|8,0:0|0:0|0:0,0:0:0
224,256,14090,2,0,P|168:232|168:152|214:124,1,160,2|8,0:0|0:0,0:0:0
360,192,15431,2,0,B|360:112,2,80,2|0|8,0:0|0:0|0:0,0:0:0
260,316,16772,6,0,P|180:304|128:232|128:232|44:232,1,240,4|8,0:0|0:0,0:0:0
48,152,18112,2,0,P|127:152|127:152|179:80|259:68,1,240,2|8,0:0|0:0,0:0:0
340,64,19453,1,2,0:0:0
420,200,20124,6,0,B|492:136|488:60,2,160
264,232,22135,6,0,B|320:264|332:328,2,120,4|0|8,0:0|0:0|0:0,0:0:0
108,196,23811,1,8,0:0:0
112,276,24145,2,0,B|168:268|184:220,1,80,0|8,0:0|0:0,0:0:0
184,156,24816,6,0,P|240:104|324:156|372:104,1,200
404,32,25990,2,0,P|452:112|392:184,1,200,0|8,0:0|0:0,0:0:0
472,324,27498,6,0,P|368:356|296:300|296:300|296:244,1,240,4|8,0:0|0:0,0:0:0
216,244,28839,2,0,P|216:298|216:298|144:354|40:322,1,240,2|8,0:0|0:0,0:0:0
40,244,30179,1,2,0:0:0
156,136,30850,6,0,B|122:83|69:65|11:89,2,160
296,56,32861,6,0,P|308:164|420:120|420:120|484:152,1,240,4|10,0:0|0:0,0:0:0
480,232,34202,2,0,P|419:262|419:262|307:218|295:326,1,240,2|10,0:0|0:0,0:0:0
220,304,35543,6,0,B|189:340|159:357|159:357|122:352,2,120,4|0|8,0:0|0:0|0:0,0:0:0
160,252,36883,2,0,B|112:243|83:226|83:226|69:191,2,120,2|0|8,0:0|0:0|0:0,0:0:0
152,172,38224,6,0,P|186:87|284:136|284:136|327:29|404:66,1,320,4|2,0:0|0:0,0:0:0
376,140,39900,2,0,P|420:148|452:132,2,80,0|8|0,0:0|0:0|0:0,0:0:0
344,212,40906,2,0,P|260:336|100:324,1,320,0|2,0:0|0:0,0:0:0
48,176,42917,2,0,P|116:160|192:208,1,160,8|4,0:0|0:0,0:0:0
256,192,43755,12,0,45263,0:0:0
248,264,46269,6,0,B|204:340|96:340|44:268,1,240,4|10,0:0|0:0,0:0:0
48,192,47610,1,0,0:0:0
180,104,48280,2,0,B|256:60|332:104,1,160,0|0,0:0|0:0,0:0:0
404,72,49286,1,8,0:0:0
484,212,49956,5,8,0:0:0
452,288,50291,2,2,B|420:328|340:328|308:288,1,160,0|0,0:0|0:0,0:0:0
256,228,51297,1,8,0:0:0
276,152,51632,2,0,P|304:124|316:84,1,80,0|8,0:0|0:0,0:0:0
164,36,52637,1,8,0:0:0
24,112,53308,1,8,0:0:0
168,180,53978,1,8,0:0:0
84,192,54314,6,2,B|40:236|28:296|60:368|132:384|184:356,1,280
216,240,55990,1,4,0:0:0
340,344,56660,1,8,0:0:0
416,324,56995,6,0,P|396:208|288:188,1,240,4|8,0:0|0:0,0:0:0
228,136,58336,1,0,0:0:0
68,140,59006,2,0,B|76:76|128:36,2,120,2|0|8,0:0|0:0|0:0,0:0:0
116,292,60683,5,8,0:0:0
116,292,61017,2,2,P|200:332|200:332|260:300|296:336|344:336,1,240,2|2,0:0|0:0,0:0:0
424,328,62358,2,0,P|452:296|464:260,1,80,4|8,0:0|0:0,0:0:0
412,108,63364,1,8,0:0:0
256,64,64034,1,8,0:0:0
156,188,64705,1,8,0:0:0
236,192,65040,6,0,B|356:192|356:192|452:216|452:280|452:304,1,280,0|4,0:0|0:0,0:0:0
252,324,67051,1,8,0:0:0
284,252,67386,1,8,0:0:0
232,192,67721,6,2,B|232:120|176:96|176:96|52:96,1,240,6|8,0:0|0:0,0:0:0
48,176,69062,2,2,B|48:264|144:272|144:272|272:272,1,280,2|4,0:0|0:0,0:0:0
144,176,70905,5,4,0:0:0
256,60,71576,1,4,0:0:0
368,176,72247,2,0,B|416:176|448:204|456:248,1,120,4|8,0:0|0:0,0:0:0
376,260,73085,6,2,P|312:336|232:280|232:280|156:280,1,240,2|10,0:0|0:0,0:0:0
96,336,74425,2,2,P|48:284|92:228|92:228|92:108,1,240,2|10,0:0|0:0,0:0:0
112,32,75766,6,0,B|180:52|172:128,2,120,4|0|4,0:0|0:0|0:0,0:0:0
136,192,78448,5,4,0:0:0
288,144,79118,2,2,B|368:144|368:144|408:112|464:112,1,160,2|0,0:0|0:0,0:0:0
440,272,80459,2,2,B|407:273|367:241|367:241|287:241,1,160,2|0,0:0|0:0,0:0:0
128,248,81800,6,2,B|100:220|100:164|128:136,1,120,2|8,0:0|0:0,0:0:0
188,192,82638,2,2,B|268:192,2,80,10|10|10,0:0|0:0|0:0,0:0:0
256,192,83643,12,0,86492,0:0:0
