osu file format v9

[General]
AudioFilename: HUE.mp3
AudioLeadIn: 2000
PreviewTime: 45750
Countdown: 0
SampleSet: Soft
StackLeniency: 0.7
Mode: 0
LetterboxInBreaks: 0

[Editor]
Bookmarks: 11368,22094,32820,36843,46228,79077,80753
DistanceSpacing: 1
BeatDivisor: 4
GridSize: 4

[Metadata]
Title:crossing field (TV Size)
Artist:LiSA
Creator:CXu
Version:Normal
Source:SWORD ART ONLINE
Tags:opening KinomiCandy

[Difficulty]
HPDrainRate:3
CircleSize:3
OverallDifficulty:3
ApproachRate:4
SliderMultiplier:1.1
SliderTickRate:1

[Events]
//Background and Video events
0,0,"HUE.jpg"
Video,0,"HUE.avi"
//Break Periods
//Storyboard Layer 0 (Background)
//Storyboard Layer 1 (Fail)
//Storyboard Layer 2 (Pass)
//Storyboard Layer 3 (Foreground)
//Storyboard Sound Samples
//Background Colour Transformations
3,100,163,162,255

[TimingPoints]
-506,335.195530726257,4,2,1,60,1,0
834,-133.333333333333,4,2,1,60,0,0
5861,-100,4,2,1,60,0,0
11560,-125,4,2,1,30,0,0
16923,-100,4,2,1,60,0,0
33012,-200,4,2,1,30,0,0
38375,-100,4,2,1,60,0,0
46421,-100,4,2,1,70,0,1
75917,-100,4,2,1,80,0,0
77258,-100,4,2,1,70,0,0
83962,-100,4,2,1,65,0,0
84297,-100,4,2,1,60,0,0
84632,-100,4,2,1,55,0,0
84968,-100,4,2,1,50,0,0
85303,-100,4,2,1,45,0,0
85638,-100,4,2,1,40,0,0
85973,-100,4,2,1,35,0,0
86308,-100,4,2,1,30,0,0
86644,-100,4,2,1,25,0,0
86979,-100,4,2,1,20,0,0
87314,-100,4,2,1,15,0,0
87649,-100,4,2,1,10,0,0
87984,-100,4,2,1,5,0,0

[Colours]
Combo1 : 255,255,128
Combo2 : 205,86,131
Combo3 : 168,206,130
Combo4 : 255,137,81

[HitObjects]
256,192,164,5,2
256,192,331,1,0
256,192,499,1,2
164,144,834,6,0,B|175:77|256:55|336:77|348:144,1,247.499992623925,2|2
348,240,2174,2,0,B|336:306|256:328|175:306|164:240,1,247.499992623925,2|0
256,192,3515,1,2
256,192,3683,12,4,6197
343,248,6532,6,0,B|364:312|308:343,1,110,8|0
203,343,7202,2,0,B|148:312|169:248,1,110,8|0
100,164,7873,1,8
164,76,8208,1,0
264,40,8543,2,0,B|344:40|344:40|368:48|368:76,1,110,8|0
300,148,9213,2,0,B|220:148|220:148|196:156|196:184,1,110,8|0
256,260,9884,5,8
256,260,10051,2,0,B|320:240|372:284|420:264,1,165,12|8
468,176,10889,2,2,B|508:128,2,55,2|0|2
384,120,11560,6,0,B|376:88|344:80|344:80|224:80,1,176,12|8
156,132,12565,1,8
84,84,12901,1,8
60,256,13571,5,8
120,320,13906,1,8
180,256,14241,2,0,B|224:220|288:232|320:260|332:304,1,176,8|8
248,328,15247,1,8
248,328,15582,1,8
420,324,16252,6,0,B|420:224,1,88,4|8
420,124,16923,6,0,B|376:92|308:112,1,110,4|8
220,164,17593,2,0,B|188:180|152:176,2,55,0|0|8
164,260,18264,6,0,B|120:260|92:220|92:220|52:240,1,110,0|8
96,336,18934,2,0,B|128:352|160:348,2,55,0|0|8
236,316,19604,5,0
344,344,19940,1,8
440,292,20275,2,0,B|416:252|376:232|328:232,1,110,0|8
344,124,20945,2,0,B|297:124|260:149|236:190,1,110,0|8
148,220,21616,2,0,B|132:152|168:104|168:104|92:36,1,220,8|4
216,28,22621,6,0,B|308:104,1,110,8|0
400,52,23292,2,0,B|424:184,1,110,8|0
344,240,23962,1,8
240,200,24297,2,0,B|192:172|124:192,1,110,0|8
72,280,24968,6,0,B|120:308|188:288,1,110,0|8
224,260,25470,1,2
312,324,25806,1,2
404,264,26141,6,0,B|468:216|440:112,1,165,2|8
332,84,26979,2,0,B|216:84,1,110,0|8
116,120,27649,6,0,B|108:168|64:188|64:188|68:220,1,110,4|8
172,208,28320,2,0,B|196:184|196:156,2,55,0|0|8
204,312,28990,6,0,B|260:348|328:312,1,110,0|8
380,236,29660,2,0,B|396:208|424:200,2,55,0|0|8
284,160,30331,6,0,B|288:96|352:68,1,110,0|8
288,220,31001,2,0,B|352:224|380:288,1,110,0|8
228,224,31671,2,0,B|224:288|160:315,1,110,0|8
224,164,32342,2,0,B|160:160|132:96,1,110,0|8
216,48,33012,6,0,B|256:32|256:32|296:48,2,82.5,8|8|8
320,120,34353,2,0,B|300:152|300:152|300:196,2,82.5,8|8|8
212,188,35694,2,0,B|212:232|212:232|192:264,2,82.5,12|8|8
216,340,37035,2,0,B|256:356|256:356|296:340,2,82.5,8|8|8
136,264,38375,6,0,B|112:232|80:232,1,55,4|2
72,124,38878,1,2
164,64,39213,1,2
236,148,39549,2,0,B|280:124|288:80|288:28|252:0,1,165,2|8
164,64,40387,5,0
136,172,40722,1,8
216,248,41057,2,0,B|248:268|280:260,1,55,4|2
356,328,41560,1,2
440,252,41895,1,2
444,144,42230,2,0,B|420:92|364:76|364:76|320:124,1,165,2|8
200,96,43068,6,0,B|164:124|144:176|212:204|228:264|164:316,1,220,8|4
84,164,44241,2,0,B|92:212|112:248|112:248|84:284|100:328,2,165,2|2|0
68,112,45415,1,8
172,80,45750,5,2
172,80,45917,1,2
172,80,46085,1,2
256,148,46420,6,0,B|304:184|360:152,2,110,4|8|0
256,260,47426,2,0,B|208:224|152:256,2,110,8|0|8
364,240,48431,2,0,B|424:232|456:192|460:140|436:84|392:76,1,220
292,60,49437,1,8
188,100,49772,1,0
80,88,50107,6,0,B|44:152,1,55,8|2
84,244,50610,1,2
164,320,50945,1,2
272,328,51280,1,2
372,284,51616,1,0
372,284,51783,6,0,B|372:168,1,110,4|8
280,112,52454,6,0,B|280:228,1,110,2|8
188,284,53124,6,0,B|188:168,1,110,2|8
96,112,53794,6,0,B|96:228,1,110,2|8
128,328,54465,6,0,B|172:365|236:354|281:301|344:290|389:328,1,275,4|8
464,248,55638,2,0,B|408:204|344:196|304:204,1,165,2|8
204,232,56476,5,2
204,232,56644,1,2
204,232,56811,1,2
100,192,57146,6,0,B|68:136|100:88,2,110,4|8|0
196,140,58152,2,0,B|228:84|196:36,2,110,8|0|8
304,168,59158,2,0,B|320:132|324:88|312:52|312:52|364:20|416:68,1,220
476,144,60163,1,8
444,248,60498,1,0
336,260,60834,6,0,B|300:256|280:280,1,55,8|2
196,336,61336,1,2
100,280,61671,1,2
196,228,62007,1,2
100,180,62342,1,0
100,180,62509,6,0,B|104:120|168:92,1,110,4|8
271,95,63180,6,0,B|331:99|359:163,1,110,2|8
355,265,63850,6,0,B|351:325|287:353,1,110,2|8
183,349,64521,6,0,B|123:345|95:281,1,110,2|8
148,192,65191,6,0,B|228:192|256:120|256:120|284:192|364:192,1,275,4|8
292,268,66364,2,0,B|256:252|256:252|224:272|180:284|124:276,1,165,2|8
56,200,67202,5,8
72,92,67537,1,8
172,44,67873,1,4
468,192,68878,5,8
392,272,69213,1,0
316,192,69549,1,8
244,272,69884,2,0,B|180:272,1,55,0|8
92,224,70387,6,0,B|64:152|132:104|132:104|168:124,1,165,4|8
192,160,71057,2,0,B|216:196|256:212|256:212|296:196|320:160,1,165,2|8
355,117,71727,2,0,B|380:104|380:104|448:152|420:224,1,165,2|8
336,292,72565,1,0
256,368,72901,1,8
176,292,73236,6,0,B|176:208|176:208|140:184|100:208,2,165,4|2|8
336,292,74577,2,0,B|336:208|336:208|372:184|412:208,2,165,2|2|8
256,240,75917,6,8,B|256:300,1,55
214,168,76420,2,8,B|162:138,1,55
297,168,76923,2,8,B|349:138,1,55
95,307,78599,6,0,B|147:327|203:307,1,110,4|8
312,307,79269,2,0,B|368:327|420:307,1,110,0|8
360,216,79940,2,0,B|352:156|312:120,1,110,0|8
200,120,80611,2,0,B|159:156|151:216,1,110,0|8
256,244,81280,1,0
256,356,81616,6,0,B|204:384|152:356,1,110,8|0
256,356,82286,2,0,B|310:384|362:356,1,110,8|0
316,256,82956,1,8
256,164,83292,1,0
196,256,83627,2,8,B|152:220,1,55,8|4
256,192,83962,12,0,87985
