osu file format v9

[General]
AudioFilename: HUE.mp3
AudioLeadIn: 2000
PreviewTime: 45750
Countdown: 0
SampleSet: Soft
StackLeniency: 0.7
Mode: 0
LetterboxInBreaks: 0

[Editor]
Bookmarks: 11368,22094,32820,46228,80753
DistanceSpacing: 1.1
BeatDivisor: 4
GridSize: 4

[Metadata]
Title:crossing field (TV Size)
Artist:LiSA
Creator:CXu
Version:Hard
Source:SWORD ART ONLINE
Tags:opening KinomiCandy

[Difficulty]
HPDrainRate:6
CircleSize:4
OverallDifficulty:6
ApproachRate:8
SliderMultiplier:1.4
SliderTickRate:1

[Events]
//Background and Video events
0,0,"HUE.jpg"
Video,0,"HUE.avi"
//Break Periods
//Storyboard Layer 0 (Background)
//Storyboard Layer 1 (Fail)
//Storyboard Layer 2 (Pass)
//Storyboard Layer 3 (Foreground)
//Storyboard Sound Samples
//Background Colour Transformations
3,100,163,162,255

[TimingPoints]
-506,335.195530726257,4,2,1,60,1,0
834,-133.333333333333,4,2,1,60,0,0
3347,-133.333333333333,4,2,1,40,0,0
3683,-133.333333333333,4,2,1,60,0,0
5861,-100,4,2,1,60,0,0
10889,-133.333333333333,4,2,1,60,0,0
11560,-125,4,2,1,30,0,0
16923,-100,4,2,1,60,0,0
21783,-100,4,2,1,40,0,0
21951,-100,4,2,1,50,0,0
22118,-100,4,2,1,60,0,0
33012,-200,4,2,1,30,0,0
38375,-100,4,2,1,60,0,0
46421,-100,4,2,1,70,0,1
56644,-100,4,2,1,50,0,1
56811,-100,4,2,1,60,0,1
57146,-100,4,2,1,70,0,1
75917,-100,4,2,1,80,0,0
77258,-100,4,2,1,70,0,0
83962,-100,4,2,1,65,0,0
84297,-100,4,2,1,60,0,0
84632,-100,4,2,1,55,0,0
84968,-100,4,2,1,50,0,0
85303,-100,4,2,1,45,0,0
85638,-100,4,2,1,40,0,0
85973,-100,4,2,1,35,0,0
86308,-100,4,2,1,30,0,0
86644,-100,4,2,1,25,0,0
86979,-100,4,2,1,20,0,0
87314,-100,4,2,1,15,0,0
87649,-100,4,2,1,10,0,0
87984,-100,4,2,1,5,0,0

[Colours]
Combo1 : 255,255,128
Combo2 : 205,86,131
Combo3 : 168,206,130
Combo4 : 255,137,81

[HitObjects]
156,264,165,5,2
156,264,332,1,0
156,264,500,1,2
108,192,835,6,0,B|156:168|156:168|208:192,1,104.999996870756,2|0
309,194,1505,2,0,B|356:216|356:216|404:192,1,104.999996870756,0|2
356,100,2175,2,0,B|252:100,1,104.999996870756,2|0
156,284,2846,2,0,B|260:284,1,104.999996870756,2|0
336,284,3348,2,2,B|372:316,2,26.2499992176891
256,192,3684,12,4,6198
96,144,6533,6,0,B|116:64|196:52,1,140,8|0
328,40,7203,1,8
428,136,7538,6,0,B|428:244|428:244|408:276,1,140,0|8
256,348,8209,2,0,B|256:240|256:240|276:208,1,140,0|8
116,168,8879,6,0,B|88:200|104:248,1,70
207,148,9214,2,0,B|248:156|282:118,1,70,8|0
144,79,9550,2,0,B|130:38|80:28,1,70
48,104,9885,1,8
16,188,10052,2,0,B|32:232|80:268|128:260,1,140,12|0
188,228,10555,1,12
256,200,10723,5,0
256,200,10890,2,0,B|288:180|324:184,2,52.4999984353781,2|0|2
304,256,11393,1,0
364,224,11561,6,0,B|400:272|368:328,1,112,12|8
304,256,12231,2,0,B|256:284|256:284|208:256,1,112,8|8
144,328,12902,2,0,B|111:271|147:223,1,112,8|8
256,192,13572,1,8
256,80,13907,1,8
160,156,14242,6,0,B|224:156|224:156|256:192,1,112,8|8
352,156,14913,2,0,B|288:156|288:156|256:192,1,112,8|8
256,304,15583,1,8
256,304,15918,1,8
336,228,16253,5,4
176,228,16589,1,8
112,112,16924,6,0,B|144:64|204:68|204:68|216:28,1,140,4|8
298,36,17427,2,0,B|308:68|308:68|368:64|400:112,1,140
440,192,17929,1,8
272,216,18265,6,0,B|264:272|292:296|292:296|256:356,1,140,0|8
180,328,18767,2,0,B|204:295|204:295|184:248|200:196,1,140
252,140,19270,1,8
112,48,19605,6,0,B|72:72|72:124,1,70
4,152,19941,2,0,B|44:176|44:228,1,70,8|0
64,280,20276,1,0
136,308,20443,1,0
208,332,20611,1,8
360,320,20946,6,0,B|384:288|384:288|372:260,1,70
456,264,21281,2,0,B|428:196,1,70,8|0
400,120,21617,1,8
336,64,21784,2,8,B|352:24,4,35
256,88,22287,6,0,B|220:156,2,70,4|0|8
152,108,22790,2,0,B|116:176,1,70,0|0
48,124,23125,2,0,B|12:192,1,70,0|8
60,260,23461,1,0
132,304,23628,2,0,B|204:336|284:304,1,140,0|8
416,316,24298,1,0
372,236,24466,2,0,B|328:236,2,35,0|0|8
420,156,24801,1,0
372,84,24969,6,0,B|396:52|448:52,2,70,0|0|8
304,36,25471,2,0,B|280:72|296:116,1,70
208,104,25807,2,0,B|205:147|241:177,1,70,0|8
312,184,26142,2,0,B|312:232|260:252|260:252|280:308,1,140
196,320,26645,2,0,B|176:264|176:264|132:244|96:272,1,140,8|4
24,120,27315,1,8
176,48,27650,6,0,B|212:112|212:112|176:172,1,140,4|8
276,160,28153,2,0,B|241:217|241:217|277:281,1,140
348,328,28656,1,8
448,192,28991,6,0,B|420:224|420:224|352:152,1,140,0|8
288,208,29494,2,0,B|221:137|221:137|193:169,1,140,0|0
148,240,29997,1,8
60,96,30332,5,0
120,40,30499,1,0
204,44,30667,2,0,B|240:68|296:48,1,70,8|0
348,24,31002,6,0,B|408:72|376:160,1,140,0|8
256,264,31672,2,0,B|256:112,1,140,0|8
164,24,32343,2,0,B|104:72|136:160,1,140,0|8
184,216,33013,6,0,B|216:268|184:324,1,105,8|8
256,368,33851,1,0
256,368,34019,1,8
328,216,34354,6,0,B|296:268|328:324,1,105,8|8
256,368,35192,1,0
256,368,35360,1,8
404,208,35695,6,0,B|400:172|372:136|328:140,1,105,12|8
256,176,36533,1,0
256,176,36700,1,8
108,208,37036,6,0,B|112:172|140:136|184:140,1,105,8|8
256,176,37874,1,0
256,176,38041,1,8
348,92,38376,5,4
348,92,38544,2,2,B|368:68|368:68|476:68,2,140
508,148,39550,2,2,B|440:148|440:148|456:184|432:224,1,140
360,180,40052,1,8
256,312,40388,5,0
256,192,40723,1,8
164,92,41058,5,4
164,92,41226,2,2,B|144:68|144:68|36:68,2,140
4,148,42232,2,2,B|72:148|72:148|56:184|80:224,1,140
152,180,42734,1,8
300,240,43069,6,8,B|268:248|256:268|256:268|244:248|212:240,2,105
328,160,43740,2,0,B|384:196|388:248|368:292,1,140,2|0
320,344,44242,2,0,B|296:364|256:384|216:364|192:348,1,140,2|0
139,280,44745,2,0,B|124:248|128:196|184:160,1,140,2|0
256,116,45248,2,0,B|256:196,2,70,0|8|0
332,72,45751,5,2
256,32,45918,1,2
180,72,46086,1,2
344,152,46421,6,0,B|364:208|364:208|320:236|328:288,1,140,4|8
328,360,46924,1,0
252,328,47091,2,0,B|236:280|240:228|268:192,2,140,0|8|0
92,328,48097,2,0,B|108:292|96:252|72:236|72:236|80:192,2,140,8|0|8
16,296,48935,1,0
16,296,49103,2,0,B|-16:260|-8:212|-8:212|8:144,1,140,0|8
64,108,49605,1,0
140,140,49773,2,0,B|184:128|184:128|228:152|228:152|284:128,1,140,0|8
328,76,50276,6,0,B|368:72|388:104,1,70,2|0
468,80,50611,2,0,B|484:116|464:156,1,70,2|8
392,184,50946,2,0,B|340:244|384:316,1,140,2|0
223,356,51617,5,0
223,356,51784,2,0,B|79:356,1,140,4|8
20,276,52287,5,0
20,276,52454,2,0,B|164:276,1,140,2|8
224,196,52957,5,0
224,196,53126,2,0,B|84:196,1,140,2|8
20,116,53628,5,0
20,116,53795,2,0,B|164:116,1,140,2|8
256,64,54298,5,0
256,64,54466,2,0,B|348:72|360:156,1,140,4|8
360,228,54969,1,4
256,360,55304,1,2
152,228,55639,1,4
304,124,55974,5,2
304,124,56142,2,0,B|324:156|304:196|304:196|324:228|304:264,1,140,8|0
300,340,56645,2,8,B|286:355|288:376,4,35
376,304,57147,6,0,B|408:256|392:200|392:200|428:200,1,140,4|8
504,200,57650,1,0
468,128,57818,2,0,B|380:128|380:128|348:128|332:100,1,140,0|8
176,105,58488,2,0,B|164:128|132:128|132:128|44:128,2,140,0|8|0
256,140,59326,1,0
256,224,59494,2,0,B|264:284|264:284|248:300|248:300|256:356,2,140,8|0|8
348,112,60499,5,0
464,192,60835,1,8
448,276,61002,2,0,B|440:316|376:324,1,70,2|0
316,316,61337,2,0,B|288:292|232:308,1,70,2|8
216,228,61672,2,0,B|172:244|172:300,1,70,2|0
156,364,62008,1,2
156,364,62175,1,8
71,364,62343,5,0
71,364,62510,2,0,B|60:284|136:252,1,140,4|8
76,192,63013,5,0
76,192,63182,2,0,B|139:142|204:192,1,140,2|8
220,108,63684,5,0
220,108,63851,2,0,B|294:138|284:220,1,140,2|8
364,192,64354,5,0
364,192,64521,2,0,B|375:272|299:303,1,140,2|8
360,360,65024,5,0
360,360,65192,2,0,B|396:344|412:312|412:312|448:308|448:308|472:328,1,140,2|8
500,248,65695,2,0,B|452:176|480:108,1,140,0|2
424,48,66198,1,8
344,76,66365,6,0,B|276:108|200:72,1,140,4|0
132,40,66868,2,0,B|84:112,1,70,8|0
164,140,67203,2,0,B|116:212,1,70,8|0
72,264,67538,2,8,B|104:288,3,35
136,284,67874,6,0,B|184:264|184:264|260:308,1,140,4|8
332,336,68376,1,0
392,288,68544,1,0
308,116,68879,6,0,B|340:180,1,70,8|0
256,200,69214,2,0,B|256:276,1,70,4|0
204,116,69550,2,0,B|172:180,1,70,8|0
136,256,69885,1,0
136,256,70052,1,8
376,256,70388,6,0,B|408:284|408:284|468:288|504:244,1,140,4|0
436,192,70890,1,8
380,128,71058,2,0,B|412:100|412:100|472:96|508:140,1,140,2|0
436,192,71561,1,8
352,192,71728,2,0,B|300:208|264:168|212:192,1,140,2|0
164,260,72231,1,8
248,264,72399,5,0
248,264,72566,2,0,B|296:284|356:284|392:264,1,140,2|8
236,348,73237,2,0,B|188:328|128:328|92:348,1,140,4|8
16,352,73740,2,0,B|12:296|56:268|56:268|24:208,1,140
64,152,74242,1,8
208,68,74578,6,0,B|256:112|256:112|324:80,1,140,0|8
404,52,75080,2,0,B|480:88|480:88|500:120|484:168,1,140,0|8
472,172,75499,1,0
452,200,75583,1,8
256,104,75918,5,8
256,104,76086,1,8
148,192,76421,1,8
148,192,76589,1,8
256,280,76924,1,8
256,280,77092,1,8
448,268,78600,6,0,B|448:128,1,140,4|8
336,48,79270,1,2
336,48,79438,1,0
316,220,79773,6,0,B|252:264|160:216,1,140,2|0
84,124,80443,2,0,B|148:80|240:128,1,140,2|0
316,220,81114,1,2
136,328,81617,6,0,B|56:288|72:200,1,140,8|2
152,224,82119,2,0,B|152:160|96:140|96:140|108:104,1,140,0|2
256,160,82790,1,2
405,109,83125,1,2
256,160,83460,1,2
256,320,83795,1,4
256,192,83963,12,0,87985
