osu file format v12

[General]
AudioFilename: crossing field full.mp3
AudioLeadIn: 2000
PreviewTime: 45877
Countdown: 0
SampleSet: Soft
StackLeniency: 0.7
Mode: 0
LetterboxInBreaks: 0

[Editor]
DistanceSpacing: 1.1
BeatDivisor: 4
GridSize: 4

[Metadata]
Title:crossing field
TitleUnicode:crossing field
Artist:LiSA
ArtistUnicode:LiSA
Creator:Ryafuka
Version:Normal
Source:Sword Art Online
Tags:opening SAO
BeatmapID:203625
BeatmapSetID:68500

[Difficulty]
HPDrainRate:4
CircleSize:3
OverallDifficulty:4
ApproachRate:5
SliderMultiplier:1.2
SliderTickRate:1

[Events]
//Background and Video events
0,0,"BG.jpg",0,0
//Break Periods
2,78994,82957
2,157900,167426
2,182034,186700
//Storyboard Layer 0 (Background)
//Storyboard Layer 1 (Fail)
//Storyboard Layer 2 (Pass)
//Storyboard Layer 3 (Foreground)
//Storyboard Sound Samples
//Background Colour Transformations
3,100,163,162,255

[TimingPoints]
-312,335.195530726257,4,2,1,50,1,0
190,-100,4,2,1,50,0,0
1615,-100,4,1,1,40,0,0
1782,-100,4,2,1,40,0,0
2453,-100,4,1,1,40,0,0
2620,-100,4,2,1,40,0,0
2956,-100,4,1,1,40,0,0
3123,-100,4,2,1,40,0,0
4296,-100,4,1,1,40,0,0
4464,-100,4,2,1,40,0,0
5134,-100,4,1,1,40,0,0
5302,-100,4,2,1,40,0,0
6391,-100,4,1,1,50,0,0
10749,-100,4,2,1,50,0,0
10833,-100,4,2,2,50,0,0
11671,-100,4,2,1,50,0,0
12341,-100,4,2,3,50,0,0
12509,-100,4,2,1,50,0,0
13682,-100,4,2,3,50,0,0
13850,-100,4,2,1,50,0,0
15023,-100,4,2,3,50,0,0
15190,-100,4,2,1,50,0,0
16363,-100,4,2,2,50,0,0
16699,-100,4,2,1,55,0,0
17034,-100,4,2,1,60,0,0
21727,-100,4,2,1,50,0,0
22062,-100,4,1,1,50,0,0
22481,-100,4,2,1,60,0,0
27090,-100,4,2,2,60,0,0
27257,-100,4,2,1,60,0,0
33207,-100,4,2,1,50,0,0
33710,-100,4,1,1,50,0,0
34129,-100,4,2,1,50,0,0
34548,-100,4,1,1,50,0,0
35805,-100,4,2,1,50,0,0
35972,-100,4,1,1,50,0,0
36810,-100,4,2,1,50,0,0
37146,-100,4,1,1,50,0,0
37481,-100,4,2,1,50,0,0
37648,-100,4,1,1,50,0,0
38235,-100,4,2,1,50,0,0
38905,-100,4,1,1,50,0,0
41336,-100,4,2,1,50,0,0
41587,-100,4,1,1,50,0,0
43933,-100,4,2,1,20,0,0
45609,-100,4,2,1,50,0,0
45777,-100,4,2,1,50,0,0
46615,-100,4,2,1,65,0,1
56671,-100,4,1,1,55,0,1
57006,-100,4,2,1,65,0,1
57257,-100,4,1,1,55,0,0
57341,-100,4,2,1,65,0,1
78458,-100,4,1,1,55,0,1
78794,-100,4,1,1,55,0,0
84073,-100,4,2,1,40,0,0
84241,-100,4,2,1,50,0,0
84743,-100,4,1,1,40,0,0
84911,-100,4,2,1,50,0,0
85414,-100,4,2,1,50,0,0
89771,-100,4,2,2,50,0,0
89939,-100,4,2,1,50,0,0
96224,-100,4,2,1,60,0,0
106196,-100,4,1,1,50,0,0
106950,-100,4,2,1,50,0,0
107453,-100,4,1,1,50,0,0
107537,-100,4,2,1,50,0,0
108291,-100,4,1,1,50,0,0
108877,-100,4,2,1,50,0,0
109213,-100,4,1,1,50,0,0
109548,-100,4,2,1,45,0,0
110134,-100,4,1,1,50,0,0
110553,-100,4,2,1,50,0,0
110972,-100,4,1,1,50,0,0
111056,-100,4,2,1,50,0,0
111475,-100,4,1,1,50,0,0
111894,-100,4,2,1,50,0,0
112313,-100,4,2,1,50,0,0
112648,-100,4,1,1,50,0,0
115079,-100,4,2,1,50,0,0
115330,-100,4,1,1,50,0,0
117676,-100,4,2,1,20,0,0
119352,-100,4,2,1,50,0,0
119604,-100,4,2,1,50,0,0
120358,-100,4,2,1,65,0,1
129157,-100,4,1,1,55,0,1
129324,-100,4,2,1,65,0,1
130414,-100,4,1,1,55,0,1
130749,-100,4,2,1,65,0,1
131000,-100,4,1,1,55,0,0
131084,-100,4,2,1,65,0,1
151782,-100,4,1,1,55,0,1
152537,-100,4,2,1,65,0,0
152872,-100,4,2,1,20,0,0
156894,-100,4,2,2,50,0,0
168542,-100,4,2,1,55,0,0
173989,-100,4,2,1,55,0,0
176587,-100,4,2,2,55,0,0
176922,-100,4,2,1,55,0,0
177090,-100,4,2,2,55,0,0
177593,-100,4,2,1,55,0,0
178012,-100,4,2,1,20,0,0
179185,-100,4,2,1,55,0,0
187900,-100,4,2,2,20,0,0
191252,-100,4,2,1,40,0,0
192006,-100,4,2,1,45,0,0
192760,-100,4,2,1,50,0,0
193095,-100,4,2,3,60,0,0
193431,335.195530726257,4,2,1,70,1,1
202229,-100,4,1,1,60,0,1
202397,-100,4,2,1,70,0,1
203486,-100,4,1,1,50,0,1
203822,-100,4,2,1,70,0,1
204073,-100,4,1,1,50,0,0
204157,-100,4,2,1,70,0,1
217313,-100,4,2,1,75,0,0
217397,-100,4,2,1,75,0,1
224687,-100,4,1,1,50,0,1
225609,-100,4,2,1,60,0,0
235749,-100,4,1,1,55,0,0
236252,-100,4,2,1,20,0,0
238849,-100,4,2,1,5,0,0

[Colours]
Combo1 : 230,170,85
Combo2 : 240,5,5
Combo3 : 255,255,255

[HitObjects]
416,204,358,6,0,L|428:116,2,60,2|0|2,0:0|0:0|0:0,0:0:0:0:
328,304,1028,6,0,B|268:324|196:296|196:296,2,120
416,204,2034,1,0,0:0:0:0:
356,84,2369,1,0,0:0:0:0:
356,84,2537,2,0,B|272:32|172:72|172:72,1,180,0|0,0:0|0:0,0:0:0:0:
76,148,3375,1,0,0:0:0:0:
160,248,3710,6,0,L|132:380,2,120
260,164,4715,1,0,0:0:0:0:
260,164,4883,2,0,B|316:136|384:156|384:156,2,120
172,264,5889,1,0,0:0:0:0:
52,108,6391,6,0,B|28:163|46:231|46:231,1,120
172,264,7062,2,0,B|232:256|292:288|292:288,1,120
388,372,7732,2,0,B|420:320|416:256|416:256,1,120
496,152,8403,2,0,B|444:116|372:124|372:124,1,120
256,76,9073,5,0,0:0:0:0:
212,200,9408,1,0,0:0:0:0:
88,152,9743,1,0,0:0:0:0:
132,276,10078,1,0,0:0:0:0:
132,276,10246,6,0,B|144:332|244:360|288:324|288:324,1,180,4|8,0:0|0:0,0:0:0:0:
340,288,10917,1,2,0:0:0:0:
340,288,11755,6,0,L|364:164,2,120,4|0|2,0:0|0:0|0:0,0:0:0:0:
220,344,12760,1,0,0:0:0:0:
144,236,13095,2,0,B|88:208|24:220|24:220,1,120
68,344,13766,5,2,0:0:0:0:
196,368,14101,1,0,0:0:0:0:
324,340,14436,2,0,L|464:324,2,120,0|0|2,0:0|0:0|0:0,0:0:0:0:
232,248,15442,2,0,L|92:232,2,120
312,144,16447,5,2,0:0:0:0:
252,28,16782,1,8,0:0:0:0:
120,32,17118,6,0,B|92:88|108:152|108:152,1,120,4|8,0:0|0:0,0:0:0:0:
160,272,17788,1,0,0:0:0:0:
292,292,18123,1,8,0:0:0:0:
396,212,18458,6,0,L|420:80,2,120,0|8|0,0:0|0:0|0:0,0:0:0:0:
292,292,19464,1,8,0:0:0:0:
188,212,19799,2,0,B|136:180|60:188|60:188,1,120,0|8,0:0|0:0,0:0:0:0:
56,320,20470,6,0,B|108:352|184:344|184:344,1,120,0|8,0:0|0:0,0:0:0:0:
292,292,21140,1,0,0:0:0:0:
420,332,21475,1,8,0:0:0:0:
476,212,21810,2,0,L|492:80,1,120,8|0,0:0|0:0,0:0:0:0:
372,36,22481,5,4,0:0:0:0:
244,72,22816,1,8,0:0:0:0:
116,44,23151,2,0,B|88:104|116:176|116:176,1,120,0|8,0:0|0:0,0:0:0:0:
232,220,23822,2,0,L|208:352,1,120,0|8,0:0|0:0,0:0:0:0:
324,268,24492,6,0,B|380:248|444:264|444:264,2,120,0|8|0,0:0|0:0|0:0,0:0:0:0:
211,338,25498,2,0,L|83:302,2,120,8|0|8,0:0|0:0|0:0,0:0:0:0:
324,268,26503,1,0,0:0:0:0:
300,140,26838,1,8,0:0:0:0:
168,128,27174,1,2,0:0:0:0:
112,248,27509,1,8,0:0:0:0:
112,248,27844,6,0,B|96:308|132:368|132:368,1,120,0|8,0:0|0:0,0:0:0:0:
252,316,28514,1,0,0:0:0:0:
380,340,28850,2,0,L|444:308,2,60,0|8|0,0:0|0:0|0:0,0:0:0:0:
252,316,29520,1,8,0:0:0:0:
252,316,29688,2,0,B|228:256|248:196|248:196,1,120
284,144,30190,1,8,0:0:0:0:
212,36,30525,5,0,0:0:0:0:
84,76,30861,1,8,0:0:0:0:
140,196,31196,1,0,0:0:0:0:
188,304,31531,2,0,B|220:308|252:292|252:292,1,60,0|8,0:0|0:0,0:0:0:0:
260,236,31866,2,0,B|316:208|384:224|384:224,1,120,0|8,0:0|0:0,0:0:0:0:
480,304,32537,1,8,0:0:0:0:
216,328,33207,6,0,B|124:364|40:304|40:304,2,180,4|0|8,0:0|0:0|0:0,0:0:0:0:
348,324,34548,2,0,L|408:140,2,180,0|0|0,0:0|0:0|0:0,0:0:0:0:
268,220,35889,2,0,B|192:164|80:188|80:188,1,180,4|0,0:0|0:0,0:0:0:0:
20,296,36727,1,0,0:0:0:0:
20,296,36894,1,8,0:0:0:0:
140,352,37229,6,0,B|196:320|268:336|268:336,1,120
320,352,37732,2,0,B|352:296|336:224|336:224,1,120
324,172,38235,1,8,0:0:0:0:
264,56,38570,6,0,L|340:32,2,60,4|0|0,0:0|0:0|0:0,0:0:0:0:
164,140,39241,2,0,L|184:276,2,120
52,68,40246,1,0,0:0:0:0:
20,196,40581,2,0,L|40:332,1,120
168,308,41252,6,0,L|152:376,2,60
196,180,41922,1,0,0:0:0:0:
296,268,42257,2,0,B|360:280|416:256|416:256,1,120
476,140,42928,1,0,0:0:0:0:
344,140,43263,6,0,L|316:44,2,90
256,192,43933,12,8,45609,1:2:0:0:
172,132,46615,6,0,B|116:156|44:140|44:140,2,120,4|8|0,0:0|0:0|0:0,0:0:0:0:
280,56,47620,1,8,0:0:0:0:
404,96,47956,2,0,B|432:148|420:220|420:220,1,120,0|8,0:0|0:0,0:0:0:0:
356,328,48626,2,0,L|220:300,1,120,0|8,0:0|0:0,0:0:0:0:
116,352,49296,5,0,0:0:0:0:
80,224,49632,1,8,0:0:0:0:
152,116,49967,1,0,0:0:0:0:
272,172,50302,6,0,L|388:140,2,120,8|0|8,0:0|0:0|0:0,0:0:0:0:
188,272,51308,1,0,0:0:0:0:
56,256,51643,2,0,B|20:208|24:136|24:136,2,120,8|4|8,0:0|0:0|0:0,0:0:0:0:
172,320,52648,5,0,0:0:0:0:
172,320,52984,1,8,0:0:0:0:
288,256,53319,1,0,0:0:0:0:
288,256,53654,1,8,0:0:0:0:
416,292,53989,1,0,0:0:0:0:
416,292,54324,1,8,0:0:0:0:
468,172,54660,5,0,0:0:0:0:
380,72,54995,1,8,0:0:0:0:
380,72,55162,2,0,B|320:52|244:68|244:68,2,120,0|0|4,0:0|0:0|0:0,0:0:0:0:
468,172,56168,2,0,L|468:240,1,60,0|8,0:0|0:0,0:0:0:0:
352,296,56671,6,0,L|352:368,2,60,0|0|8,0:0|0:0|0:0,0:0:0:0:
304,172,57341,6,0,B|248:200|176:184|176:184,2,120,4|8|0,0:0|0:0|0:0,0:0:0:0:
420,108,58347,2,0,L|404:244,1,120,8|0,0:0|0:0,0:0:0:0:
340,340,59017,1,8,0:0:0:0:
248,244,59352,2,0,B|192:216|128:228|128:228,1,120,0|8,0:0|0:0,0:0:0:0:
44,328,60023,5,0,0:0:0:0:
172,356,60358,1,8,0:0:0:0:
304,344,60693,1,0,0:0:0:0:
436,356,61028,6,0,B|464:300|460:232|460:232,2,120,8|0|8,0:0|0:0|0:0,0:0:0:0:
304,344,62034,1,0,0:0:0:0:
260,220,62369,1,8,0:0:0:0:
348,124,62704,2,0,B|292:88|220:96|220:96,1,120,4|8,0:0|0:0,0:0:0:0:
104,120,63375,5,0,0:0:0:0:
104,120,63710,1,8,0:0:0:0:
196,216,64045,1,0,0:0:0:0:
196,216,64380,1,8,0:0:0:0:
328,204,64715,1,0,0:0:0:0:
328,204,65050,1,8,0:0:0:0:
420,300,65386,6,0,B|372:340|296:336|296:336,1,120,0|8,0:0|0:0,0:0:0:0:
248,364,65889,2,0,L|120:332,2,120,0|0|4,0:0|0:0|0:0,0:0:0:0:
352,284,66894,2,0,L|352:212,1,60,0|8,0:0|0:0,0:0:0:0:
472,164,67397,1,8,0:0:0:0:
352,108,67732,1,8,0:0:0:0:
232,164,68067,6,0,B|176:180|104:160|104:160,1,120,4|8,0:0|0:0,0:0:0:0:
48,48,68738,1,0,0:0:0:0:
12,176,69073,2,0,L|36:304,2,120,8|0|8,0:0|0:0|0:0,0:0:0:0:
132,232,70079,2,0,L|144:168,1,60
164,44,70581,5,4,0:0:0:0:
384,192,71252,1,4,0:0:0:0:
148,308,71922,1,4,0:0:0:0:
164,44,72593,1,4,0:0:0:0:
164,44,72760,2,0,B|192:100|180:172|180:172,1,120,0|8,0:0|0:0,0:0:0:0:
132,284,73431,6,0,B|79:311|7:299|7:299,2,120,4|8|0,0:0|0:0|0:0,0:0:0:0:
264,284,74436,1,8,0:0:0:0:
368,204,74771,2,0,L|380:80,2,120,0|8|0,0:0|0:0|0:0,0:0:0:0:
412,328,75777,1,8,0:0:0:0:
284,364,76112,5,8,0:0:0:0:
124,248,76615,1,8,0:0:0:0:
304,168,77118,1,8,0:0:0:0:
304,168,78123,5,8,0:0:0:0:
252,288,78458,1,0,0:0:0:0:
124,248,78794,1,4,0:0:0:0:
108,104,84157,6,0,L|180:120,1,60,0|2,0:0|0:0,0:0:0:0:
188,312,84827,2,0,L|260:328,1,60,0|2,0:0|0:0,0:0:0:0:
424,232,85498,5,0,0:0:0:0:
424,232,85665,2,0,B|364:248|288:220|288:220,1,120
260,176,86168,1,8,0:0:0:0:
76,104,86671,2,0,L|108:232,1,120
124,284,87174,2,0,B|68:312|0:296|0:296,2,120,0|8|0,0:0|0:0|0:0,0:0:0:0:
252,316,88179,5,0,0:0:0:0:
252,316,88347,2,0,L|396:348,1,120
432,356,88850,1,8,0:0:0:0:
492,168,89352,2,0,B|440:200|376:196|376:196,1,120
328,152,89855,1,2,0:0:0:0:
240,248,90190,2,0,B|196:200|200:136|200:136,1,120,8|8,0:0|0:0,0:0:0:0:
104,44,90861,6,0,B|32:108|56:212|56:212,1,180,4|0,0:0|0:0,0:0:0:0:
36,272,91531,2,0,B|88:312|164:304|164:304,1,120,8|0,0:0|0:0,0:0:0:0:
280,292,92201,2,0,L|256:352,2,60,0|8|0,0:0|0:0|0:0,0:0:0:0:
356,184,92872,2,0,B|304:152|236:164|236:164,1,120,8|8,0:0|0:0,0:0:0:0:
124,104,93542,6,0,L|112:36,2,60
148,232,94213,1,8,0:0:0:0:
272,272,94548,1,8,0:0:0:0:
392,220,94883,2,0,L|404:152,2,60,0|8|0,0:0|0:0|0:0,0:0:0:0:
368,348,95553,1,8,0:0:0:0:
368,348,96224,6,0,B|308:368|244:340|244:340,2,120,4|8|0,0:0|0:0|0:0,0:0:0:0:
444,240,97229,1,8,0:0:0:0:
384,124,97565,2,0,B|328:96|256:108|256:108,1,120,0|8,0:0|0:0,0:0:0:0:
156,176,98235,1,0,0:0:0:0:
152,44,98570,1,8,0:0:0:0:
267,107,98905,6,0,B|296:164|276:232|276:232,1,120,0|8,0:0|0:0,0:0:0:0:
340,340,99576,2,0,B|288:372|220:360|220:360,1,120,0|8,0:0|0:0,0:0:0:0:
104,303,100246,1,0,0:0:0:0:
93,173,100581,1,8,0:0:0:0:
198,97,100916,1,0,0:0:0:0:
316,153,101252,1,8,0:0:0:0:
328,282,101587,6,0,B|384:312|456:296|456:296,2,120,4|8|0,0:0|0:0|0:0,0:0:0:0:
196,304,102593,2,0,L|208:380,2,60,0|8|0,0:0|0:0|0:0,0:0:0:0:
200,172,103263,2,0,B|144:142|72:158|72:158,2,120,8|0|8,0:0|0:0|0:0,0:0:0:0:
312,240,104269,1,0,0:0:0:0:
436,192,104604,1,8,0:0:0:0:
372,76,104939,5,0,0:0:0:0:
240,100,105274,2,0,B|208:96|168:68|168:68,1,60,0|8,0:0|0:0,0:0:0:0:
136,32,105609,2,0,B|108:88|120:156|120:156,1,120,0|8,0:0|0:0,0:0:0:0:
72,272,106280,2,0,B|128:300|196:288|196:288,1,120
312,340,106950,6,0,L|500:308,2,180,4|0|8,0:0|0:0|0:0,0:0:0:0:
228,240,108291,2,0,L|40:208,2,180,0|0|0,0:0|0:0|0:0,0:0:0:0:
348,296,109632,2,0,B|404:216|368:112|368:112,1,180,4|0,0:0|0:0,0:0:0:0:
264,44,110470,1,0,0:0:0:0:
264,44,110637,1,8,0:0:0:0:
196,156,110972,6,0,B|136:172|76:152|76:152,1,120
20,188,111475,2,0,B|8:248|40:320|40:320,1,120
88,344,111978,1,8,0:0:0:0:
220,328,112313,6,0,L|292:356|292:356,2,60,4|0|0,0:0|0:0|0:0,0:0:0:0:
148,216,112984,1,0,0:0:0:0:
208,100,113319,2,0,B|268:80|332:96|332:96,2,120
92,36,114324,1,0,0:0:0:0:
36,156,114660,1,0,0:0:0:0:
68,284,114995,6,0,L|44:344,2,60
192,236,115665,1,0,0:0:0:0:
296,316,116000,2,0,B|356:340|416:320|416:320,1,120
464,200,116671,1,0,0:0:0:0:
376,100,117006,6,0,L|260:76,2,90
256,192,117676,12,8,119352,0:0:0:0:
252,156,120358,6,0,B|308:128|380:144|380:144,2,120,4|8|0,0:0|0:0|0:0,0:0:0:0:
188,272,121363,2,0,L|60:248,1,120,8|0,0:0|0:0,0:0:0:0:
8,132,122034,1,8,0:0:0:0:
116,56,122369,2,0,B|144:112|132:176|132:176,1,120,0|8,0:0|0:0,0:0:0:0:
92,300,123039,6,0,B|144:340|216:328|216:328,2,120,0|8|0,0:0|0:0|0:0,0:0:0:0:
36,180,124045,1,8,0:0:0:0:
108,68,124380,1,0,0:0:0:0:
240,88,124715,1,8,0:0:0:0:
280,216,125051,1,0,0:0:0:0:
220,332,125386,2,0,L|340:360,2,120,8|4|8,0:0|0:0|0:0,0:0:0:0:
92,300,126391,5,0,0:0:0:0:
92,300,126727,1,8,0:0:0:0:
80,168,127062,1,0,0:0:0:0:
80,168,127397,1,8,0:0:0:0:
192,96,127732,1,0,0:0:0:0:
192,96,128067,1,8,0:0:0:0:
308,160,128403,5,0,0:0:0:0:
432,120,128738,1,8,0:0:0:0:
432,120,128905,2,0,B|456:176|440:248|440:248,1,120,0|0,0:0|0:0,0:0:0:0:
360,344,129576,1,4,0:0:0:0:
232,308,129911,2,0,L|168:308,1,60,0|8,0:0|0:0,0:0:0:0:
112,192,130414,6,0,L|48:192,2,60
236,148,131084,6,0,L|264:28,2,120,4|8|0,0:0|0:0|0:0,0:0:0:0:
252,280,132090,1,8,0:0:0:0:
132,336,132425,2,0,B|68:340|20:292|20:292,1,120,0|8,0:0|0:0,0:0:0:0:
36,164,133095,1,0,0:0:0:0:
156,112,133431,1,8,0:0:0:0:
220,228,133766,6,0,B|280:252|344:240|344:240,1,120,0|8,0:0|0:0,0:0:0:0:
408,128,134436,1,0,0:0:0:0:
444,256,134771,2,0,L|476:372,2,120,8|0|8,0:0|0:0|0:0,0:0:0:0:
332,188,135777,1,0,0:0:0:0:
220,256,136112,2,0,L|252:376,2,120,8|4|8,0:0|0:0|0:0,0:0:0:0:
104,188,137118,5,0,0:0:0:0:
104,188,137453,1,8,0:0:0:0:
192,92,137788,1,0,0:0:0:0:
192,92,138123,1,8,0:0:0:0:
300,168,138458,1,0,0:0:0:0:
300,168,138794,1,8,0:0:0:0:
212,264,139129,6,0,B|260:300|332:300|332:300,1,120,0|8,0:0|0:0,0:0:0:0:
372,252,139632,2,0,L|496:228,2,120,0|0|4,0:0|0:0|0:0,0:0:0:0:
252,196,140637,2,0,L|252:136,1,60,0|8,0:0|0:0,0:0:0:0:
132,80,141140,1,8,0:0:0:0:
252,28,141475,1,8,0:0:0:0:
372,80,141810,6,0,B|388:140|376:208|376:208,1,120,4|8,0:0|0:0,0:0:0:0:
396,332,142481,1,0,0:0:0:0:
264,352,142816,2,0,B|204:368|132:340|132:340,2,120,8|0|8,0:0|0:0|0:0,0:0:0:0:
364,268,143822,2,0,L|364:196,1,60
364,76,144324,5,4,0:0:0:0:
212,292,144995,1,4,0:0:0:0:
100,52,145665,1,4,0:0:0:0:
364,76,146336,1,4,0:0:0:0:
364,76,146503,2,0,B|384:136|368:208|368:208,1,120,0|8,0:0|0:0,0:0:0:0:
328,320,147174,6,0,B|388:348|456:336|456:336,2,120,4|8|0,0:0|0:0|0:0,0:0:0:0:
252,212,148179,1,8,0:0:0:0:
124,240,148514,2,0,L|89:125,2,120,0|8|0,0:0|0:0|0:0,0:0:0:0:
164,364,149520,1,8,0:0:0:0:
292,340,149855,5,8,0:0:0:0:
416,184,150358,1,8,0:0:0:0:
220,156,150861,1,8,0:0:0:0:
424,320,151531,5,8,0:0:0:0:
296,284,151866,2,0,L|168:308,2,120,0|0|4,0:0|0:0|0:0,0:0:0:0:
256,192,153039,12,2,156894,0:0:0:0:
100,276,168626,6,0,B|152:316|232:308|232:308,1,120,4|8,0:0|0:0,0:0:0:0:
264,352,169129,2,0,L|384:320,1,120
444,304,169632,1,8,0:0:0:0:
460,172,169967,6,0,B|408:132|328:140|328:140,1,120,0|8,0:0|0:0,0:0:0:0:
288,108,170470,2,0,B|268:168|288:248|288:248,1,120
292,292,170972,1,8,0:0:0:0:
160,288,171308,6,0,L|104:200,2,90,0|0|0,1:0|0:0|0:0,0:0:0:0:
200,236,171978,2,0,L|195:131,2,90,0|0|0,1:0|0:0|0:0,0:0:0:0:
260,204,172648,2,0,L|308:111,2,90,0|0|0,1:0|0:0|0:0,0:0:0:0:
300,256,173319,2,0,B|356:280|432:268|432:268,1,120,0|8,0:0|0:0,0:0:0:0:
420,138,173989,6,0,B|364:114|288:126|288:126,1,120,4|8,0:0|0:0,0:0:0:0:
188,188,174660,1,0,0:0:0:0:
224,316,174995,1,8,0:0:0:0:
352,348,175330,2,0,L|492:324,2,120,0|8|8,0:0|0:0|0:0,0:0:0:0:
224,316,176336,1,8,0:0:0:0:
96,344,176671,6,0,B|116:288|92:212|92:212,1,120,2|8,0:0|0:0,0:0:0:0:
72,164,177174,2,0,B|132:188|196:176|196:176,1,120,2|0,0:0|0:0,0:0:0:0:
248,144,177676,1,8,0:0:0:0:
256,192,178012,12,8,179185,0:0:0:0:
256,192,187900,12,2,191252,0:0:0:0:
172,136,192090,6,0,L|152:60,2,60,2|0|2,0:0|0:0|0:0,0:0:0:0:
156,256,192760,1,0,0:0:0:0:
264,308,193095,1,10,0:0:0:0:
356,232,193431,6,0,L|376:104,2,120,4|8|0,0:0|0:0|0:0,0:0:0:0:
332,360,194436,1,8,0:0:0:0:
204,328,194771,2,0,B|148:304|84:316|84:316,1,120,0|8,0:0|0:0,0:0:0:0:
32,196,195442,1,0,0:0:0:0:
100,84,195777,1,8,0:0:0:0:
228,112,196112,6,0,L|360:96,2,120,0|8|0,0:0|0:0|0:0,0:0:0:0:
144,212,197118,1,8,0:0:0:0:
200,332,197453,1,0,0:0:0:0:
292,236,197788,1,8,0:0:0:0:
348,356,198123,1,0,0:0:0:0:
448,268,198458,1,8,0:0:0:0:
392,148,198794,2,0,B|344:108|280:104|280:104,1,120,4|8,0:0|0:0,0:0:0:0:
168,40,199464,5,0,0:0:0:0:
168,40,199799,1,8,0:0:0:0:
92,148,200134,1,0,0:0:0:0:
92,148,200470,1,8,0:0:0:0:
160,260,200805,1,0,0:0:0:0:
160,260,201140,1,8,0:0:0:0:
292,252,201475,5,0,0:0:0:0:
352,136,201810,1,8,0:0:0:0:
352,136,201978,2,0,B|412:124|476:144|476:144,1,120
496,272,202648,1,4,0:0:0:0:
400,364,202984,2,0,L|332:352,1,60,0|8,0:0|0:0,0:0:0:0:
216,312,203486,6,0,L|148:324,2,60,0|0|0,0:0|0:0|0:0,0:0:0:0:
324,236,204157,6,0,B|340:176|324:116|324:116,1,120,4|8,0:0|0:0,0:0:0:0:
220,36,204827,1,0,0:0:0:0:
92,68,205162,1,8,0:0:0:0:
108,200,205498,2,0,B|168:216|228:200|228:200,1,120,0|8,0:0|0:0,0:0:0:0:
340,132,206168,6,0,B|400:116|460:132|460:132,2,120,0|8|0,0:0|0:0|0:0,0:0:0:0:
228,200,207174,2,0,B|212:260|228:332|228:332,1,120,8|0,0:0|0:0,0:0:0:0:
352,360,207844,1,8,0:0:0:0:
464,288,208179,2,0,L|484:156,1,120,0|8,0:0|0:0,0:0:0:0:
408,60,208849,1,0,0:0:0:0:
284,108,209185,2,0,L|152:68,2,120,8|4|8,0:0|0:0|0:0,0:0:0:0:
412,144,210190,5,0,0:0:0:0:
412,144,210525,1,8,0:0:0:0:
440,272,210861,1,0,0:0:0:0:
440,272,211196,1,8,0:0:0:0:
340,360,211531,1,0,0:0:0:0:
340,360,211866,1,8,0:0:0:0:
212,320,212201,6,0,B|152:336|76:316|76:316,1,120,0|8,0:0|0:0,0:0:0:0:
52,268,212704,2,0,L|16:148,2,120,0|0|4,0:0|0:0|0:0,0:0:0:0:
168,208,213710,2,0,L|232:208,1,60,0|8,0:0|0:0,0:0:0:0:
292,324,214213,1,8,0:0:0:0:
356,208,214548,1,8,0:0:0:0:
292,92,214883,6,0,L|148:92,2,120,4|8|0,0:0|0:0|0:0,0:0:0:0:
412,144,215889,1,8,0:0:0:0:
408,276,216224,1,0,0:0:0:0:
284,320,216559,1,8,0:0:0:0:
164,268,216894,2,0,L|92:268,1,60
52,148,217397,6,0,B|88:120|188:120|228:152|228:152,1,180,4|8,0:0|0:0,0:0:0:0:
340,84,218235,2,0,B|360:144|344:212|344:212,1,120,8|8,0:0|0:0,0:0:0:0:
412,316,218905,2,0,B|352:336|284:320|284:320,1,120,8|8,0:0|0:0,0:0:0:0:
180,252,219576,1,8,0:0:0:0:
52,288,219911,1,8,0:0:0:0:
52,288,220246,6,0,L|24:148,1,120,4|0,0:0|0:0,0:0:0:0:
112,68,220917,1,8,0:0:0:0:
112,68,221084,1,0,0:0:0:0:
180,252,221587,2,0,B|236:280|308:264|308:264,1,120
420,216,222257,2,0,L|420:156,2,60,8|0|8,0:0|0:0|0:0,0:0:0:0:
360,332,222928,5,8,0:0:0:0:
180,252,223431,1,8,0:0:0:0:
280,80,223933,1,8,0:0:0:0:
360,332,224604,5,8,0:0:0:0:
472,264,224939,1,0,0:0:0:0:
360,196,225274,1,0,0:0:0:0:
244,260,225609,5,4,0:0:0:0:
140,180,225944,2,0,B|112:124|136:56|136:56,2,120,8|0|8,0:0|0:0|0:0,0:0:0:0:
152,312,226950,2,0,B|96:340|28:320|28:320,2,120,0|8|0,0:0|0:0|0:0,0:0:0:0:
260,232,227956,1,8,0:0:0:0:
384,276,228291,1,0,0:0:0:0:
384,276,228626,6,0,L|420:148,2,120,8|0|8,0:0|0:0|0:0,0:0:0:0:
260,324,229632,2,0,B|204:348|140:332|140:332,1,120,0|8,0:0|0:0,0:0:0:0:
132,200,230302,2,0,B|188:176|252:192|252:192,2,120,0|8|4,0:0|0:0|0:0,0:0:0:0:
32,116,231308,5,8,0:0:0:0:
144,48,231643,1,0,0:0:0:0:
260,108,231978,1,8,0:0:0:0:
372,40,232313,2,0,B|400:96|380:160|380:160,1,120,0|8,0:0|0:0,0:0:0:0:
460,264,232984,2,0,B|440:323|380:354|380:354,1,120,0|8,0:0|0:0,0:0:0:0:
268,292,233654,1,0,0:0:0:0:
144,340,233989,6,0,L|28:312,2,120,8|0|8,0:0|0:0|0:0,0:0:0:0:
208,356,234827,1,8,0:0:0:0:
324,292,235162,1,8,0:0:0:0:
304,160,235498,1,0,0:0:0:0:
172,144,235833,1,0,0:0:0:0:
112,260,236168,1,4,0:0:0:0:
256,192,236336,12,0,238849,0:0:0:0:
