osu file format v12

[General]
AudioFilename: crossing field full.mp3
AudioLeadIn: 2000
PreviewTime: 45877
Countdown: 0
SampleSet: Soft
StackLeniency: 0.7
Mode: 0
LetterboxInBreaks: 0

[Editor]
DistanceSpacing: 1
BeatDivisor: 4
GridSize: 4

[Metadata]
Title:crossing field
TitleUnicode:crossing field
Artist:LiSA
ArtistUnicode:LiSA
Creator:Ryafuka
Version:Easy
Source:Sword Art Online
Tags:opening SAO
BeatmapID:206985
BeatmapSetID:68500

[Difficulty]
HPDrainRate:2
CircleSize:3
OverallDifficulty:2
ApproachRate:3
SliderMultiplier:0.8
SliderTickRate:1

[Events]
//Background and Video events
0,0,"BG.jpg",0,0
//Break Periods
2,78993,82717
2,157900,167186
2,182034,186460
//Storyboard Layer 0 (Background)
//Storyboard Layer 1 (Fail)
//Storyboard Layer 2 (Pass)
//Storyboard Layer 3 (Foreground)
//Storyboard Sound Samples
//Background Colour Transformations
3,100,163,162,255

[TimingPoints]
-312,335.195530726257,4,2,1,50,1,0
190,-100,4,2,1,50,0,0
1615,-100,4,1,1,40,0,0
1782,-100,4,2,1,40,0,0
2453,-100,4,1,1,40,0,0
2620,-100,4,2,1,40,0,0
2956,-100,4,1,1,40,0,0
3123,-100,4,2,1,40,0,0
4296,-100,4,1,1,40,0,0
4464,-100,4,2,1,40,0,0
5134,-100,4,1,1,40,0,0
5302,-100,4,2,1,40,0,0
6391,-100,4,1,1,50,0,0
10833,-100,4,2,2,50,0,0
11671,-100,4,2,1,50,0,0
12341,-100,4,2,3,50,0,0
12509,-100,4,2,1,50,0,0
13682,-100,4,2,3,50,0,0
13850,-100,4,2,1,50,0,0
15023,-100,4,2,3,50,0,0
15190,-100,4,2,1,50,0,0
16363,-100,4,2,2,50,0,0
17034,-100,4,2,1,60,0,0
22481,-100,4,2,1,60,0,0
27090,-100,4,2,2,60,0,0
27257,-100,4,2,1,60,0,0
33207,-100,4,2,1,50,0,0
33458,-100,4,2,1,5,0,0
33710,-100,4,1,1,50,0,0
33794,-100,4,1,1,5,0,0
34129,-100,4,2,1,50,0,0
34464,-100,4,1,1,50,0,0
34799,-100,4,1,1,5,0,0
34967,-100,4,1,1,50,0,0
35134,-100,4,1,1,5,0,0
35302,-100,4,1,1,50,0,0
35805,-100,4,2,1,50,0,0
36140,-100,4,2,1,5,0,0
36308,-100,4,1,1,50,0,0
36475,-100,4,1,1,5,0,0
36810,-100,4,2,1,50,0,0
37146,-100,4,1,1,50,0,0
37481,-100,4,1,1,5,0,0
37648,-100,4,1,1,50,0,0
37816,-100,4,1,1,5,0,0
38151,-100,4,2,1,50,0,0
38905,-100,4,1,1,50,0,0
43933,-100,4,2,1,20,0,0
45609,-100,4,2,1,50,0,0
46615,-100,4,2,1,65,0,1
57257,-100,4,1,1,55,0,0
57341,-100,4,2,1,65,0,1
78458,-100,4,1,1,55,0,1
78794,-100,4,1,1,55,0,0
84073,-100,4,1,1,40,0,0
84241,-100,4,2,1,50,0,0
84743,-100,4,1,1,40,0,0
84911,-100,4,2,1,50,0,0
85414,-100,4,2,1,50,0,0
89771,-100,4,2,2,50,0,0
89939,-100,4,2,1,50,0,0
96224,-100,4,2,1,60,0,0
106950,-100,4,2,1,50,0,0
107201,-100,4,2,1,5,0,0
107453,-100,4,1,1,50,0,0
107537,-100,4,2,1,5,0,0
107788,-100,4,2,1,50,0,0
108291,-100,4,1,1,50,0,0
108542,-100,4,1,1,5,0,0
108710,-100,4,1,1,50,0,0
108877,-100,4,1,1,5,0,0
109213,-100,4,2,1,50,0,0
109548,-100,4,2,1,45,0,0
109883,-100,4,2,1,5,0,0
110134,-100,4,1,1,50,0,0
110218,-100,4,1,1,5,0,0
110553,-100,4,2,1,50,0,0
110972,-100,4,1,1,50,0,0
111224,-100,4,1,1,5,0,0
111391,-100,4,1,1,50,0,0
111559,-100,4,1,1,5,0,0
111894,-100,4,2,1,50,0,0
112648,-100,4,1,1,50,0,0
117676,-100,4,2,1,20,0,0
119352,-100,4,2,1,50,0,0
120358,-100,4,2,1,65,0,1
131000,-100,4,1,1,55,0,0
131084,-100,4,2,1,65,0,1
151782,-100,4,1,1,55,0,1
152537,-100,4,2,1,65,0,0
152872,-100,4,2,1,20,0,0
156894,-100,4,2,2,50,0,0
168542,-100,4,2,1,55,0,0
173989,-100,4,2,1,55,0,0
176587,-100,4,2,2,55,0,0
177593,-100,4,2,1,55,0,0
178012,-100,4,2,1,20,0,0
179185,-100,4,2,1,55,0,0
187900,-100,4,2,2,20,0,0
191252,-100,4,2,1,40,0,0
193431,335.195530726257,4,2,1,70,1,1
204073,-100,4,1,1,50,0,0
204157,-100,4,2,1,70,0,1
217313,-100,4,2,1,75,0,0
217397,-100,4,2,1,75,0,1
224687,-100,4,1,1,50,0,1
225609,-100,4,2,1,60,0,0
235749,-100,4,1,1,55,0,0
236252,-100,4,2,1,20,0,0
238849,-100,4,2,1,5,0,0

[Colours]
Combo1 : 230,170,85
Combo2 : 240,5,5
Combo3 : 255,255,255

[HitObjects]
356,276,1028,6,0,B|276:304|200:264|200:264,1,160
164,108,2369,2,0,L|156:160,1,40
40,172,3039,1,0,0:0:0:0:
80,328,3710,2,0,L|256:296,1,160
300,248,4715,5,0,0:0:0:0:
216,160,5218,2,0,L|236:72,2,80
176,272,6391,6,0,B|100:312|16:276|16:276,2,160,4|0|0,0:0|0:0|0:0,0:0:0:0:
320,344,8403,1,0,0:0:0:0:
476,308,9073,2,0,L|492:224,1,80
432,176,9743,2,0,L|448:92,1,80
436,60,10246,6,0,B|416:28|312:20|280:48,1,160,4|2,0:0|0:0,0:0:0:0:
132,172,11755,5,4,0:0:0:0:
224,304,12425,2,0,B|300:340|384:308|384:308,1,160,2|0,0:0|0:0,0:0:0:0:
480,184,13766,2,0,L|384:148,1,80,2|0,0:0|0:0,0:0:0:0:
412,76,14436,2,0,L|318:118,1,80
300,40,15106,2,0,L|234:206,1,160,2|0,0:0|0:0,0:0:0:0:
181,337,16447,1,2,0:0:0:0:
44,252,17118,6,0,L|76:144,1,80,4|0,0:0|0:0,0:0:0:0:
60,96,17788,2,0,B|136:60|220:88|220:88,1,160,8|8,0:0|0:0,0:0:0:0:
368,40,19129,1,8,0:0:0:0:
340,116,19464,1,0,0:0:0:0:
316,192,19799,2,0,L|340:272,1,80,8|0,0:0|0:0,0:0:0:0:
300,340,20470,2,0,B|224:372|140:332|140:332,2,160,8|8|8,0:0|0:0|0:0,0:0:0:0:
448,276,22481,6,0,L|432:192,1,80,4|0,0:0|0:0,0:0:0:0:
356,220,23151,2,0,L|372:136,1,80,8|0,0:0|0:0,0:0:0:0:
412,72,23822,2,0,B|340:120|252:80|252:80,1,160,8|8,0:0|0:0,0:0:0:0:
120,164,25162,5,8,0:0:0:0:
48,196,25498,1,0,0:0:0:0:
112,244,25833,2,0,B|120:284|108:336|108:336,2,80,8|0|8,0:0|0:0|0:0,0:0:0:0:
48,196,26838,2,0,B|40:156|52:104|52:104,1,80,0|2,0:0|0:0,0:0:0:0:
104,60,27509,1,8,0:0:0:0:
176,92,27844,6,0,L|276:72,1,80,4|8,0:0|0:0,0:0:0:0:
328,108,28514,2,0,L|456:80,2,120,0|8|8,0:0|0:0|0:0,0:0:0:0:
192,192,30190,2,0,L|156:276,2,80,8|0|8,0:0|0:0|0:0,0:0:0:0:
128,144,31196,6,0,L|68:284,2,120,0|8|8,0:0|0:0|0:0,0:0:0:0:
200,112,32537,1,8,0:0:0:0:
344,184,33207,6,0,L|468:144,2,120,4|0|8,0:0|0:0|0:0,0:0:0:0:
316,108,34548,2,0,L|440:68,2,120,0|0|0,0:0|0:0|0:0,0:0:0:0:
240,132,35889,6,0,L|125:95,2,120,4|0|8,0:0|0:0|0:0,0:0:0:0:
212,208,37229,2,0,L|97:171,2,120,0|0|8,0:0|0:0|0:0,0:0:0:0:
272,264,38570,6,0,B|356:240|436:288|436:288,2,160,4|0|0,0:0|0:0|0:0,0:0:0:0:
132,340,40581,2,0,B|116:300|116:260|116:260,1,80
56,212,41252,2,0,B|72:172|101:144|101:144,1,80
160,92,41922,1,0,0:0:0:0:
240,92,42257,1,0,0:0:0:0:
316,120,42593,2,0,B|356:124|404:112|404:112,1,80
460,164,43263,6,0,L|476:228,2,60
256,192,43933,12,8,45609,1:2:0:0:
152,296,46615,6,0,B|224:340|320:312|320:312,1,160,4|8,0:0|0:0,0:0:0:0:
372,268,47620,1,0,0:0:0:0:
356,188,47956,2,0,L|376:100,1,80,8|0,0:0|0:0,0:0:0:0:
316,52,48626,2,0,B|244:8|160:28|160:28,2,160,8|8|8,0:0|0:0|0:0,0:0:0:0:
373,110,50302,5,0,0:0:0:0:
356,188,50637,1,8,0:0:0:0:
340,268,50972,2,0,L|360:360,2,80,0|8|0,0:0|0:0|0:0,0:0:0:0:
280,216,51978,5,4,0:0:0:0:
148,308,52648,1,8,0:0:0:0:
52,180,53319,1,8,0:0:0:0:
184,88,53989,1,8,0:0:0:0:
280,216,54660,6,0,L|404:204,1,120,8|0,0:0|0:0,0:0:0:0:
460,152,55498,1,0,0:0:0:0:
400,100,55833,2,0,L|276:88,1,120,4|8,0:0|0:0,0:0:0:0:
208,316,57341,6,0,B|136:364|48:332|48:332,2,160,4|8|8,0:0|0:0|0:0,0:0:0:0:
364,344,59352,1,8,0:0:0:0:
380,264,59688,1,0,0:0:0:0:
396,184,60023,2,0,B|332:132|244:144|244:144,1,160,8|8,0:0|0:0,0:0:0:0:
172,108,61028,6,0,L|156:196,1,80,0|8,0:0|0:0,0:0:0:0:
80,176,61699,2,0,L|116:268,1,80,0|8,0:0|0:0,0:0:0:0:
144,324,62369,1,0,0:0:0:0:
220,344,62704,5,4,0:0:0:0:
372,300,63375,1,8,0:0:0:0:
276,172,64045,1,8,0:0:0:0:
124,216,64715,1,8,0:0:0:0:
220,344,65386,6,0,L|336:312,1,120,8|0,0:0|0:0,0:0:0:0:
412,288,66224,1,0,0:0:0:0:
448,216,66559,2,0,B|428:156|448:88|448:88,1,120,4|8,0:0|0:0,0:0:0:0:
396,36,67397,1,8,0:0:0:0:
280,144,68067,6,0,B|208:188|112:152|112:152,1,160,4|8,0:0|0:0,0:0:0:0:
104,80,69073,1,0,0:0:0:0:
48,136,69408,1,8,0:0:0:0:
68,212,69743,2,0,B|48:272|76:340|76:340,1,120,0|0,0:0|0:0,0:0:0:0:
148,360,70581,5,4,0:0:0:0:
296,304,71252,1,4,0:0:0:0:
444,248,71922,1,4,0:0:0:0:
404,92,72593,2,0,B|348:72|284:88|284:88,1,120,4|8,0:0|0:0,0:0:0:0:
240,156,73431,6,0,L|68:132,2,160,4|8|8,0:0|0:0|0:0,0:0:0:0:
320,168,75106,1,0,0:0:0:0:
352,240,75442,1,0,0:0:0:0:
272,232,75777,1,8,0:0:0:0:
308,304,76112,6,0,B|256:328|184:300|184:300,2,120,8|8|8,0:0|0:0|0:0,0:0:0:0:
256,112,78123,5,8,0:0:0:0:
216,192,78458,2,0,B|256:208|300:192|300:192,1,80,0|4,0:0|0:0,0:0:0:0:
88,72,84157,6,0,L|88:124,1,40,0|2,0:0|0:0,0:0:0:0:
172,200,84827,2,0,L|172:248,1,40,0|2,0:0|0:0,0:0:0:0:
260,320,85498,6,0,B|336:360|428:328|428:328,2,160,0|8|0,0:0|0:0|0:0,0:0:0:0:
208,260,87174,1,0,0:0:0:0:
128,268,87509,2,0,L|100:352,1,80,8|0,0:0|0:0,0:0:0:0:
24,336,88179,6,0,L|76:176,1,160,0|8,0:0|0:0,0:0:0:0:
208,96,89520,1,0,0:0:0:0:
260,156,89855,1,2,0:0:0:0:
312,216,90190,2,0,L|300:304,1,80,8|8,0:0|0:0,0:0:0:0:
380,316,90861,6,0,L|392:192,2,120,4|0|0,0:0|0:0|0:0,0:0:0:0:
300,320,92201,2,0,L|284:276,1,40,0|8,0:0|0:0,0:0:0:0:
224,180,92872,2,0,B|152:220|68:192|68:192,2,160,8|0|8,0:0|0:0|0:0,0:0:0:0:
304,180,94548,2,0,L|328:312,2,120,8|8|8,0:0|0:0|0:0,0:0:0:0:
168,96,96224,6,0,L|182:174,1,80,4|0,0:0|0:0,0:0:0:0:
264,176,96894,2,0,L|224:245,1,80,8|0,0:0|0:0,0:0:0:0:
180,312,97565,1,8,0:0:0:0:
336,356,98235,6,0,B|376:360|416:348|416:348,1,80,8|0,0:0|0:0,0:0:0:0:
476,296,98905,2,0,L|488:212,1,80,8|0,0:0|0:0,0:0:0:0:
500,136,99576,1,8,0:0:0:0:
476,60,99911,1,0,0:0:0:0:
420,120,100246,2,0,B|348:156|264:132|264:132,1,160,8|8,0:0|0:0,0:0:0:0:
188,104,101252,1,0,0:0:0:0:
116,136,101587,6,0,B|108:176|112:232|112:232,1,80,4|8,0:0|0:0,0:0:0:0:
144,288,102257,2,0,B|204:312|264:300|264:300,2,120,0|8|8,0:0|0:0|0:0,0:0:0:0:
116,136,103933,1,8,0:0:0:0:
260,68,104604,1,8,0:0:0:0:
324,116,104939,2,0,L|460:104,2,120,0|8|8,0:0|0:0|0:0,0:0:0:0:
268,172,106280,1,0,0:0:0:0:
320,324,106950,6,0,B|264:352|200:336|200:336,2,120,4|0|8,0:0|0:0|0:0,0:0:0:0:
312,244,108291,2,0,B|249:251|195:214|195:214,2,120,0|0|8,0:0|0:0|0:0,0:0:0:0:
304,164,109632,6,0,B|360:136|424:152|424:152,2,120,4|0|8,0:0|0:0|0:0,0:0:0:0:
312,244,110973,2,0,B|374:236|428:273|428:273,2,120,0|0|8,0:0|0:0|0:0,0:0:0:0:
244,288,112313,5,4,0:0:0:0:
108,200,112984,1,0,0:0:0:0:
248,124,113654,1,0,0:0:0:0:
376,28,114324,6,0,B|388:68|388:108|388:108,1,80
456,148,114995,2,0,B|446:188|426:223|426:223,1,80
432,300,115665,2,0,B|392:308|344:296|344:296,1,80
292,352,116336,2,0,B|258:329|232:286|232:286,1,80
164,268,117006,6,0,L|172:200,2,60
256,192,117676,12,8,119352,0:0:0:0:
204,108,120358,6,0,B|132:68|48:84|48:84,2,160,4|8|8,0:0|0:0|0:0,0:0:0:0:
312,232,122369,1,8,0:0:0:0:
288,308,122704,1,0,0:0:0:0:
232,252,123039,2,0,L|140:232,2,80,8|0|8,0:0|0:0|0:0,0:0:0:0:
312,232,124045,2,0,L|404:212,2,80,0|8|0,0:0|0:0|0:0,0:0:0:0:
232,252,125051,1,8,0:0:0:0:
168,208,125386,1,0,0:0:0:0:
100,164,125721,5,4,0:0:0:0:
236,84,126391,1,8,0:0:0:0:
372,172,127062,1,8,0:0:0:0:
232,252,127732,1,8,0:0:0:0:
100,164,128403,6,0,L|124:296,1,120,8|0,0:0|0:0,0:0:0:0:
136,360,129241,1,0,0:0:0:0:
212,332,129576,2,0,B|272:320|332:340|332:340,1,120,0|8,0:0|0:0,0:0:0:0:
452,132,131084,6,0,B|484:212|444:292|444:292,2,160,4|8|8,0:0|0:0|0:0,0:0:0:0:
308,64,133095,1,8,0:0:0:0:
236,28,133431,1,0,0:0:0:0:
240,108,133766,2,0,B|204:184|240:272|240:272,1,160,8|8,0:0|0:0,0:0:0:0:
168,304,134771,2,0,B|96:264|12:280|12:280,2,160,0|8|8,0:0|0:0|0:0,0:0:0:0:
236,344,136447,5,4,0:0:0:0:
380,272,137118,1,8,0:0:0:0:
260,168,137788,1,8,0:0:0:0:
116,240,138458,1,8,0:0:0:0:
236,344,139129,6,0,B|296:364|356:340|356:340,1,120,0|0,0:0|0:0,0:0:0:0:
424,300,139967,1,0,0:0:0:0:
356,260,140302,2,0,B|340:200|356:140|356:140,1,120,4|8,0:0|0:0,0:0:0:0:
332,64,141140,2,0,B|292:48|244:52|244:52,1,80,0|8,0:0|0:0,0:0:0:0:
192,104,141810,6,0,B|120:148|32:120|32:120,1,160,4|8,0:0|0:0,0:0:0:0:
88,184,142816,2,0,B|104:224|100:272|100:272,1,80,0|8,0:0|0:0,0:0:0:0:
80,340,143486,2,0,B|136:368|200:356|200:356,1,120,0|8,0:0|0:0,0:0:0:0:
268,316,144324,5,4,0:0:0:0:
208,168,144995,1,4,0:0:0:0:
108,292,145665,1,4,0:0:0:0:
268,316,146336,2,0,B|332:332|392:304|392:304,1,120,4|8,0:0|0:0,0:0:0:0:
436,244,147174,6,0,L|460:72,2,160,4|8|8,0:0|0:0|0:0,0:0:0:0:
364,280,148850,1,0,0:0:0:0:
300,232,149185,2,0,B|260:224|216:228|216:228,1,80,0|8,0:0|0:0,0:0:0:0:
160,280,149855,6,0,B|104:300|28:280|28:280,2,120,8|8|8,0:0|0:0|0:0,0:0:0:0:
220,132,151531,5,8,0:0:0:0:
300,132,151866,1,0,0:0:0:0:
380,132,152201,1,0,0:0:0:0:
460,132,152536,1,4,0:0:0:0:
256,192,153039,12,2,156894,0:0:0:0:
204,296,168626,6,0,B|132:248|44:276|44:276,2,160,4|8|8,0:0|0:0|0:0,0:0:0:0:
264,352,170302,1,0,0:0:0:0:
316,292,170637,1,8,0:0:0:0:
376,348,170972,1,0,0:0:0:0:
432,292,171308,6,0,B|464:216|432:128|432:128,2,160,4|8|8,0:0|0:0|0:0,0:0:0:0:
376,348,172984,1,0,0:0:0:0:
316,292,173319,2,0,B|276:280|232:284|232:284,1,80,8|0,0:0|0:0,0:0:0:0:
176,232,173989,6,0,B|104:272|20:248|20:248,2,160,4|8|8,0:0|0:0|0:0,0:0:0:0:
216,164,175665,1,0,0:0:0:0:
256,232,176000,2,0,L|348:244,1,80,8|8,0:0|0:0,0:0:0:0:
412,220,176671,6,0,B|444:272|428:340|428:340,2,120,2|2|8,0:0|0:0|0:0,0:0:0:0:
256,192,178012,12,8,179185,0:0:0:0:
256,192,187900,12,2,191252,0:0:0:0:
432,240,193431,6,0,B|360:284|272:256|272:256,1,160,4|8,0:0|0:0,0:0:0:0:
216,204,194436,1,0,0:0:0:0:
152,256,194771,2,0,L|173:333,1,80,8|0,0:0|0:0,0:0:0:0:
92,344,195442,2,0,L|48:172,2,160,8|8|8,0:0|0:0|0:0,0:0:0:0:
172,328,197118,5,0,0:0:0:0:
252,312,197453,1,8,0:0:0:0:
332,300,197788,2,0,L|428:332,2,80,0|8|0,0:0|0:0|0:0,0:0:0:0:
284,236,198794,5,4,0:0:0:0:
304,76,199464,1,8,0:0:0:0:
148,36,200134,1,8,0:0:0:0:
128,196,200805,1,8,0:0:0:0:
284,236,201475,6,0,B|300:296|272:360|272:360,1,120,0|0,0:0|0:0,0:0:0:0:
196,364,202313,1,0,0:0:0:0:
124,328,202648,2,0,B|108:268|136:204|136:204,1,120,0|8,0:0|0:0,0:0:0:0:
332,76,204157,6,0,B|260:120|176:92|176:92,2,160,4|8|8,0:0|0:0|0:0,0:0:0:0:
452,180,206168,1,8,0:0:0:0:
436,260,206503,1,0,0:0:0:0:
416,336,206838,2,0,B|336:364|256:320|256:320,1,160,8|8,0:0|0:0,0:0:0:0:
208,260,207844,2,0,B|136:308|48:276|48:276,2,160,0|8|8,0:0|0:0|0:0,0:0:0:0:
236,184,209520,5,4,0:0:0:0:
376,108,210190,1,8,0:0:0:0:
372,268,210861,1,8,0:0:0:0:
236,184,211531,1,8,0:0:0:0:
148,320,212201,6,0,B|204:356|264:344|264:344,1,120
336,312,213039,1,0,0:0:0:0:
272,264,213375,2,0,B|256:204|276:144|276:144,1,120,4|8,0:0|0:0,0:0:0:0:
288,68,214213,1,8,0:0:0:0:
172,180,214883,6,0,B|100:224|8:192|8:192,1,160,4|8,0:0|0:0,0:0:0:0:
60,264,215889,2,0,B|64:304|88:352|88:352,1,80,0|8,0:0|0:0,0:0:0:0:
160,356,216559,1,0,0:0:0:0:
240,344,216894,1,8,0:0:0:0:
360,356,217397,6,0,B|352:292|376:236|376:236,1,120,4|8,0:0|0:0,0:0:0:0:
412,168,218235,1,8,0:0:0:0:
396,88,218570,1,8,0:0:0:0:
316,100,218905,2,0,B|276:104|216:96|216:96,1,80,8|8,0:0|0:0,0:0:0:0:
164,60,219576,2,0,B|160:100|168:160|168:160,1,80,0|0,0:0|0:0,0:0:0:0:
228,192,220246,6,0,B|256:272|232:356|232:356,1,160,4|8,0:0|0:0,0:0:0:0:
76,324,221587,2,0,B|116:316|172:328|172:328,1,80
233,350,222257,2,0,B|273:358|329:346|329:346,1,80,8|8,0:0|0:0,0:0:0:0:
392,332,222928,6,0,B|452:312|512:328|512:328,2,120,8|8|8,0:0|0:0|0:0,0:0:0:0:
276,220,224604,1,8,0:0:0:0:
244,292,224939,2,0,B|204:308|160:300|160:300,1,80
92,336,225609,5,4,0:0:0:0:
96,256,225944,2,0,B|64:180|100:92|100:92,1,160,8|0,0:0|0:0,0:0:0:0:
168,60,226950,2,0,B|208:72|264:72|264:72,1,80,8|0,0:0|0:0,0:0:0:0:
280,144,227620,2,0,B|320:134|369:106|369:106,1,80,8|0,0:0|0:0,0:0:0:0:
424,72,228291,1,8,0:0:0:0:
468,136,228626,6,0,L|452:224,2,80,0|8|0,0:0|0:0|0:0,0:0:0:0:
424,72,229632,2,0,B|384:60|328:64|328:64,1,80,8|0,0:0|0:0,0:0:0:0:
268,88,230302,1,8,0:0:0:0:
236,160,230637,1,0,0:0:0:0:
240,240,230972,1,12,0:0:0:0:
296,300,231308,6,0,B|336:308|388:304|388:304,2,80,0|8|0,0:0|0:0|0:0,0:0:0:0:
228,344,232313,2,0,B|188:336|152:316|152:316,1,80,8|0,0:0|0:0,0:0:0:0:
92,264,232984,2,0,B|52:260|8:272|8:272,2,80,8|0|12,0:0|0:0|0:0,0:0:0:0:
156,220,233989,5,8,0:0:0:0:
224,264,234324,2,0,L|360:240,1,120,0|8,0:0|0:0,0:0:0:0:
396,184,235162,2,0,L|484:168,2,80,8|0|0,0:0|0:0|0:0,0:0:0:0:
320,164,236168,1,4,0:0:0:0:
256,192,236336,12,0,238849,0:0:0:0:
