osu file format v9

[General]
AudioFilename: LiSA - crossing field.mp3
AudioLeadIn: 2000
PreviewTime: 193514
Countdown: 0
SampleSet: Normal
StackLeniency: 0.5
Mode: 0
LetterboxInBreaks: 0

[Editor]
Bookmarks: 53245
DistanceSpacing: 1.6
BeatDivisor: 4
GridSize: 4

[Metadata]
Title:crossing field
Artist:LiSA
Creator:Akashi_S
Version:Floor J
Source:Sword Art Online
Tags:SAO opening jayel

[Difficulty]
HPDrainRate:6
CircleSize:4
OverallDifficulty:6
ApproachRate:8
SliderMultiplier:2
SliderTickRate:1

[Events]
//Background and Video events
0,0,"BG_J.jpg"
//Break Periods
2,44029,45290
2,79089,83167
2,152832,165290
2,179480,181379
2,214172,214228
//Storyboard Layer 0 (Background)
//Storyboard Layer 1 (Fail)
//Storyboard Layer 2 (Pass)
//Storyboard Layer 3 (Foreground)
//Storyboard Sound Samples
//Background Colour Transformations
3,100,163,162,255

[TimingPoints]
-216,335.195530726257,4,1,0,5,1,0
1124,-200,4,2,0,5,0,0
1710,-200,4,2,0,15,0,0
2213,-200,4,2,0,20,0,0
2967,-200,4,2,0,25,0,0
3721,-200,4,1,0,5,0,0
4140,-200,4,1,0,15,0,0
4559,-200,4,1,0,20,0,0
4978,-200,4,1,0,40,0,0
5481,-100,4,1,0,60,0,0
10174,-66.6666666666667,4,1,0,60,0,0
11850,-200,4,2,0,40,0,0
16710,-200,4,1,0,35,0,0
17212,-100,4,1,0,65,0,0
32799,-100,4,1,0,55,0,0
32967,-100,4,1,0,45,0,0
33135,-100,4,1,0,35,0,0
33302,-200,4,1,0,25,0,0
38163,-100,4,1,0,60,0,0
43356,-133.333333333333,4,1,0,30,0,0
46040,-100,4,1,0,10,0,0
46710,-80,4,1,0,65,0,1
77378,-100,4,1,0,65,0,0
83917,-100,4,2,0,15,0,0
84252,-100,4,2,0,25,0,0
84587,-100,4,2,0,35,0,0
84922,-100,4,2,0,45,0,0
85425,-200,4,1,0,35,0,0
89867,-100,4,1,0,55,0,0
90286,-100,4,1,0,60,0,0
90621,-100,4,1,0,65,0,0
106542,-100,4,1,0,60,0,0
106710,-100,4,1,0,55,0,0
106878,-100,4,1,0,40,0,0
107045,-200,4,1,0,35,0,0
111989,-100,4,1,0,65,0,0
117185,-200,4,1,0,45,0,0
120451,-66.6666666666667,4,1,0,65,0,1
151456,-100,4,2,0,50,0,0
165705,-100,4,1,0,55,0,0
168386,-100,4,1,0,65,0,0
179196,-100,4,1,0,15,0,0
181458,-200,4,2,0,35,0,0
187492,-200,4,1,0,35,0,0
188330,-100,4,1,0,45,0,0
189001,-100,4,1,0,55,0,0
189671,-100,4,1,0,65,0,0
192353,-100,4,1,0,10,0,0
193526,335.195530726257,4,1,0,75,1,1
193526,-66.6666666666667,4,1,0,75,0,1
224193,-100,4,1,0,65,0,0
236766,-100,4,1,0,55,0,0
237436,-100,4,1,0,45,0,0
237939,-100,4,1,0,35,0,0
238442,-100,4,1,0,25,0,0
238777,-100,4,1,0,15,0,0
238941,-100,4,2,0,5,0,0

[Colours]
Combo1 : 189,51,141
Combo2 : 224,224,224
Combo3 : 236,173,55

[HitObjects]
84,312,1124,2,0,B|24:308|24:240,1,100,2|0
168,180,1794,2,0,B|224:168|224:100,1,100,2|0
144,108,2297,1,2
184,40,2464,1,0
104,40,2632,1,2
64,108,2799,1,0
180,220,3135,2,2,B|348:220,1,150
256,192,3805,12,0,5649
188,272,5984,5,0
196,256,6068,1,0
204,240,6151,1,0
212,224,6235,1,0
220,208,6319,1,0
228,192,6403,1,0
236,176,6487,2,0,B|252:92|180:40|92:88,1,200,4|8
136,188,6989,5,0
36,276,7157,1,0
20,144,7325,1,0
100,248,7492,2,0,B|132:284|132:284|112:340|160:384|224:368,2,200,8|0|8
196,304,8330,5,0
384,132,8498,1,0
128,132,8666,1,0
316,304,8833,2,0,B|364:332|412:304,1,100,8|0
304,152,9168,5,0
208,232,9336,1,0
192,108,9503,1,8
268,208,9671,1,0
88,176,9839,1,8
260,24,10006,1,0
112,284,10341,6,2,B|184:324|256:288|256:288|332:324|400:288,1,300.000011444092
256,216,10844,1,2
80,80,11850,5,4
136,136,12017,2,0,B|164:108|160:72|160:72|180:52,1,100
148,208,12688,2,0,B|112:216|72:184|64:152,1,100
300,108,13526,1,2
300,268,13861,1,2
160,192,14196,2,0,B|60:192,2,100,2|0|0
164,112,15034,6,0,B|196:120|228:144|236:184,2,100
256,52,16207,1,2
256,332,16542,1,2
256,52,16877,1,8
52,116,17213,6,0,B|52:208|52:208|52:260|64:288|108:288,1,200,4|8
132,216,17716,2,0,B|188:248|176:304|176:304|280:304,1,200
188,92,18218,1,8
256,240,18386,1,0
324,92,18554,1,0
256,36,18721,5,0
200,176,18889,1,8
256,312,19056,1,0
312,176,19224,1,8
112,84,19392,1,0
60,300,19559,1,0
276,240,19727,1,8
128,192,19894,6,0,B|100:148|44:148,1,100
52,236,20230,1,8
360,240,20397,1,0
372,216,20481,1,0
384,192,20565,2,0,B|412:148|468:148,1,100
460,236,20901,1,8
256,136,21067,5,0
256,112,21151,1,0
256,88,21235,2,0,B|244:40|184:28,2,100,0|0|8
128,192,21738,1,0
256,296,21906,1,8
384,192,22073,1,0
392,180,22157,1,0
400,168,22241,1,0
408,156,22325,1,0
416,144,22408,1,0
424,132,22492,1,0
432,120,22576,6,0,B|432:64|380:32,2,100,0|0|8
332,244,23079,2,0,B|312:304,2,50
228,124,23414,2,0,B|248:184|196:208,1,100,0|8
40,172,23749,2,0,B|8:240|32:316|116:336,1,200
188,196,24252,1,8
100,64,24420,1,0
256,8,24587,1,0
324,196,24755,1,0
412,64,24922,1,8
100,320,25258,5,0
300,264,25425,1,0
176,96,25593,1,8
380,132,25760,2,0,B|416:176|480:160,1,100
348,332,26096,2,0,B|300:348|252:324,1,100,0|8
288,84,26431,6,8,B|352:136|308:236|204:236|160:140|232:80,1,300,0|8
256,324,27269,1,0
256,324,27604,1,2
424,152,27939,6,0,B|480:176|480:240,1,100
412,284,28274,1,8
352,208,28442,2,0,B|316:184|272:212|240:212|196:184|152:208,1,200
192,280,28945,1,8
256,116,29112,1,0
320,280,29280,1,0
432,76,29448,1,0
256,116,29615,1,8
80,76,29783,1,0
256,340,30118,5,0
256,340,30286,1,2
36,36,30621,5,0
476,348,30956,1,8
296,96,31291,2,0,B|352:120|352:184,1,100,0|8
256,264,31793,1,0
256,264,31961,1,8
256,36,32297,1,0
104,172,32632,1,0
204,336,33302,6,0,B|272:336|296:336|296:336|328:320|328:284,1,150
256,60,34308,1,0
164,192,34643,2,0,B|168:248|220:280|288:260,2,150
308,120,35984,1,0
308,120,36487,1,0
256,344,37325,1,0
256,344,37827,1,0
256,40,38330,5,8
128,340,38665,1,8
384,272,38833,1,0
128,76,39168,1,8
384,344,39503,1,8
384,76,39838,1,8
128,272,40174,1,0
128,272,40341,1,8
68,87,40677,6,0,B|65:100|65:100|83:95|83:95|70:109|70:109|89:107|89:107|76:120|76:120|96:117|96:117|89:130|89:130|127:194,1,200
444,87,41347,5,2
444,87,41515,1,2
256,140,41850,1,2
68,87,42185,1,2
256,192,42353,12,0,43358
32,32,46040,5,0
88,196,46207,1,0
148,360,46375,1,0
364,360,46710,6,0,B|416:320|436:252|416:180|356:144,1,250,0|8
316,268,47213,2,0,B|336:224|308:176|256:152|204:176|172:224|200:272,1,250
256,344,47716,1,8
256,344,47883,1,0
148,360,48051,2,0,B|96:320|76:252|96:180|156:144,1,250,0|8
376,72,48721,6,0,B|312:40|200:40|132:72,1,250,0|8
80,136,49224,2,2,B|80:296|164:360|256:380|344:364|444:292|444:120,1,625,2|0
256,260,50230,5,0
256,184,50397,2,0,B|256:56,1,125,8|0
80,136,50732,1,0
132,320,50900,1,0
256,184,51068,1,8
380,320,51235,1,0
432,136,51403,1,0
320,128,51570,2,0,B|280:112|232:112|192:128,1,125,0|8
196,244,51906,2,0,B|236:260|284:260|328:244,1,125,0|0
257,63,52408,5,8
388,64,52576,1,0
124,64,52744,1,2
136,344,53079,5,8
24,216,53246,1,0
188,168,53414,1,2
376,344,53749,5,8
488,216,53916,1,0
324,168,54084,1,2
256,92,54420,5,8
156,288,54587,1,0
356,288,54755,1,2
40,36,55090,5,2
40,232,55258,2,0,B|60:160|132:160,1,125,2|0
180,352,55593,2,0,B|200:280|272:280,1,125,2|0
460,332,55928,2,0,B|472:264|456:200|392:168|320:176,1,250,2|0
256,240,56431,1,0
480,32,56766,5,0
424,196,56933,1,0
364,360,57101,1,0
52,52,57437,6,0,B|12:100|24:176,1,125,4|0
88,120,57772,2,0,B|80:188|132:236,1,125,8|0
156,152,58107,2,0,B|192:236|320:236|360:152,1,250,0|8
424,120,58610,1,0
460,52,58777,6,0,B|500:100|488:176,1,125
424,120,59112,2,0,B|432:188|380:236,1,125,8|0
356,152,59448,2,0,B|320:236|192:236|152:152,1,250,0|8
140,244,59950,2,2,B|192:288|256:292|320:288|372:240,2,250,2|2|2
52,348,60788,1,0
232,200,60956,1,0
412,348,61124,1,8
412,72,61291,6,0,B|488:100|512:20,1,125,2|0
332,220,61626,2,0,B|260:216|220:268,1,125,2|0
320,20,61961,2,0,B|300:92|364:140,1,125,2|0
104,48,62297,1,2
196,292,62464,1,0
384,108,62632,2,0,B|448:140|468:220|420:296|352:308,1,250,4|0
348,204,63135,5,8
184,120,63302,1,0
200,304,63470,1,2
396,196,63805,5,8
176,344,63973,1,0
160,80,64141,1,2
400,340,64475,5,8
256,108,64643,1,0
112,340,64811,1,14
100,44,65146,5,0
256,288,65314,1,0
412,44,65481,2,0,B|480:76|456:156,1,125,2|0
328,156,65816,1,0
204,192,65984,2,0,B|268:184|316:236,1,125
68,304,66319,2,0,B|20:248|48:172,1,125
256,192,66654,12,0,67492
256,192,67660,5,0
256,192,67827,1,8
256,192,67995,1,0
256,192,68163,2,0,B|240:256|172:280,1,125
256,192,68498,2,0,B|216:136|248:68,1,125,8|0
256,192,68833,2,0,B|328:172|376:224,1,125
308,312,69168,5,8
204,72,69336,1,0
204,312,69503,1,0
308,72,69670,1,0
128,240,69839,1,8
384,144,70006,1,0
384,240,70174,1,0
128,144,70341,1,0
256,192,70509,1,8
308,312,70677,6,0,B|360:344|444:344|496:284|496:216,1,250,4|0
384,240,71179,1,8
336,136,71347,2,0,B|224:136|224:272|224:272|164:272,1,250,4|0
92,192,71850,1,8
56,84,72017,2,0,B|64:20|248:0|288:56,1,250,4|0
256,144,72520,1,8
152,328,72688,5,0
360,328,72855,1,0
360,328,73191,1,8
172,72,73526,6,0,B|112:116|120:184,1,125
216,336,73861,2,0,B|180:280|204:204,1,125,8|0
476,340,74363,1,0
476,340,74532,1,8
356,300,74867,6,0,B|336:368|256:356,1,125
248,96,75202,2,0,B|280:36|360:32,1,125,8|0
68,52,75705,1,0
68,52,75873,1,8
432,112,76207,6,0,B|476:164|476:236|436:300|376:328,1,250,4|0
344,248,76710,2,0,B|296:256|272:312|296:360|296:360|184:360,1,250,4|0
204,264,77213,1,4
256,192,77380,12,0,78889
256,192,83917,12,0,85258
240,296,85593,6,0,B|188:284,1,50,4|0
36,244,86095,1,0
92,92,86431,1,0
248,56,86766,2,0,B|272:84|272:156|248:208,1,150
204,352,87604,1,0
256,292,87772,1,0
308,232,87939,1,0
408,108,88274,6,0,B|432:128|432:168,2,50
340,68,88777,2,0,B|304:68|280:80,2,50
384,224,89448,2,0,B|408:276|376:336|332:356,1,150,0|8
256,352,90118,1,0
144,240,90286,5,0
368,240,90621,1,8
256,44,90956,1,0
256,192,91124,12,0,93637
200,156,93973,5,0
312,88,94140,1,0
200,20,94308,2,0,B|124:20|68:68|68:144,1,200,8|0
128,256,94811,1,0
16,324,94978,2,0,B|60:356|112:356,2,100,0|8|0
44,196,95481,2,0,B|68:144|124:120|124:120|124:172|156:200,1,200,0|8
272,256,95984,1,0
284,232,96068,1,0
296,208,96151,1,0
308,184,96235,1,0
320,160,96319,5,0
136,40,96487,1,0
376,40,96654,1,8
192,160,96822,2,0,B|112:232,1,100
320,160,97157,2,0,B|400:232,1,100,0|8
256,272,97492,2,0,B|256:344|204:372|152:344|152:272,1,200
48,192,97995,1,8
72,24,98163,1,0
160,168,98330,1,0
264,300,98498,1,0
276,132,98665,1,8
84,348,99001,6,0,B|32:348,2,50
208,192,99336,1,8
332,36,99503,2,0,B|388:36|412:92,1,100
356,280,99839,2,0,B|372:312|404:312,2,50,0|0|8
56,108,100174,2,0,B|8:228|116:280,1,200
168,104,100677,1,8
236,272,100844,1,0
308,104,101012,2,0,B|336:156,4,50,0|0|0|0|2
364,284,101682,6,0,B|300:376|176:324,1,200,4|8
248,248,102185,2,0,B|328:248|376:164|328:96,1,200
244,148,102688,2,0,B|192:176|144:128,2,100,0|8|0
208,56,103191,2,0,B|156:36|104:52,2,100,0|8|0
304,328,103693,1,0
304,56,103861,1,0
208,328,104029,1,8
84,144,104364,5,0
84,144,104531,1,0
84,144,104699,1,8
224,224,105034,1,0
288,160,105202,1,8
224,160,105369,1,0
288,224,105537,1,0
428,240,105872,2,0,B|456:200|456:144,1,100,0|8
360,284,106207,1,0
292,328,106375,1,0
160,236,107045,6,0,B|72:220|92:112,2,150
168,144,108386,2,0,B|180:88|140:36|84:36,2,150
256,172,109727,1,0
256,172,110230,1,0
208,48,110565,1,0
208,48,110732,1,0
304,48,111068,1,0
304,48,111570,1,0
256,172,111906,1,0
256,172,112074,1,8
208,336,112408,5,0
84,244,112576,2,0,B|40:212,2,50,0|0|8
188,128,112911,1,0
320,212,113079,1,0
424,96,113246,2,0,B|388:64,2,50,0|0|8
452,248,113582,2,0,B|452:316|400:368|316:368|264:316|264:244,1,300,0|8
256,44,114420,1,0
256,44,114755,1,8
132,112,115090,5,2
176,292,115258,2,0,B|160:344,2,50,2|0|0
296,152,115593,1,0
296,152,115928,1,0
296,152,116263,1,0
256,64,117101,5,0
256,128,117353,2,0,B|256:212,1,75
256,268,117772,1,0
188,84,118274,6,0,B|224:52|288:52|332:88,1,150
256,128,119112,1,0
32,244,119783,5,0
256,200,119950,1,0
480,244,120118,1,0
184,40,120453,6,0,B|256:88|268:196|188:256|100:232,1,300.000011444092,4|8
112,168,120956,2,0,B|20:180|16:300|72:364|156:368,1,300.000011444092
184,308,121459,2,0,B|256:328|336:308,1,150.000005722046,8|0
356,368,121794,2,0,B|440:364|496:300|492:180|400:168,1,300.000011444092,0|8
180,148,122464,2,0,B|132:72|256:0|380:72|332:152,1,300.000011444092,0|8
256,136,122967,2,2,B|244:236|396:296|484:212,2,300.000011444092,2|2|0
116,264,123805,5,0
28,104,123973,1,0
180,8,124140,1,8
184,188,124308,2,0,B|240:252|196:328,1,150.000005722046,2|0
20,288,124643,2,0,B|4:200|84:160,1,150.000005722046,2|0
256,120,124978,2,0,B|352:136|368:48,1,150.000005722046,2|0
340,228,125313,2,0,B|416:264|416:352,1,150.000005722046,2|0
392,168,125649,2,0,B|364:128|256:96|140:128|116:172,1,300.000011444092,2|0
256,184,126151,5,8
204,272,126319,1,0
308,272,126487,1,0
256,120,126822,5,8
148,304,126989,1,0
364,304,127157,1,0
256,56,127492,5,8
96,340,127660,1,0
420,340,127827,1,0
72,64,128163,5,8
32,176,128330,1,0
148,208,128498,1,0
188,96,128665,1,0
188,96,128749,1,0
188,96,128833,1,8
256,196,129001,2,0,B|320:232|408:228,1,150.000005722046
212,296,129336,2,0,B|276:332|364:328,1,150.000005722046,0|8
464,160,129671,2,0,B|468:60|324:0|232:56,1,300.000011444092
256,196,130174,1,8
480,240,130509,5,0
256,196,130676,1,0
32,240,130844,1,0
224,348,131179,6,0,B|124:356|52:196|124:112,1,300.000011444092,0|8
184,224,131682,2,0,B|144:172|204:92|308:92|368:176|328:224,1,300.000011444092
292,280,132185,1,8
292,280,132353,1,0
288,348,132520,2,0,B|388:356|460:196|388:112,1,300.000011444092,0|8
116,56,133191,2,0,B|148:16|256:4|364:16|404:60,1,300.000011444092,0|8
400,120,133693,2,2,B|368:160|260:172|152:160|112:116,2,300.000011444092,2|2|2
316,80,134531,5,0
256,8,134699,1,0
256,100,134867,1,8
256,192,135034,2,0,B|184:228|108:192,1,150.000005722046,2|0
64,112,135369,2,0,B|4:160|24:252,1,150.000005722046,2|0
116,268,135705,2,0,B|196:296|272:260,1,150.000005722046,2|0
336,208,136040,2,0,B|364:284|336:360|224:380|148:360,1,300.000011444092,2|0
60,340,136542,1,4
196,72,137045,5,0
208,100,137129,1,0
220,128,137213,1,2
389,200,137715,5,0
359,196,137799,1,0
329,192,137883,1,2
182,303,138386,5,0
200,279,138470,1,0
218,255,138554,1,2
368,36,138889,5,8
284,104,139056,1,0
360,184,139224,1,2
272,248,139392,2,0,B|344:292|416:248,1,150.000005722046,0|2
400,356,139727,2,0,B|328:376|256:380|180:376|100:352,1,300.000011444092,2|0
256,56,140397,1,2
256,328,140732,5,2
256,328,140900,1,0
256,192,141068,1,0
120,192,141235,1,0
104,160,141403,1,0
88,128,141570,1,0
72,96,141738,1,0
56,64,141906,6,0,B|116:16|208:36,1,150.000005722046,4|0
184,188,142241,1,8
260,52,142408,2,0,B|348:40|432:76|476:160|456:244|412:316|328:344,1,450.000017166138,0|8
192,252,143079,1,0
320,132,143246,2,0,B|408:136|444:60,1,150.000005722046
320,252,143582,2,0,B|324:340|248:376,1,150.000005722046,8|0
192,132,143917,1,0
52,28,144084,1,0
56,204,144252,1,8
152,352,144420,6,0,B|244:352|256:260,1,150.000005722046,4|0
256,140,144755,1,0
256,140,144922,1,8
188,36,145090,2,0,B|260:12|340:40,1,150.000005722046,4|0
444,100,145425,1,0
444,100,145593,1,8
384,208,145760,2,0,B|400:292|316:328,1,150.000005722046,4|0
224,244,146096,1,0
224,244,146263,1,8
132,160,146431,1,0
132,160,146598,1,0
132,160,146934,1,8
420,52,147269,6,0,B|504:84|492:172,1,150.000005722046
352,160,147604,1,8
212,152,147772,2,0,B|192:236|264:288,2,150.000005722046
352,160,148274,1,8
92,332,148610,6,0,B|8:300|20:212,1,150.000005722046
160,224,148945,1,8
300,232,149113,2,0,B|320:148|248:96,2,150.000005722046
160,224,149615,1,8
496,52,149950,6,0,B|460:132|372:136,1,150.000005722046,4|0
376,20,150286,1,0
16,332,150453,6,0,B|52:252|140:248,1,150.000005722046,4|0
136,364,150789,1,0
244,316,150956,1,0
256,192,151291,12,0,152632
256,192,166040,12,0,168218
156,132,168554,5,0
144,144,168637,1,0
132,156,168721,2,0,B|132:216|168:248,1,100
320,344,169056,1,8
336,164,169224,2,0,B|380:132|440:152,1,100
296,28,169559,1,0
256,204,169727,2,0,B|212:252|152:248,1,100,8|0
96,352,170062,6,0,B|40:332|40:272,1,100
72,108,170397,1,8
160,256,170565,2,0,B|196:216|184:160,1,100
252,4,170900,1,0
332,156,171068,1,8
252,308,171235,1,0
172,156,171403,6,2,B|192:108|180:52|116:32,2,150,2|2|0
92,224,172073,2,2,B|52:264|52:320|108:352,2,150,2|2|0
192,260,172744,1,0
356,208,172995,1,0
304,44,173246,1,8
208,44,173414,1,0
156,208,173665,1,0
320,260,173917,1,8
336,284,174001,1,0
352,308,174084,1,4
256,192,174252,12,0,175258
192,96,175593,5,0
60,56,175760,1,8
64,196,175928,1,0
200,232,176096,1,0
200,232,176179,1,0
200,232,176263,1,0
316,152,176431,1,8
316,152,176515,1,0
316,152,176598,1,0
428,232,176766,5,0
428,232,176934,2,0,B|476:204,2,50
320,144,177269,1,0
208,64,177436,2,0,B|160:92,2,50
256,196,177772,1,0
256,196,177939,1,0
256,192,178107,12,0,179280
232,24,182129,6,0,B|284:32|328:92|312:144,2,150,2|0|0
100,112,183470,1,2
348,316,184140,6,0,B|308:348|248:348,1,100,2|0
264,268,184643,2,0,B|200:272|176:324,2,100,2|0|0
256,188,185481,1,0
248,108,185649,1,0
184,156,185816,1,0
120,204,185984,6,0,B|64:232|28:180,1,100,2|2
80,32,186654,2,0,B|136:12|176:60,1,100,2|2
184,216,187325,2,0,B|216:240|296:240|328:216,1,150,2|0
288,148,187995,5,0
288,312,188163,1,0
84,136,188498,5,0
64,28,188665,1,0
172,56,188833,1,0
428,248,189168,5,0
448,356,189335,1,0
340,328,189503,1,0
88,324,189839,5,0
196,220,190006,1,0
304,116,190174,1,0
168,52,190341,1,0
96,184,190509,2,0,B|92:240|144:276,1,100
256,84,191012,1,0
256,304,191347,1,0
256,192,191515,12,0,192520
260,284,193526,6,0,B|172:360|36:324|16:212,1,300.000011444092,4|8
48,84,194028,1,0
88,220,194196,1,0
124,84,194363,1,0
164,220,194531,1,8
252,100,194866,6,0,B|340:24|476:60|496:172,1,300.000011444092,0|8
464,300,195368,1,0
424,164,195536,1,0
388,300,195703,1,0
348,164,195871,1,8
312,28,196039,6,2,B|244:4|144:24|80:92|96:192,2,300.000011444092
256,192,196877,1,0
200,356,197045,1,0
144,192,197213,1,8
80,32,197380,2,0,B|4:84|40:168,1,150.000005722046,2|0
84,328,197715,2,0,B|156:320|200:240,1,150.000005722046,2|0
168,72,198051,2,0,B|248:48|312:108,1,150.000005722046,2|0
288,276,198386,2,0,B|368:304|432:264,1,150.000005722046,2|0
468,96,198721,2,0,B|424:52|340:32|256:24|172:32|84:52|40:100,1,450.000017166138,2|8
32,256,199391,5,0
152,152,199559,2,8,B|244:116|356:128|440:192,1,300.000011444092,2|8
392,344,200062,5,0
276,236,200229,2,0,B|192:220|112:268|112:344|112:344|192:344,1,300.000011444092,2|8
256,116,200732,5,0
140,224,200900,2,0,B|184:328|328:328|380:220,1,300.000011444092,2|8
472,352,201403,1,0
472,196,201570,6,0,B|456:112|376:76,1,150.000005722046
308,220,201905,1,8
232,80,202073,2,0,B|144:124|184:212,1,150.000005722046
64,96,202408,2,0,B|24:168|52:240,1,150.000005722046,0|8
164,356,202743,2,0,B|232:380|324:368|372:284|344:200,1,300.000011444092
188,196,203246,2,0,B|152:112|188:28|288:8|376:40,1,300.000011444092,8|0
354,33,203749,1,0
354,33,203917,1,8
104,104,204252,6,0,B|32:144|12:244|64:316|152:320,2,300.000011444092,4|8|0
128,240,205090,1,0
184,116,205257,2,0,B|256:88|332:116,1,150.000005722046,8|0
408,104,205593,2,0,B|480:144|500:244|448:316|360:320,2,300.000011444092,0|8|0
384,240,206431,1,0
332,116,206598,1,8
276,240,206766,2,2,B|252:320|168:368|84:320|56:240,2,300.000011444092
220,116,207604,5,0
104,192,207771,1,0
96,52,207939,1,8
172,168,208107,2,0,B|204:248|152:308,1,150.000005722046,2|0
32,232,208442,1,2
88,360,208609,1,0
224,324,208777,2,0,B|308:344|364:284,1,150.000005722046,2|0
256,192,209112,1,2
188,68,209280,1,0
324,68,209447,1,4
428,304,210117,5,0
436,324,210201,1,0
444,340,210285,1,2
84,80,210787,5,0
76,60,210871,1,0
68,44,210955,1,2
232,304,211458,5,0
240,324,211542,1,0
248,340,211626,1,2
280,80,212128,5,0
272,60,212212,1,0
264,44,212296,1,2
152,144,212464,5,0
36,48,212632,2,0,B|0:132|80:180,1,150.000005722046,8|0
60,328,212967,1,0
148,208,213134,2,0,B|232:216|288:156,1,150.000005722046,2|8
436,156,213470,2,0,B|420:92|348:40|256:16|164:40|88:92|76:164,1,450.000017166138,0|8
256,132,214978,5,0
132,132,215146,1,0
56,228,215313,2,0,B|36:316|132:336,2,150.000005722046,8|0|0
176,256,215816,1,0
296,284,215984,2,0,B|384:276|400:188,1,150.000005722046,8|0
308,108,216319,2,0,B|228:128|164:68,1,150.000005722046
88,168,216654,1,8
208,196,216822,1,0
256,48,216989,1,0
304,196,217157,1,0
424,168,217324,1,8
256,192,217492,12,0,218833
456,336,219168,5,0
276,292,219336,1,8
368,132,219503,1,0
208,224,219671,2,0,B|120:224|96:140,1,150.000005722046
260,56,220006,1,0
268,72,220090,1,0
276,88,220174,1,0
284,104,220257,1,0
292,120,220341,6,0,B|272:168|204:180|168:136,1,150.000005722046
108,36,220676,1,8
64,144,220844,2,0,B|24:204|36:288|116:332|220:296,2,300.000011444092
168,196,221682,6,0,B|252:184|312:232,1,150.000005722046
256,332,222017,1,8
372,312,222185,2,0,B|436:240|416:144|348:96|260:96,2,300.000011444092
268,260,223023,6,0,B|192:288|120:252,2,150.000005722046,4|0|0
244,148,223526,2,0,B|332:152|376:80,2,150.000005722046,4|0|0
256,32,224028,1,4
256,192,224196,12,0,225704
240,344,226039,5,8
192,220,226207,1,0
144,96,226375,2,0,B|88:108|64:160,2,100,0|0|8
268,144,226877,2,0,B|320:168|372:140,1,100
292,32,227213,1,0
424,48,227380,1,8
472,172,227548,2,0,B|464:232|408:264,1,100
296,208,227883,1,0
256,336,228051,1,8
216,208,228218,2,0,B|156:200|152:136,1,100
36,348,228721,5,8
72,212,228889,1,0
176,304,229056,1,0
232,180,229224,2,0,B|268:140|324:144,1,100,0|8
376,296,229559,2,0,B|336:260|340:204,1,100
476,124,229894,2,0,B|440:164|384:160,1,100,0|8
332,8,230229,2,0,B|372:44|368:100,1,100
312,252,230565,1,0
256,68,230732,1,8
200,252,230900,1,0
144,68,231067,5,4
368,316,231403,1,8
392,144,231570,2,0,B|348:112|284:128,1,100
148,216,231905,1,0
20,96,232073,1,8
12,272,232241,2,0,B|12:336|64:356,1,100
168,296,232576,2,8,B|216:300|260:256,1,100,0|8
256,64,232911,5,0
320,248,233079,1,0
160,140,233246,1,0
352,140,233414,1,8
192,248,233581,1,0
192,248,233749,1,4
468,28,234084,6,0,B|496:80|468:132,1,100
312,192,234419,1,0
408,336,234587,1,0
236,312,234755,1,8
256,140,234922,5,0
256,108,235257,1,0
256,76,235593,1,0
256,44,235928,1,0
256,12,236263,1,0
256,192,236431,12,0,239112
