osu file format v9

[General]
AudioFilename: LiSA - crossing field.mp3
AudioLeadIn: 2000
PreviewTime: 193514
Countdown: 0
SampleSet: Normal
StackLeniency: 0.7
Mode: 0
LetterboxInBreaks: 0

[Editor]
Bookmarks: 35649,58778,75538,79728,96990
DistanceSpacing: 1
BeatDivisor: 4
GridSize: 4

[Metadata]
Title:crossing field
Artist:LiSA
Creator:Akashi_S
Version:Floor 100
Source:Sword Art Online
Tags:SAO opening jayel

[Difficulty]
HPDrainRate:5
CircleSize:4
OverallDifficulty:5
ApproachRate:7
SliderMultiplier:1.4
SliderTickRate:1

[Events]
//Background and Video events
0,0,"BG_Hard.jpg"
//Break Periods
2,84285,84694
2,107246,111509
2,152633,167822
2,179481,180559
//Storyboard Layer 0 (Background)
//Storyboard Layer 1 (Fail)
//Storyboard Layer 2 (Pass)
//Storyboard Layer 3 (Foreground)
//Storyboard Sound Samples
//Background Colour Transformations
3,100,163,162,255

[TimingPoints]
-216,335.195530726257,4,1,0,5,1,0
454,-200,4,2,1,5,0,0
1627,-200,4,2,1,20,0,0
3135,-200,4,2,1,30,0,0
4141,-200,4,2,1,60,0,0
5901,-100,4,1,0,30,0,0
6487,-100,4,1,0,50,0,0
10929,-100,4,2,1,75,0,0
17046,-100,4,1,0,75,0,0
30957,-100,4,1,0,50,0,0
31711,-100,4,2,1,70,0,0
32297,-100,4,2,1,50,0,0
32800,-100,4,2,1,30,0,0
33135,-100,4,2,1,5,0,0
33303,-200,4,2,1,25,0,0
38499,-100,4,1,0,35,0,0
40510,-100,4,1,0,55,0,0
46711,-100,4,1,0,75,0,1
77549,-100,4,1,0,60,0,0
79057,-100,4,1,0,40,0,0
83918,-100,4,1,0,5,0,0
84253,-100,4,1,0,50,0,0
85426,-100,4,1,0,40,0,0
112409,-100,4,1,0,55,0,0
120454,-100,4,1,0,75,0,1
151292,-100,4,2,1,50,0,0
168722,-100,4,1,0,50,0,0
181459,-200,4,2,1,50,0,0
187828,-100,4,2,1,50,0,0
192186,-100,4,1,0,40,0,0
193527,-100,4,1,0,75,0,1
224365,-100,4,1,0,65,0,0
236264,-100,4,2,1,5,0,0

[Colours]
Combo1 : 189,51,141
Combo2 : 224,224,224
Combo3 : 236,173,55

[HitObjects]
132,192,454,1,0
132,192,621,1,0
132,192,789,1,0
184,240,1124,2,0,B|212:276|260:264,1,70,0|2
240,196,1795,2,0,B|292:196|316:232|316:268|316:268|344:268,1,140
338,268,2633,1,0
444,256,3135,1,0
444,152,3638,2,0,B|444:136|444:104,1,35
376,112,4141,6,0,B|360:152|304:140,1,70,2|0
320,72,4811,2,0,B|284:8|164:8|136:88,1,210,2|0
116,140,5985,5,0
140,236,6152,1,8
224,288,6320,1,0
296,288,6487,6,0,B|364:320|436:284,1,140,4|0
296,288,6990,1,0
304,220,7158,2,0,B|328:160|300:76,1,140
164,100,7828,2,0,B|112:88|72:116,2,70,4|0|8
136,164,8331,1,0
136,164,8499,2,0,B|112:232|140:304,1,140,0|8
272,256,9169,6,0,B|316:272|316:272|416:252,1,140,0|8
284,188,9839,1,0
296,120,10007,1,0
308,52,10175,1,8
240,72,10342,2,0,B|168:44|96:96,1,140
106,88,10845,1,8
108,160,11013,6,0,B|80:228,1,70,0|2
124,308,11348,2,0,B|152:244,1,70,0|2
220,264,11683,1,0
272,316,11851,6,0,B|344:336|420:308,1,140,0|2
432,244,12353,1,0
424,172,12521,2,0,B|448:128|492:120,2,70,0|0|2
356,188,13024,1,0
288,208,13191,2,0,B|260:244|204:244,2,70,0|0|2
256,72,13862,6,0,B|168:48|88:84,1,140,0|2
80,132,14365,1,0
72,204,14532,2,0,B|124:192|172:232|156:296,1,140,0|2
88,276,15035,2,0,B|188:156,1,140
248,184,15538,1,2
316,164,15705,1,0
388,164,15873,2,0,B|435:215,2,70,0|0|2
328,288,16543,6,0,B|256:308|172:284,1,140,0|2
152,152,17214,2,0,B|112:128|120:80,1,70,4|0
224,164,17549,2,0,B|284:156|308:204,1,70,8|0
180,220,17884,2,0,B|172:264|200:308,1,70
180,220,18219,5,8
152,152,18387,1,0
224,164,18554,1,0
348,96,18890,2,0,B|416:80|488:100,1,140,8|0
484,240,19560,2,0,B|396:256|320:228,1,140,8|0
228,312,20230,6,0,B|92:260,1,140,8|0
80,192,20733,1,0
97,121,20901,2,0,B|228:72,1,140,8|0
300,192,21571,2,0,B|384:192,1,70,8|0
475,192,21906,2,0,B|440:192,6,35
404,132,22577,6,0,B|364:64|272:48,1,140,0|8
276,124,23080,2,0,B|232:112|220:76|220:52|220:52|96:52,1,210,0|8
76,116,23750,1,0
44,180,23918,2,0,B|84:208|132:160,2,70,0|0|8
156,264,24588,6,0,B|160:260|160:260|164:264|164:264|168:260|168:260|172:264|172:264|176:260|176:260|180:264|180:264|184:260|184:260|188:264|188:264|192:260|192:260|196:264|196:264|200:260|200:260|204:264|204:264|208:260|208:260,1,70
276,264,24923,1,8
392,340,25258,2,0,B|424:268|388:180,1,140,0|8
328,200,25761,2,0,B|296:128|323:63,2,140
256,200,26599,2,0,B|188:232|100:196,1,140,0|8
56,76,27270,2,0,B|132:48|212:80,1,140,0|8
256,192,27772,12,0,30621
256,88,31292,5,0
256,88,31459,1,0
256,300,31962,1,0
256,300,32129,1,0
420,168,32633,6,0,B|420:128,7,35
404,108,33303,6,0,B|364:56|280:56,1,140
252,120,34309,2,0,B|208:124|168:112,1,70,2|0
112,192,35147,1,0
184,268,35649,2,0,B|210:260|254:264,1,70,2|4
328,192,36487,1,0
400,192,36823,6,0,B|448:192,1,35,0|8
416,124,37325,2,0,B|392:116|364:132|364:132|336:112|308:124,1,105
272,64,38163,2,0,B|240:40,1,35,0|8
176,164,38666,6,0,B|176:224|108:252|56:216,1,140,0|8
104,160,39169,2,0,B|168:284,1,140
308,304,39839,2,0,B|380:332|472:296,1,140
445,305,40342,1,8
348,204,40677,6,0,B|304:200|276:144,1,70
164,204,41013,2,0,B|208:200|236:144,1,70,8|0
256,104,41348,2,0,B|256:64,14,35,4|0|4|0|4|0|4|0|4|0|4|0|4|0|4
256,260,42856,5,0
256,328,43023,1,8
192,192,43359,5,0
256,108,43610,1,0
320,192,43862,1,0
256,192,44029,12,0,45370
147,192,46040,5,0
256,216,46208,1,0
364,192,46376,1,8
256,104,46711,5,4
148,192,47046,2,0,B|76:164|24:228,1,140,8|0
132,316,47716,2,0,B|192:336|260:268|260:268|320:336|400:324,1,280,8|8
488,228,48722,2,0,B|436:164|364:192,1,140,0|8
232,152,49392,2,0,B|184:88|84:108,2,140,0|8|0
116,232,50398,5,8
116,232,50566,2,0,B|104:284|164:336|220:300,1,140
184,240,51068,2,0,B|240:212|272:240,1,70
300,280,51404,1,0
300,280,51571,2,0,B|336:244|324:184|280:160,1,140
304,96,52074,6,0,B|264:48|220:48,1,70,0|0
176,172,52577,1,0
176,172,52744,2,0,B|136:180|112:224,1,70
252,256,53247,1,0
252,256,53415,2,0,B|264:296|308:316,1,70
376,196,53918,1,0
376,196,54086,2,0,B|412:204|452:168,1,70
320,112,54588,5,0
252,92,54756,2,0,B|156:64|96:100,1,140,0|8
64,40,55258,2,0,B|32:72|32:144|88:176|144:156|144:156|148:216|212:228,1,280
252,92,56264,1,0
216,152,56432,1,0
256,288,56767,6,0,B|256:340,6,35
364,296,57437,6,0,B|408:304|448:264,1,70
384,224,57772,2,0,B|432:216|448:160,1,70
376,148,58108,2,0,B|332:76|252:112,1,140
256,180,58610,1,0
252,252,58778,2,0,B|174:282|130:210,1,140
160,76,59448,5,0
256,180,59784,2,0,B|332:172,1,70
320,244,60119,2,0,B|400:236,1,70
380,308,60454,2,0,B|464:300,1,70
468,236,60789,2,0,B|480:140|460:84,1,140
448,28,61292,6,0,B|408:32|376:80|400:132|400:132|300:108,1,210
284,56,61962,2,0,B|240:92|256:144|256:144|228:172|228:236|272:256,1,210
308,196,62633,1,0
308,196,62800,6,0,B|144:156,1,140
204,100,63303,1,0
204,100,63471,2,0,B|176:92|176:92|160:56|108:36|60:72,1,140
112,124,63973,1,0
112,124,64141,2,0,B|96:152|96:152|48:156|16:196|28:248,1,140
96,224,64644,1,0
96,224,64811,2,0,B|140:220|156:188|156:188|236:244,1,140
256,192,65482,12,0,66655
256,212,67325,5,0
276,280,67493,1,0
332,324,67661,1,0
400,312,67828,1,8
440,256,67996,1,0
448,188,68163,2,0,B|464:96|420:44,1,140
364,84,68666,1,0
292,92,68834,2,0,B|248:128|196:48|144:88,1,140,0|8
132,216,69504,6,0,B|152:260|220:264|248:220,1,140,0|8
132,140,70175,1,0
192,176,70342,1,0
296,88,70677,5,0
364,112,70845,1,0
416,160,71013,1,0
292,228,71348,5,0
268,296,71516,1,0
220,348,71684,1,0
168,220,72018,5,0
100,196,72186,1,0
48,148,72354,1,0
168,76,72689,5,0
212,132,72856,2,0,B|252:128|252:128|284:156|324:156|364:120,1,140,0|8
300,76,73359,1,0
300,76,73527,2,0,B|352:48|408:68|416:136,1,140,0|8
392,184,74029,2,0,B|420:224|408:284|344:300,1,140
336,228,74532,5,8
232,324,74867,2,0,B|168:324|108:240|28:240,1,210
48,100,75705,1,0
256,156,76208,5,0
256,228,76376,1,0
292,129,76711,5,0
220,254,76879,1,8
349,137,77214,5,0
162,246,77382,1,0
256,192,77549,12,0,78890
108,196,79225,6,0,B|119:238|176:272|236:248,1,140,8|0
292,252,79728,2,0,B|337:271|394:237|405:195,1,140
256,164,80398,1,0
256,240,80566,2,0,B|256:316,2,70,8|0|0
256,164,81068,2,0,B|256:72,2,70,0|8|0
196,200,81571,1,0
124,320,81906,6,0,B|184:364|280:332,1,140,8|0
324,316,82409,2,0,B|328:260|376:248|376:248|364:184,1,140
388,64,83080,1,0
256,108,83415,1,0
124,64,83750,1,0
256,16,84085,1,0
152,192,85594,5,0
184,252,85761,2,0,B|252:264|252:264|336:228,1,140
452,192,86432,2,0,B|484:120|484:120|464:52,1,140
336,108,87102,1,0
336,108,87270,1,8
196,108,87605,5,0
56,108,87940,1,8
120,232,88275,2,0,B|120:316,1,70
240,232,88778,2,0,B|312:256|396:232,1,140
380,96,89448,2,0,B|313:76|240:96,1,140
240,164,89951,1,8
176,196,90119,6,0,B|152:228|96:216,1,70
120,148,90454,2,0,B|152:120|200:124,1,70,0|8
410,62,90957,6,0,B|396:130,1,70
366,274,91292,2,0,B|380:205,1,70
330,86,91627,2,0,B|316:154,1,70
286,298,91962,2,0,B|300:229,1,70
248,176,92297,6,0,B|180:196|104:176,1,140
64,44,92968,1,0
64,44,93135,1,0
64,44,93303,1,0
110,178,93638,2,0,B|96:224|120:268,2,70
256,152,94309,5,0
220,212,94476,1,0
292,212,94644,1,8
312,160,94979,5,0
196,160,95146,1,0
256,256,95314,1,8
256,116,95649,5,0
256,44,95817,2,0,B|256:-4,4,35,0|0|8|0|0
196,80,96320,6,0,B|120:80|64:136,1,140,0|8
108,192,96823,1,0
69,253,96990,2,0,B|120:304|196:308,1,140,0|8
244,256,97493,1,0
280,192,97661,2,0,B|244:176|208:192,2,70,0|0|8
280,192,98331,5,0
276,120,98499,1,0
308,56,98666,1,8
420,140,99001,2,0,B|440:176|416:224,1,70
380,264,99337,1,8
320,304,99504,2,0,B|252:336|180:300,1,140
64,232,100175,6,0,B|36:196|60:152,1,70
108,124,100510,1,0
160,76,100677,2,0,B|188:108|176:164,1,70
200,208,101013,2,0,B|260:220|296:188,1,70
378,130,101348,2,0,B|344:116|296:132,1,70
256,192,101683,12,0,104365
148,192,105035,6,0,B|236:192,1,70
288,180,105370,1,8
356,200,105538,1,0
424,184,105705,2,0,B|424:112,1,70
356,128,106040,1,8
256,272,106376,2,0,B|256:308,8,35
140,160,112409,5,0
140,160,112577,2,0,B|96:228|148:320,1,140
256,220,113247,2,0,B|288:140|252:72,1,140
256,220,113918,2,0,B|292:248|352:232,1,70,0|8
428,144,114420,6,0,B|460:216|428:284,1,140
292,304,115091,2,0,B|196:304,1,70
82,279,115594,2,0,B|52:216|84:144,1,140
184,48,116264,2,0,B|328:48,1,140
324,48,116767,1,0
180,188,117102,5,0
256,260,117353,1,0
336,188,117605,1,0
256,192,117772,12,0,119113
365,192,119784,5,0
256,164,119952,1,0
148,192,120120,1,8
256,280,120455,5,4
364,192,120790,2,0,B|436:220|488:156,1,140,8|0
380,68,121460,2,0,B|320:48|252:116|252:116|192:48|112:60,1,280,8|8
24,156,122466,2,0,B|76:220|148:192,1,140,0|8
184,252,122968,1,0
192,324,123136,2,0,B|252:316|256:248|256:248|300:296|424:292,1,280
396,152,124142,5,8
396,152,124310,2,0,B|408:100|348:48|292:84,1,140
328,144,124812,2,0,B|272:172|240:144,1,70
212,104,125148,1,0
212,104,125315,2,0,B|176:140|188:200|232:224,1,140
208,288,125818,6,0,B|248:336|292:336,1,70
336,212,126321,1,0
336,212,126488,2,0,B|376:204|400:160,1,70
260,128,126991,1,0
260,128,127159,2,0,B|248:88|204:68,1,70
136,188,127662,1,0
136,188,127828,2,0,B|100:180|60:216,1,70
192,272,128332,5,0
260,292,128500,2,0,B|356:320|416:284,1,140,0|8
448,344,129002,2,0,B|480:312|480:240|424:208|368:228|368:228|364:168|300:156,1,280
260,292,130008,1,0
296,232,130176,1,0
288,92,130510,5,0
284,76,130677,1,0
280,64,130845,1,8
148,88,131181,6,0,B|104:80|64:120,1,70
128,160,131516,2,0,B|80:168|64:224,1,70,8|0
136,236,131852,2,0,B|180:308|260:272,1,140,0|8
256,200,132353,1,0
260,128,132522,2,0,B|338:98|382:170,1,140,0|8
344,308,133192,5,0
256,200,133528,2,0,B|180:208,1,70,8|0
192,136,133863,2,0,B|112:144,1,70
132,72,134198,2,0,B|48:80,1,70,8|0
44,144,134533,2,0,B|32:240|52:296,1,140,0|8
64,352,135036,6,0,B|104:348|136:300|112:248|112:248|212:272,1,210
228,324,135706,2,0,B|272:288|252:236|252:236|284:208|284:144|240:120,1,210
204,180,136377,1,0
204,180,136544,6,0,B|368:220,1,140,0|8
308,276,137047,1,0
308,276,137215,2,0,B|336:284|336:284|352:320|404:340|452:304,1,140,0|8
400,252,137717,1,0
400,252,137885,2,0,B|416:224|416:224|464:220|496:180|484:128,1,140,0|8
416,152,138388,1,0
416,152,138555,2,0,B|372:156|356:188|356:188|276:132,1,140,0|8
302,150,139058,1,0
276,84,139225,6,0,B|252:48|184:72,2,70
228,136,139728,2,0,B|216:220|160:280,1,140
174,263,140398,1,0
188,52,140901,6,0,B|152:40|120:68,2,70
168,120,141404,2,0,B|144:152|80:128,1,70
56,188,141739,1,0
56,188,141907,2,0,B|40:280|84:332,1,140,0|8
216,296,142578,2,0,B|260:260|312:340|364:300,1,140,0|8
380,168,143248,6,0,B|360:124|292:120|264:164,1,140,0|8
380,240,143919,1,0
320,204,144086,1,0
216,296,144421,5,0
148,272,144589,1,0
96,224,144757,1,0
220,156,145092,5,0
244,88,145258,1,0
292,36,145426,1,0
344,164,145762,5,0
412,188,145930,1,0
464,236,146096,1,0
344,308,146433,5,0
300,252,146600,2,0,B|260:256|260:256|228:228|188:228|148:264,1,140,0|8
212,308,147103,1,0
212,308,147271,2,0,B|160:336|104:316|96:248,1,140,0|8
120,200,147773,2,0,B|92:160|104:100|168:84,1,140
176,156,148276,5,8
240,124,148443,1,0
280,64,148610,2,0,B|348:40|412:92,1,140
460,144,149113,1,0
480,212,149281,1,0
416,244,149448,2,0,B|428:280|484:292,2,70
256,231,149952,5,0
256,152,150120,1,0
216,261,150455,5,0
295,123,150621,1,0
156,250,150958,5,0
355,133,151124,1,0
76,104,168722,6,0,B|132:104|132:104|160:76|208:72|224:96,1,140,0|8
192,152,169225,2,0,B|204:200|256:204,1,70
260,132,169560,2,0,B|284:96|344:96,1,70,0|8
320,168,169895,1,0
384,192,170063,6,0,B|432:252|384:320,1,140,0|8
320,292,170566,2,0,B|252:340|180:292,1,140
128,332,171068,2,0,B|104:292|136:248,1,70,8|0
124,196,171404,6,0,B|72:156|96:88|148:68,1,140
168,140,171906,1,0
204,200,172074,2,0,B|244:232|296:204,2,70
248,144,172577,2,0,B|248:56|344:40,1,140
376,96,173080,2,0,B|424:60,10,35,8|0|0|0|0|0|0|0|0|0|0
420,148,174085,6,0,B|444:216|408:284,1,140,0|8
344,312,174588,2,0,B|272:312|232:268|268:224|308:268|260:312|176:312,1,210,0|8
120,284,175258,2,0,B|80:224|120:152,1,140
176,104,175761,2,0,B|148:48,10,35,8|0|0|0|0|0|0|0|0|0|0
256,108,176767,6,0,B|330:98,1,70
325,98,177102,1,0
256,276,177270,2,0,B|181:285,1,70
187,286,177605,1,0
256,192,177772,1,8
256,192,178108,12,0,179281
108,64,181459,5,0
108,64,181627,1,0
108,64,181795,2,0,B|152:72|152:72|192:32|248:64,1,140,2|0
204,120,182800,1,0
204,120,183135,2,0,B|180:184,1,70,2|0
256,304,184141,2,0,B|256:156,1,140
392,192,185482,1,0
464,192,185817,5,2
464,192,185985,2,0,B|384:192|384:192|332:148,1,140
284,196,186990,2,0,B|197:136,1,105
132,116,187828,5,2
124,136,187996,1,0
116,156,188163,1,0
168,228,188499,5,2
168,268,188666,1,0
168,312,188834,1,0
256,332,189169,5,2
256,248,189337,1,0
220,172,189504,2,2,B|188:140|216:88|256:76|300:92|320:140|292:176,1,210
256,192,190175,12,0,191348
256,68,192185,5,0
302,192,192353,1,0
256,315,192521,1,0
80,100,193527,6,0,B|116:28|204:52,1,140,4|8
192,120,194029,2,0,B|268:144|328:96,1,140
328,28,194532,2,0,B|392:36|412:96|380:144,1,140,8|0
380,268,195202,1,8
256,336,195538,2,0,B|256:176,2,140,0|8|0
256,336,196543,2,0,B|216:356|168:328,1,70
84,156,197214,5,8
136,112,197381,2,0,B|160:72|224:72,1,70
204,144,197716,2,0,B|248:124|296:156,1,70,0|8
240,208,198052,2,0,B|368:240|416:136,1,210
360,92,198722,1,0
360,92,198890,1,0
224,64,199392,5,0
224,64,199560,2,0,B|180:88|124:80,1,70
56,192,200063,5,0
56,192,200230,2,0,B|116:196|136:232,1,70
240,288,200733,5,0
240,288,200901,1,0
256,80,201404,5,0
256,148,201571,2,0,B|256:224,1,70,0|0
324,212,201906,2,0,B|324:282,1,70,8|0
292,344,202242,2,0,B|344:372|388:332|392:296|392:296|480:264,1,210
456,128,203080,2,0,B|416:88|376:88,1,70,0|8
264,44,203582,5,0
196,64,203750,1,0
128,68,203918,2,0,B|48:104|24:192,1,140
72,300,204588,6,0,B|92:328|148:328|176:300|188:264,1,140,8|0
256,148,205258,2,0,B|256:296,1,140,8|0
440,300,205929,2,0,B|420:328|364:328|336:300|324:264,1,140,8|0
376,140,206599,1,8
256,68,206934,1,0
136,140,207270,1,8
136,140,207437,1,0
188,344,207940,6,0,B|224:352|256:276|256:276|284:360|348:344,1,210,8|0
340,276,208610,1,0
408,284,208778,2,0,B|416:236|384:208|336:204|336:204|332:160,1,140
320,52,209448,1,0
320,52,209616,1,8
196,112,209951,6,0,B|116:144,1,70,8|0
131,137,210286,1,0
256,200,210621,2,0,B|256:272,1,70,8|0
256,270,210957,1,0
316,112,211292,2,0,B|396:144,1,70,8|0
380,137,211627,1,0
468,248,211962,5,0
452,316,212130,1,0
382,329,212297,2,0,B|256:270,1,140
216,328,212800,2,0,B|110:324|110:324|76:308,1,140
79,309,213471,1,0
200,144,213973,5,8
264,176,214141,1,0
208,216,214309,1,0
144,188,214476,5,0
256,104,214644,1,8
268,248,214811,1,0
312,300,214979,6,0,B|348:216|432:252,1,140,0|8
388,312,215482,2,0,B|348:272|344:216|376:188|408:180|408:180|396:120,1,210,0|8
280,60,216320,2,0,B|216:36|136:60,1,140,0|8
96,192,216990,1,0
76,260,217158,1,0
256,192,217493,12,0,218834
144,172,219504,5,0
212,196,219672,1,0
276,172,219839,1,0
344,192,220007,2,0,B|420:192|448:88,1,140,8|0
304,84,220677,2,0,B|268:52|208:52,1,70,8|0
241,54,221180,1,0
184,256,221683,6,0,B|224:300|272:304|332:248,1,140
376,252,222186,2,0,B|368:216|340:192|304:196|304:196|292:152,1,140
293,157,222689,1,8
156,188,223024,6,0,B|136:148|80:140,1,70,8|0
257,192,223359,1,0
356,188,223527,2,0,B|376:148|432:140,1,70
256,276,224029,2,0,B|256:352,1,70,8|0
256,192,224365,12,0,225705
112,256,226040,6,0,B|180:312|252:248,1,140,8|0
292,304,226543,1,0
292,304,226711,2,0,B|356:304|384:272,1,70,8|0
324,228,227046,2,0,B|368:212|376:172,1,70
312,144,227381,2,0,B|348:112|336:72,1,70,8|0
268,88,227716,2,0,B|276:52|236:20,2,70,0|0|8
151,136,228219,2,0,B|156:108|196:84,1,70
94,263,228722,6,0,B|147:262|147:262|167:216|219:219,1,140
215,289,229225,1,8
284,286,229392,1,8
324,228,229560,2,0,B|364:248|408:196,1,70
344,160,229895,2,0,B|296:144|264:188,1,70,0|8
145,203,230230,2,0,B|176:220|212:192,2,70
168,136,230733,2,0,B|216:72,1,70,8|0
210,80,231068,1,0
364,64,231404,5,8
400,124,231571,1,0
428,188,231739,2,0,B|424:264|424:264|356:312,1,140,0|8
332,360,232242,1,0
260,364,232409,2,0,B|184:360|184:360|136:292,1,140,0|8
88,268,232912,1,0
84,196,233080,2,0,B|88:120|88:120|156:72,1,140,0|8
180,24,233582,1,0
252,20,233750,2,0,B|328:24|328:24|364:76,1,140,0|8
256,164,234420,6,0,B|256:248,1,70
324,212,234756,2,0,B|328:252|328:252|356:296,1,70,8|0
188,212,235091,2,0,B|184:252|184:252|156:296,1,70,8|0
424,144,235594,1,0
88,144,235929,1,0
256,192,236264,12,0,239113
