osu file format v9

[General]
AudioFilename: LiSA - crossing field.mp3
AudioLeadIn: 2000
PreviewTime: 193514
Countdown: 0
SampleSet: Normal
StackLeniency: 0.7
Mode: 0
LetterboxInBreaks: 0

[Editor]
DistanceSpacing: 0.8
BeatDivisor: 4
GridSize: 4

[Metadata]
Title:crossing field
Artist:LiSA
Creator:Akashi_S
Version:Floor 10
Source:Sword Art Online
Tags:SAO opening jayel

[Difficulty]
HPDrainRate:3
CircleSize:3
OverallDifficulty:4
ApproachRate:4
SliderMultiplier:1
SliderTickRate:1

[Events]
//Background and Video events
0,0,"BG_Normal.jpg"
//Break Periods
2,107246,111089
2,152833,167402
2,179481,180139
//Storyboard Layer 0 (Background)
//Storyboard Layer 1 (Fail)
//Storyboard Layer 2 (Pass)
//Storyboard Layer 3 (Foreground)
//Storyboard Sound Samples
//Background Colour Transformations
3,100,163,162,255

[TimingPoints]
-216,335.195530726257,4,1,0,5,1,0
1627,-100,4,2,1,30,0,0
4141,-100,4,2,1,60,0,0
10258,-100,4,2,1,5,0,0
10594,-100,4,2,1,60,0,0
16543,-100,4,1,0,50,0,0
30621,-200,4,2,1,55,0,0
39001,-100,4,2,1,55,0,0
44197,-100,4,2,1,5,0,0
46040,-100,4,1,0,55,0,0
46711,-100,4,1,0,75,0,1
65985,-100,4,2,1,5,0,1
66152,-100,4,1,0,75,0,1
77549,-100,4,1,0,40,0,0
101515,-100,4,1,0,5,0,0
104448,-100,4,1,0,55,0,0
120454,-100,4,1,0,75,0,1
151292,-100,4,1,0,75,0,0
168722,-100,4,1,0,50,0,0
181376,-133.333333333333,4,2,1,40,0,0
187996,-133.333333333333,4,2,1,55,0,0
188666,-133.333333333333,4,2,1,60,0,0
189337,-133.333333333333,4,2,1,65,0,0
193527,-100,4,1,0,75,0,1
224365,-100,4,1,0,65,0,0
236264,-100,4,2,1,5,0,0

[Colours]
Combo1 : 189,51,141
Combo2 : 224,224,224
Combo3 : 236,173,55

[HitObjects]
64,112,454,2,0,B|64:62,2,50
96,184,1124,2,0,B|112:256|196:280|260:224,2,200
196,104,3135,1,0
312,136,3638,2,0,B|340:128|376:140,1,50
464,260,4476,2,0,B|448:332|364:356|300:300,2,200
320,192,6487,5,0
240,208,6823,1,0
160,192,7158,1,0
156,32,7828,2,0,B|224:120|344:68,1,200,0|8
388,132,8834,1,0
444,192,9169,2,0,B|332:144|248:232,1,200,0|8
140,244,10342,6,0,B|84:244,1,50
28,196,10845,1,8
256,124,11851,6,0,B|256:56,1,50
176,64,12353,1,0
104,100,12689,1,0
64,168,13024,1,0
256,220,13862,5,0
256,220,14197,1,8
296,288,14532,2,0,B|376:328|448:264|424:184,1,200
348,216,15538,2,0,B|332:184|368:144|368:144|344:124,1,100
200,88,16543,6,0,B|144:120|156:188,1,100,0|8
176,248,17214,2,0,B|200:304|272:284,2,100,4|8|0
244,208,18219,2,0,B|288:208|288:208|316:232|344:189,2,100,8|0|8
200,140,19225,2,0,B|216:80|266:62,2,100,0|8|0
352,192,20566,5,0
256,320,21236,1,0
160,192,21906,1,0
252,64,22577,6,0,B|316:64,1,50
376,96,23080,2,0,B|456:136|488:220|424:312,1,250
272,316,24588,6,0,B|220:340|160:308,1,100
100,344,25258,2,0,B|20:316|-8:200|64:132,1,250
132,100,26432,1,0
188,204,26934,1,0
256,248,27270,1,0
324,204,27605,1,0
256,164,27940,1,0
256,192,28108,12,0,30621
160,192,31292,5,0
276,304,31962,1,0
348,160,32633,1,0
208,88,33303,6,0,B|160:56|112:92,1,100,2|0
164,156,34644,2,0,B|208:192|260:156,1,100,2|0
256,158,35649,1,0
296,158,35985,6,0,B|376:158,1,75
328,248,37325,2,0,B|248:248,1,75
192,248,38331,1,0
144,184,38666,5,4
144,184,38834,1,0
196,124,39169,2,0,B|256:124|280:64|256:4|236:64|264:124|344:128,1,200
400,144,40175,2,0,B|436:148|452:188,1,50
476,244,40677,6,0,B|472:304|420:324,1,100
392,248,41348,2,0,B|344:208|300:280|236:220,1,150
184,280,42186,2,0,B|144:224|192:176,1,100
313,37,43359,2,0,B|337:87|309:146,2,100
256,192,44197,12,0,45370
176,72,46040,5,8
176,72,46376,1,0
256,80,46711,2,0,B|312:52|360:108,1,100,4|0
292,152,47381,2,0,B|272:204|320:244,1,100
368,180,48052,1,0
304,324,48722,1,0
156,268,49392,2,0,B|96:212|96:136|168:80,1,200,4|0
228,68,50398,6,0,B|237:126|288:148|352:120,1,150
400,68,51236,2,0,B|440:112|408:176,1,100
328,244,52074,5,0
168,244,52744,1,0
92,104,53415,1,0
252,104,54085,1,0
256,192,54588,12,0,55929
448,192,56767,6,0,B|480:144|448:88,1,100
384,140,57437,2,0,B|348:196|388:248,2,100,4|0|0
324,88,58443,2,0,B|272:116|212:84,1,100
104,192,59448,2,0,B|124:316|260:324,2,200
168,144,61124,6,0,B|318:144,1,150
316,224,61962,2,0,B|436:224,1,100
400,104,62800,5,0
256,36,63471,1,0
120,104,64141,2,0,B|80:104|40:136|40:208|84:240|132:240,1,200
188,336,65314,5,0
188,336,65482,2,0,B|231:361|260:312|260:312|288:360|336:336,2,175
308,172,67325,5,0
308,172,67493,2,0,B|264:80|144:72,1,200
68,300,69169,6,0,B|108:196,1,100
184,216,69839,2,0,B|220:112,1,100
312,196,70677,6,0,B|348:156,1,50
416,256,71348,2,0,B|424:304,1,50
308,328,72018,2,0,B|260:344,1,50
200,240,72689,5,0
200,240,72856,2,0,B|140:264|88:216,1,100
160,168,73527,2,0,B|136:88|216:36,1,150,4|0
256,108,74365,1,0
280,224,74867,6,0,B|360:264|436:196,1,150,4|0
372,144,75705,1,0
256,96,76208,5,0
256,96,76376,1,0
192,140,76711,1,0
192,140,76878,1,0
132,192,77214,2,0,B|88:224,1,50
256,192,77549,12,0,78890
256,288,79225,6,0,B|368:288,1,100
388,216,79895,1,0
416,140,80230,2,0,B|316:140,1,100
288,216,80901,2,0,B|184:216,2,100
316,140,81906,5,0
252,92,82242,2,0,B|208:120|148:88,1,100
120,112,82744,1,0
80,184,83080,1,0
124,252,83415,1,0
204,252,83750,1,0
396,144,85594,5,0
396,144,85761,1,0
396,224,86096,2,0,B|336:224|316:172|316:148,1,100
328,92,86767,2,0,B|256:64|168:96,1,150
116,44,87605,6,0,B|44:64|12:132|60:216,1,200
128,232,88610,2,0,B|160:276|216:264,2,100
192,184,89616,1,0
344,236,90286,5,0
412,196,90621,1,0
476,144,90957,2,0,B|432:100|384:112|352:132|340:152,1,150
256,192,91627,12,0,93638
56,120,94309,6,0,B|96:84|156:104,1,100
116,176,94979,2,0,B|108:232|164:264,1,100
196,188,95649,1,0
356,188,96320,5,0
356,188,96487,1,0
392,116,96823,2,0,B|448:148|456:196|428:260|372:268,1,200
176,276,98331,6,0,B|128:316|68:268,1,100
128,212,99001,1,0
128,212,99169,2,0,B|168:180|224:208,2,100
56,172,100175,1,0
152,100,100677,2,0,B|200:64|268:72,1,100
296,132,101348,1,0
256,192,101515,12,0,104365
256,80,105035,5,0
256,240,105705,1,0
396,164,106376,1,0
396,324,107046,1,0
100,148,112409,5,0
188,64,112912,1,0
188,64,113247,1,0
188,64,113582,2,0,B|248:24|296:36|332:96,1,150
252,120,114420,6,0,B|236:172|172:192,1,100
124,132,115091,2,0,B|80:184|104:248|160:264,1,150
228,260,115929,2,0,B|276:248|332:280,1,100
256,92,117102,6,0,B|256:176,2,75
256,192,117772,12,0,119113
104,104,119784,6,0,B|156:120|156:120|204:96|204:96,1,100
244,36,120454,6,0,B|280:60|284:112|268:144,1,100
274,125,121124,1,0
352,100,121459,2,0,B|420:76|464:100,1,100
324,192,122465,6,0,B|272:196|252:252,1,100
228,284,122968,2,0,B|168:352|84:312,1,150
136,160,124141,5,0
136,160,124309,2,0,B|168:112|228:108,1,100
256,180,124979,2,0,B|256:280,2,100
384,80,126320,6,0,B|436:64,1,50
408,184,126990,2,0,B|456:209,1,50
360,284,127661,2,0,B|376:336,1,50
256,312,128331,2,0,B|256:240,1,50
256,180,128834,1,0
256,180,129001,2,0,B|256:76,2,100
220,252,130007,2,0,B|196:284|164:288,1,50
108,316,130510,6,0,B|68:268|76:220,1,100
16,172,131180,2,0,B|48:128|108:152,1,100
176,188,131851,2,0,B|228:212|272:180,1,100
220,116,132521,1,0
368,60,133191,6,0,B|424:88|460:156|440:244,1,200
204,268,134867,6,0,B|264:280|320:272|344:216,1,150
268,188,135705,2,0,B|204:200|172:140,1,100
248,104,136376,2,0,B|272:60|296:56,1,50
408,108,137046,5,0
408,108,137214,1,0
364,220,137716,1,0
364,220,137884,1,0
260,284,138387,1,0
260,284,138554,1,0
156,220,139057,5,0
156,220,139225,2,0,B|116:184|108:120|164:84,1,150
208,152,140063,2,0,B|324:152,1,100
256,192,140566,12,0,141906
256,192,142912,6,0,B|136:192,1,100
180,116,143582,2,0,B|292:116,1,100
312,140,144085,1,0
372,192,144420,6,0,B|348:284|256:348|256:348|152:284|136:180,1,400
256,84,146432,5,0
256,84,146599,2,0,B|256:188,1,100
192,232,147270,2,0,B|208:260|256:272|256:272|308:256|328:220,1,150
256,184,148108,1,0
352,116,148610,6,0,B|476:36,2,125
256,44,149951,6,0,B|236:44|208:64,1,50
156,120,150454,2,0,B|136:144|128:172,1,50
140,244,150957,2,0,B|148:280|168:296,1,50
256,192,151292,12,4,152633
100,128,168722,6,0,B|124:68|196:76,1,100
256,72,169392,1,0
336,76,169728,2,0,B|388:72|413:128,1,100
440,204,170398,1,0
416,280,170733,1,0
416,280,171068,1,0
344,312,171404,6,0,B|256:352|144:312,1,200
148,232,172409,2,0,B|192:180|148:120,1,100
88,176,173080,2,0,B|64:124|104:80,1,100
180,64,173750,1,0
256,92,174085,6,0,B|379:61|379:61|428:52|464:96,1,200
396,140,175091,1,0
432,212,175426,2,0,B|380:272|380:272|356:312|312:328|272:312,1,200
300,236,176432,1,0
256,192,176767,12,0,179281
48,176,181459,6,0,B|56:224|116:220,1,75.0000028610231,0|2
156,192,182130,2,2,B|185:121|268:88|356:128,1,225.000008583069
345,123,183471,1,0
324,180,183806,1,0
300,236,184141,2,0,B|336:276|380:288|444:264,1,150.000005722046
436,88,185817,5,0
436,88,185985,2,0,B|432:140|388:156,1,75.0000028610231
340,156,186655,2,0,B|256:136|184:164,1,150.000005722046
224,280,187996,5,0
224,280,188163,1,0
308,248,188666,1,0
308,248,188834,1,0
376,188,189337,1,0
376,188,189504,1,0
336,108,190007,6,0,B|288:88|228:112|228:172,1,150.000005722046
176,204,191013,2,0,B|100:224,1,75.0000028610231
288,264,192186,6,0,B|332:284|364:240,1,75.0000028610231,0|2
272,24,193527,6,0,B|312:60|296:120,1,100
220,92,194197,1,0
168,160,194532,2,0,B|112:200|56:160,1,100
232,200,195538,6,0,B|280:208|308:260,1,100
344,280,196040,2,0,B|412:336|480:272,1,150
376,152,197214,5,0
376,152,197381,2,0,B|344:104|284:100,1,100
256,172,198052,2,0,B|256:272,2,100
128,72,199392,6,0,B|76:56,1,50
104,176,200063,2,0,B|55:201,1,50
152,276,200733,2,0,B|136:328,1,50
256,304,201404,2,0,B|256:232,1,50
256,172,201906,1,0
256,172,202074,2,0,B|256:68,2,100
320,220,203080,2,0,B|332:252|372:260,1,50
432,268,203582,5,0
432,268,203918,1,0
492,212,204253,2,0,B|456:168|400:192,1,100
348,248,204923,2,0,B|292:276|252:240,1,100
304,176,205594,1,0
188,68,206264,6,0,B|132:64|56:152|76:216,1,200
308,256,207940,5,0
268,256,208108,2,0,B|204:268|172:208,1,100
244,176,208778,2,0,B|308:188|340:128,1,100
264,96,209448,2,0,B|240:72|212:72,1,50
104,100,210119,5,0
104,100,210286,1,0
148,212,210789,1,0
148,212,210957,1,0
252,276,211459,1,0
252,276,211627,1,0
356,212,212130,5,0
356,212,212297,2,0,B|392:180|392:116|336:84,1,150
300,156,213135,2,0,B|184:156,2,100
252,268,214309,2,0,B|208:248|208:248|148:252|116:200|116:200|56:184,1,200
252,36,215985,5,0
312,88,216320,2,0,B|264:136|200:100,1,100
152,152,216990,2,0,B|132:204,1,50
256,192,217493,12,0,219001
120,132,219672,6,0,B|168:152|224:132,1,100
248,60,220342,2,0,B|304:80|316:152|268:200,1,150
256,260,221180,1,0
164,336,221683,6,0,B|84:304|92:208,2,150
236,304,223024,1,0
236,304,223191,1,0
304,260,223527,1,0
304,260,223694,1,0
256,196,224029,1,0
256,196,224197,1,0
256,192,224532,12,0,225705
128,180,226040,5,0
172,112,226376,2,0,B|196:92|236:96,1,50
232,176,226878,2,0,B|284:192|324:148,1,100
316,228,227549,2,0,B|348:292|304:340,1,100
248,280,228219,1,0
140,328,228722,6,0,B|76:324|64:256,1,100
144,244,229392,2,0,B|192:208|180:148,2,100
100,176,230398,2,0,B|88:88|184:40|248:108,1,200
288,148,231404,6,0,B|312:88|376:84,1,100
440,100,232074,2,0,B|436:152|364:168,1,100
316,220,232744,2,0,B|228:280,2,100
256,168,233750,1,0
256,168,234085,5,0
220,96,234420,2,0,B|256:64|256:64|300:100,1,100
336,164,235091,6,0,B|368:228,1,50
424,252,235594,2,0,B|388:304|315:280,1,100
256,192,236264,12,0,239113
