osu file format v9

[General]
AudioFilename: LiSA - crossing field.mp3
AudioLeadIn: 2000
PreviewTime: 193514
Countdown: 0
SampleSet: Soft
StackLeniency: 0.7
Mode: 0
LetterboxInBreaks: 0

[Editor]
Bookmarks: 107045
DistanceSpacing: 1
BeatDivisor: 4
GridSize: 4

[Metadata]
Title:crossing field
Artist:LiSA
Creator:Akashi_S
Version:Floor 1
Source:Sword Art Online
Tags:SAO opening jayel

[Difficulty]
HPDrainRate:2
CircleSize:3
OverallDifficulty:2
ApproachRate:3
SliderMultiplier:0.8
SliderTickRate:1

[Events]
//Background and Video events
0,0,"BG_Easy.jpg"
//Break Periods
2,107046,110969
2,152832,167282
2,179481,180355
//Storyboard Layer 0 (Background)
//Storyboard Layer 1 (Fail)
//Storyboard Layer 2 (Pass)
//Storyboard Layer 3 (Foreground)
//Storyboard Sound Samples
//Background Colour Transformations
3,100,163,162,255

[TimingPoints]
-216,335.195530726257,4,2,1,5,1,0
3806,-100,4,2,1,50,0,0
4728,-100,4,2,1,60,0,0
4895,-100,4,2,1,60,0,0
5230,-100,4,1,0,50,0,0
6404,-100,4,1,0,60,0,0
11767,-100,4,2,1,60,0,0
17214,-100,4,1,0,60,0,0
33303,-100,4,2,1,30,0,0
38582,-100,4,2,1,30,0,0
43359,-100,4,2,1,5,0,0
46711,-100,4,1,0,75,0,1
77549,-100,4,1,0,40,0,0
82827,-100,4,2,1,15,0,0
85594,-100,4,1,0,40,0,0
112409,-100,4,1,0,55,0,0
120454,-100,4,1,0,75,0,1
139225,-100,4,2,1,5,0,1
141823,-100,4,1,0,75,0,1
151292,-100,4,2,1,5,0,0
168722,-100,4,1,0,50,0,0
181795,-100,4,2,1,40,0,0
188834,-100,4,2,1,60,0,0
193527,-100,4,1,0,75,0,1
224365,-100,4,1,0,65,0,0
236264,-100,4,2,1,5,0,0

[Colours]
Combo1 : 189,51,141
Combo2 : 224,224,224
Combo3 : 236,173,55

[HitObjects]
240,104,454,1,0
316,128,789,1,2
364,64,1124,2,0,B|415:79|448:132|415:195,2,160
252,180,3135,1,0
116,268,3806,2,0,B|82:203|118:155|168:141,2,160
276,280,5817,1,0
396,176,6487,6,0,B|424:128|392:56|324:52,1,160,4|0
176,52,7828,2,0,B|118:54|86:126|114:174,1,160,4|0
256,248,9169,1,0
408,192,9839,1,0
316,116,10342,2,0,B|252:80|196:116,1,120,4|8
100,332,11851,6,0,B|196:384|264:324,1,160
240,256,12856,2,0,B|280:240|328:260,1,80
428,176,13862,6,0,B|413:125|360:124,1,80
352,204,14532,1,0
284,160,14867,2,0,B|248:220|168:188,2,120
376,80,16543,5,0
432,232,17214,2,0,B|272:308|112:232,2,320
272,192,20566,5,8
112,188,21236,1,0
192,52,21906,1,8
344,108,22577,6,0,B|480:108,2,120,0|0|8
288,168,23918,1,0
164,272,24588,6,0,B|164:184,1,80,0|8
220,124,25258,2,0,B|220:28,2,80,0|8|0
288,168,26264,1,8
292,88,26599,6,0,B|364:84|392:160|360:208,1,160
304,248,27605,1,8
240,296,27940,2,0,B|283:349|365:328|380:272,1,160,4|0
324,132,29281,2,0,B|284:78|205:89|184:149,2,160
472,192,31292,5,8
348,296,31962,1,0
184,284,32633,1,8
60,184,33303,6,0,B|88:96|184:72|256:128,1,240,4|0
248,208,34644,2,0,B|300:212|332:180|336:124,2,120
256,288,35985,2,0,B|276:356|352:348,1,120,4|8
456,180,37325,2,0,B|436:108|348:120,1,120,0|8
436,304,38666,6,0,B|392:344|300:340|248:280,1,200
256,208,39839,1,8
76,296,40677,6,0,B|132:328|188:304|204:256|200:208,2,180
120,228,42521,1,0
160,156,42856,2,0,B|184:108,1,40
256,192,43359,12,4,45370
108,192,46711,6,0,B|116:120|188:96|228:120,1,160
192,192,47716,1,0
244,252,48052,2,0,B|332:280|420:252,1,160
404,96,49392,2,0,B|316:68|232:100,1,160
184,148,50398,6,0,B|148:188|100:176,2,80,8|0|8
120,100,51404,2,0,B|152:64|200:72,1,80
264,108,52074,6,0,B|308:92|352:128,1,80,0|8
292,184,52744,1,0
176,300,53415,2,0,B|136:264|140:216,1,80,0|8
220,232,54085,2,0,B|216:176|168:156,1,80,0|8
104,152,54756,5,0
104,152,55091,2,0,B|112:92|180:80,2,100
300,100,56767,5,0
376,132,57102,1,8
412,204,57437,2,0,B|400:264|360:276,1,80,4|8
328,204,58108,2,0,B|284:240|292:288,2,80,0|8|0
256,60,59448,5,0
112,128,60119,2,0,B|48:172|68:256|120:272,1,160
152,200,61124,5,8
228,176,61459,2,0,B|276:188|280:244,2,80,0|8|0
264,104,62465,2,0,B|312:112|344:76,2,80,8|0|8
188,80,63471,5,0
72,192,64141,1,0
224,244,64811,1,0
372,304,65482,6,0,B|416:312|464:284|464:228,1,120
384,220,66320,1,0
384,220,66655,1,0
256,60,67493,6,0,B|282:160|256:232,1,160,0|4
52,96,69169,6,0,B|132:120,1,80,8|0
88,188,69839,2,0,B|172:216,1,80,8|0
284,192,70677,5,0
240,40,71348,1,0
396,76,72018,1,0
468,264,72856,6,0,B|480:332|416:372|360:352,1,160
388,276,73862,1,0
172,140,74867,6,0,B|180:72|252:68,2,120
252,148,76208,6,0,B|251:213|168:224,2,120
84,320,78219,6,0,B|172:336|256:324,1,160
304,272,79225,5,8
380,240,79560,2,0,B|364:204|336:184|308:192,1,80,0|8
244,212,80230,2,0,B|224:160|264:128,2,80,0|8|0
224,288,81236,2,0,B|188:292|160:276|152:240,1,80,8|0
80,220,81906,6,0,B|116:168|160:180,1,80,8|0
220,204,82577,2,0,B|268:208|304:164,1,80,8|0
232,124,83247,2,8,B|260:84|312:92,2,80
172,72,84253,5,0
420,268,85594,5,0
340,268,85929,2,0,B|340:212|380:188|420:188|420:188|376:112,1,200,8|0
184,132,87605,5,0
148,204,87940,1,8
68,212,88275,2,0,B|64:256|116:292|156:288,1,120
216,252,89113,2,0,B|260:224|304:244,1,80
480,308,90286,5,0
492,228,90621,1,8
480,148,90957,2,0,B|480:80|396:64,2,120,4|0|8
400,148,92297,2,0,B|320:176|232:140,2,160
324,288,94309,5,8
164,288,94979,1,0
236,144,95649,1,8
396,140,96320,5,0
396,220,96655,2,0,B|416:260|396:300,2,80
324,260,97661,1,0
256,116,98331,5,0
256,116,98666,1,8
256,196,99001,2,0,B|120:196,1,120
136,276,99839,2,0,B|32:276,2,100
216,276,101013,1,0
292,300,101348,1,8
368,272,101683,1,0
256,192,102186,12,0,104365
468,108,105035,6,0,B|424:28|316:52,1,160
256,192,106376,1,0
124,132,112409,5,0
356,192,113247,2,0,B|444:192,1,80
256,280,114420,1,0
124,192,115091,2,0,B|52:204|20:140,1,120
96,112,115929,2,0,B|140:88|152:40,1,80
256,224,117102,1,0
256,192,117605,12,4,119113
256,56,119784,5,0
256,56,120119,1,0
176,72,120454,6,0,B|132:112|144:160|164:184,2,120,4|0|0
228,132,121795,1,0
372,68,122465,2,0,B|420:112|392:184,2,120,0|0|8
232,148,124141,5,8
184,212,124476,2,0,B|68:256,1,120
108,328,125314,2,0,B|232:280,1,120
352,192,126487,5,8
312,36,127158,1,0
192,144,127828,1,8
80,256,128499,5,0
112,328,128834,2,0,B|172:304|156:224,1,120,8|0
236,220,129672,1,0
432,192,130510,6,0,B|452:144|420:104,1,80,0|8
360,156,131180,2,0,B|272:192|200:136,1,160,4|0
204,60,132186,2,0,B|156:68|140:100,1,80,8|0
200,248,133191,5,0
360,260,133862,2,0,B|412:236|416:152|364:116,1,160,4|0
320,188,134867,5,8
260,136,135202,2,0,B|208:100|144:140,1,120
88,84,136040,2,0,B|48:124|64:180|100:200,1,120
229,275,137214,1,0
368,196,137884,1,0
236,108,138554,1,0
256,192,139225,12,0,141739
180,80,142912,5,8
256,56,143247,1,0
332,80,143582,1,8
400,40,143918,2,0,B|432:108|372:148,1,120
256,252,145091,5,0
256,252,145761,1,0
64,184,146599,5,0
196,92,147270,2,0,B|264:192,1,120
308,256,148108,1,0
316,136,148610,2,0,B|268:92|200:112|168:160|192:220,1,200
256,312,149951,5,0
332,220,150454,1,0
404,124,150957,1,0
256,192,151459,12,0,152632
116,104,168722,6,0,B|188:72|284:72,1,160,0|0
344,108,169728,1,8
408,60,170063,2,0,B|432:84|436:128|408:164|408:164|408:224,1,160,0|0
336,248,171068,1,8
268,292,171404,6,0,B|192:312|104:292,1,160
68,224,172409,1,8
100,152,172744,2,0,B|180:136|264:84,1,160
300,32,173750,1,8
380,44,174085,6,0,B|396:124|376:212,1,160
308,244,175091,1,8
376,284,175426,2,0,B|344:340|264:340|232:276,1,160
256,192,176767,12,4,179281
256,140,181795,5,2
180,116,182130,2,0,B|188:72|236:48|280:64,2,120,0|0|2
200,192,183471,2,0,B|176:240|208:276,1,80,0|2
208,348,184141,2,0,B|264:348|276:300,1,80,0|2
272,228,184811,2,0,B|352:248|432:228,1,160
504,196,185817,6,0,B|472:132|400:148,1,120,2|0
344,96,186655,1,0
264,80,186990,1,0
132,124,187493,6,0,B|96:164|112:208,1,80,0|2
188,184,188163,2,0,B|188:228|228:252,1,80,0|2
268,180,188834,2,0,B|296:212|340:212,1,80,0|2
332,132,189504,2,0,B|300:96|248:100,2,80,0|2|0
256,192,190342,12,0,192186
384,136,193527,6,0,B|408:216|336:280,1,160
256,280,194532,1,0
176,280,194867,2,0,B|104:216|128:136,1,160
256,44,196208,1,0
256,204,196878,1,0
256,44,197549,6,0,B|344:40|412:80,2,160
316,192,199560,5,0
444,288,200230,1,0
284,284,200901,1,0
160,184,201571,1,0
164,104,201906,2,0,B|256:60|360:108,1,200
420,156,203080,2,0,B|412:196,1,40
332,188,203582,5,0
256,164,203918,1,8
188,204,204253,2,0,B|148:164|188:124,2,80,4|0|0
128,256,205258,1,8
200,288,205594,2,0,B|240:312|288:300,1,80,0|8
256,224,206264,6,0,B|272:148|256:60,1,160,4|0
68,216,207940,6,0,B|92:268|140:276|180:260,1,120
144,188,208778,1,0
224,188,209113,2,0,B|284:156|352:192,1,120
376,316,210119,6,0,B|328:316,1,40
268,216,210789,2,0,B|224:208,1,40
300,112,211459,2,0,B|280:76,1,40
400,108,212130,5,0
400,108,212297,2,0,B|448:272|268:320,1,280
176,248,213973,2,0,B|132:276|88:244,2,80
136,180,214979,2,0,B|96:132|108:56,1,120
212,124,215985,5,0
300,124,216320,1,0
256,192,216655,2,0,B|256:284,2,80
256,192,217661,12,0,219002
176,32,219672,6,0,B|340:32,1,160,0|4
336,352,221683,2,0,B|169:352,1,160,0|4
172,192,223024,1,0
256,108,223527,1,0
340,192,224029,1,0
256,192,224365,12,0,225705
104,144,226376,5,0
256,232,227046,1,0
408,144,227716,1,0
256,52,228387,2,0,B|256:144,1,80,0|8
176,172,229057,2,0,B|156:204|152:248|256:312|256:312|356:252|348:204|332:164,1,360
256,124,230901,1,0
140,188,231404,5,8
188,260,231739,1,0
264,288,232074,2,0,B|304:316|352:292,2,80
312,224,233080,2,0,B|352:156,1,80
432,168,233750,1,0
428,84,234085,6,8,B|404:28|336:12|288:56,1,160
240,120,235091,2,0,B|180:152|92:104|108:24,1,200
256,192,236264,12,0,239113
