osu file format v14

[General]
AudioFilename: LiSA - Rising Hope.mp3
AudioLeadIn: 0
PreviewTime: 58695
Countdown: 0
SampleSet: Normal
StackLeniency: 0.7
Mode: 1
LetterboxInBreaks: 0
WidescreenStoryboard: 0

[Editor]
Bookmarks: 69352
DistanceSpacing: 1
BeatDivisor: 2
GridSize: 32
TimelineZoom: 1.6

[Metadata]
Title:Rising Hope -TV ver.-
TitleUnicode:Rising Hope -TV ver.-
Artist:LiSA
ArtistUnicode:LiSA
Creator:Senritsu
Version:Kantan
Source:魔法科高校の劣等生
Tags:mingmichael mahouka koukou no rettousei opening The Irregular at Magic High School
BeatmapID:458191
BeatmapSetID:185476

[Difficulty]
HPDrainRate:4
CircleSize:5
OverallDifficulty:3
ApproachRate:5
SliderMultiplier:1.4
SliderTickRate:1

[Events]
//Background and Video events
0,0,"bg copy.JPG",0,90
//Break Periods
//Storyboard Layer 0 (Background)
//Storyboard Layer 1 (Fail)
//Storyboard Layer 2 (Pass)
//Storyboard Layer 3 (Foreground)
//Storyboard Sound Samples

[TimingPoints]
1142.42491662788,315.789473684211,4,1,0,80,1,0
8721,-100,4,1,0,90,0,0
13695,-100,4,1,0,80,0,0
18826,-100,4,1,0,85,0,0
23721,-100,4,1,0,90,0,0
44010,-100,4,1,0,80,0,0
48431,-100,4,1,0,85,0,0
49142,-100,4,1,0,90,0,0
51826,-100,4,1,0,80,0,0
52852,-100,4,1,0,85,0,0
56642,-100,4,1,0,90,0,0
59247,-100,4,1,0,100,0,1
85616,-100,4,1,0,100,0,0
85774,-100,4,1,0,90,0,0

[HitObjects]
145,219,1142,5,8,0:0:0:0:
120,212,2247,1,8,0:0:0:0:
111,207,3668,1,4,0:0:0:0:
71,195,6195,1,8,0:0:0:0:
71,195,7458,1,0,0:0:0:0:
71,195,8089,1,8,0:0:0:0:
71,195,8721,1,4,0:0:0:0:
88,188,9984,1,0,0:0:0:0:
88,188,10616,1,0,0:0:0:0:
88,188,11247,1,8,0:0:0:0:
88,188,12510,1,8,0:0:0:0:
82,188,13142,1,8,0:0:0:0:
82,188,13774,1,4,0:0:0:0:
72,188,15037,1,0,0:0:0:0:
72,188,16300,1,0,0:0:0:0:
72,188,17563,1,0,0:0:0:0:
72,188,18195,1,0,0:0:0:0:
72,188,18826,1,4,0:0:0:0:
72,188,20089,1,0,0:0:0:0:
72,188,20721,1,8,0:0:0:0:
72,188,21352,1,0,0:0:0:0:
86,194,22458,1,0,0:0:0:0:
61,193,23721,1,4,0:0:0:0:
64,192,25142,1,0,0:0:0:0:
64,192,25774,1,8,0:0:0:0:
96,192,26089,1,8,0:0:0:0:
64,192,26405,1,0,0:0:0:0:
64,192,27668,1,0,0:0:0:0:
64,192,28300,1,8,0:0:0:0:
64,192,28931,1,4,0:0:0:0:
64,192,30195,1,8,0:0:0:0:
64,192,30826,1,0,0:0:0:0:
96,192,31142,1,8,0:0:0:0:
96,192,31458,1,8,0:0:0:0:
96,192,32089,1,12,0:0:0:0:
96,192,32721,1,12,0:0:0:0:
96,192,35247,1,0,0:0:0:0:
96,192,35879,1,8,0:0:0:0:
96,192,36510,1,0,0:0:0:0:
96,192,37774,1,8,0:0:0:0:
96,192,38405,1,0,0:0:0:0:
96,192,39037,1,8,0:0:0:0:
96,192,40300,1,0,0:0:0:0:
96,192,40931,1,8,0:0:0:0:
96,192,41563,1,0,0:0:0:0:
96,192,42826,1,8,0:0:0:0:
96,192,43458,1,8,0:0:0:0:
96,192,44089,1,4,0:0:0:0:
96,192,45352,1,0,0:0:0:0:
96,192,46616,1,0,0:0:0:0:
96,192,47879,1,8,0:0:0:0:
96,192,48510,1,0,0:0:0:0:
96,192,49142,1,12,0:0:0:0:
32,160,50405,1,0,0:0:0:0:
32,160,51037,1,8,0:0:0:0:
32,160,51668,1,0,0:0:0:0:
32,160,52931,1,8,0:0:0:0:
192,192,53247,1,8,0:0:0:0:
32,160,53563,1,8,0:0:0:0:
32,160,54195,1,0,0:0:0:0:
32,160,56721,1,12,0:0:0:0:
32,160,57195,1,12,0:0:0:0:
32,160,57826,1,12,0:0:0:0:
160,192,59247,5,4,0:0:0:0:
160,192,59879,1,0,0:0:0:0:
160,192,60510,1,8,0:0:0:0:
160,192,61458,1,0,0:0:0:0:
160,192,61774,1,0,0:0:0:0:
160,192,62405,1,0,0:0:0:0:
192,192,63037,1,8,0:0:0:0:
160,192,63984,1,8,0:0:0:0:
192,192,64300,1,8,0:0:0:0:
192,192,64931,1,0,0:0:0:0:
192,192,65247,1,0,0:0:0:0:
192,192,65563,1,0,0:0:0:0:
192,192,66668,1,8,0:0:0:0:
192,192,67931,1,8,0:0:0:0:
192,192,69352,1,4,0:0:0:0:
192,192,69984,1,0,0:0:0:0:
192,192,70616,1,0,0:0:0:0:
192,192,71563,1,0,0:0:0:0:
192,192,71879,1,0,0:0:0:0:
192,192,72510,1,0,0:0:0:0:
192,192,73142,1,8,0:0:0:0:
192,192,74089,1,8,0:0:0:0:
192,192,74405,1,8,0:0:0:0:
192,192,75037,1,0,0:0:0:0:
192,192,75352,1,0,0:0:0:0:
192,192,75668,1,0,0:0:0:0:
192,192,76774,1,4,0:0:0:0:
192,192,78195,1,8,0:0:0:0:
192,192,78826,1,8,0:0:0:0:
192,192,79458,1,4,0:0:0:0:
192,192,80721,1,8,0:0:0:0:
192,192,81352,1,8,0:0:0:0:
192,192,81668,1,8,0:0:0:0:
192,192,81984,1,8,0:0:0:0:
192,192,82616,1,8,0:0:0:0:
192,192,83089,1,12,0:0:0:0:
192,192,84510,1,8,0:0:0:0:
192,192,85616,1,8,0:0:0:0:
160,192,87037,1,4,0:0:0:0:
160,192,88300,1,0,0:0:0:0:
160,192,88931,1,4,0:0:0:0:
160,192,89405,1,4,0:0:0:0:
