osu file format v13

[General]
AudioFilename: LiSA - Rising Hope.mp3
AudioLeadIn: 1000
PreviewTime: 68720
Countdown: 0
SampleSet: Soft
StackLeniency: 0.4
Mode: 0
LetterboxInBreaks: 0
WidescreenStoryboard: 1

[Editor]
DistanceSpacing: 1
BeatDivisor: 2
GridSize: 4
TimelineZoom: 2.5

[Metadata]
Title:Rising Hope -TV ver.-
TitleUnicode:Rising Hope -TV ver.-
Artist:LiSA
ArtistUnicode:LiSA
Creator:Quilt
Version:Normal
Source:魔法科高校の劣等生
Tags:the irregular at magic high school oribe risa tabuchi tomoya tsutomu satou 0OoMickeyoO0 Nardoxyribonucleic mahouka koukou no rettousei opening
BeatmapID:426582
BeatmapSetID:176779

[Difficulty]
HPDrainRate:3
CircleSize:3
OverallDifficulty:4
ApproachRate:5
SliderMultiplier:1
SliderTickRate:1

[Events]
//Background and Video events
0,0,"BG.jpg",0,0
Video,870,"op.avi"
//Break Periods
//Storyboard Layer 0 (Background)
//Storyboard Layer 1 (Fail)
//Storyboard Layer 2 (Pass)
//Storyboard Layer 3 (Foreground)
//Storyboard Sound Samples

[TimingPoints]
-122,315.789473684211,4,2,2,60,1,0
3983,-100,4,2,1,40,0,0
8719,-100,4,2,1,60,0,0
13772,-100,4,2,1,50,0,0
18825,-100,4,2,1,60,0,0
44088,-100,4,2,1,40,0,0
49141,-100,4,2,1,50,0,0
54193,-100,4,2,1,40,0,0
56719,-100,4,2,1,60,0,0
59246,-100,4,2,1,80,0,1
79456,-100,4,2,1,60,0,0

[Colours]
Combo1 : 255,128,64
Combo2 : 255,128,255
Combo3 : 18,124,255
Combo4 : 0,255,255

[HitObjects]
160,224,1141,6,0,P|204:236|260:224,1,100,4|0,1:0|0:0,0:0:0:0:
300,204,1614,2,0,L|336:304,2,100,0|0|4,0:0|0:0|0:0,0:0:0:0:
264,108,2562,1,0,0:0:0:0:
164,108,2877,2,0,P|96:120|52:184,1,150,0|0,0:0|0:0,0:0:0:0:
36,284,3667,5,4,0:0:0:0:
124,328,3983,2,0,B|176:360|232:304|272:328,1,150,2|0,0:0|0:0,0:0:0:0:
316,344,4614,1,2,0:0:0:0:
312,244,4930,2,0,P|308:192|328:148,1,100,0|2,0:0|0:0,0:0:0:0:
408,212,5562,2,0,P|412:264|392:308,1,100,0|2,0:0|0:0,0:0:0:0:
308,360,6193,6,0,B|256:376|168:320|111:355,2,200,2|2|0,0:0|0:0|0:0,0:0:0:0:
404,340,7772,1,2,0:0:0:0:
332,272,8088,2,0,P|324:220|336:164,1,100,0|8,0:0|0:0,0:0:0:0:
348,76,8719,6,0,P|252:48|156:76,1,200,4|0,0:0|0:0,0:0:0:0:
76,128,9667,1,8,0:0:0:0:
152,196,9983,2,0,P|172:248|168:292,1,100,0|8,0:0|0:0,0:0:0:0:
72,260,10614,2,0,L|284:228,1,200
368,212,11562,5,8,0:0:0:0:
312,128,11877,2,0,P|296:84|300:28,1,100,0|8,0:0|0:0,0:0:0:0:
388,80,12509,2,0,B|416:148|368:200|368:200|412:256,1,200
476,332,13456,1,8,0:0:0:0:
380,352,13772,6,0,B|304:364|260:308|260:308|212:356,1,200,4|2,0:0|0:0,0:0:0:0:
180,260,14719,1,0,0:0:0:0:
268,216,15035,2,0,P|284:164|280:116,1,100,2|0,0:0|0:0,0:0:0:0:
180,136,15667,2,0,P|164:188|168:236,1,100,2|0,0:0|0:0,0:0:0:0:
200,328,16298,6,0,P|272:348|344:328,1,150,2|0,0:0|0:0,0:0:0:0:
432,280,17088,1,0,0:0:0:0:
356,216,17404,2,0,P|336:152|348:92,1,100,2|0,0:0|0:0,0:0:0:0:
332,20,18035,2,0,L|240:96,1,100,0|0,0:0|0:0,0:0:0:0:
216,116,18509,1,8,0:0:0:0:
200,216,18825,6,0,P|184:272|156:304,1,100,0|8,0:0|0:0,0:0:0:0:
56,312,19456,2,0,P|20:277|2:231,1,100,0|8,0:0|0:0,0:0:0:0:
44,140,20088,6,0,P|100:125|142:134,1,100,0|8,0:0|0:0,0:0:0:0:
240,116,20719,2,0,P|270:77|282:29,1,100,0|8,0:0|0:0,0:0:0:0:
184,28,21351,6,0,P|144:120|188:204,1,200
268,260,22298,1,8,0:0:0:0:
268,260,22456,2,0,P|280:192|236:128,1,150
364,208,23404,2,0,L|364:152,1,50,0|8,0:0|0:0,0:0:0:0:
364,108,23719,6,0,P|284:112|224:72,1,150,4|8,0:0|0:0,0:0:0:0:
140,28,24509,2,0,P|112:70|104:119,1,100,0|8,0:0|0:0,0:0:0:0:
112,216,25141,1,0,0:0:0:0:
196,160,25456,1,8,0:0:0:0:
196,159,25614,2,0,P|268:156|316:210,1,150,0|8,0:0|0:0,0:0:0:0:
336,308,26404,6,0,B|380:296|396:264|396:264|440:264,1,100,0|8,0:0|0:0,0:0:0:0:
468,260,26877,2,0,P|476:192|460:144,1,100
420,76,27509,2,0,B|384:52|384:52|328:80|268:52|268:52|232:84,1,200,0|0,0:0|0:0,0:0:0:0:
148,192,28614,5,4,0:0:0:0:
243,159,28930,2,0,P|247:209|233:257,1,100,4|8,0:0|0:0,0:0:0:0:
204,352,29562,2,0,P|260:349|304:325,1,100,0|8,0:0|0:0,0:0:0:0:
233,257,30193,2,0,P|139:278|101:368,2,200,0|8|0,0:0|0:0|0:0,0:0:0:0:
332,270,31772,5,8,0:0:0:0:
428,240,32088,2,0,P|448:192|440:144,1,100,0|8,0:0|0:0,0:0:0:0:
404,52,32719,2,0,L|404:-24,2,50,8|8|8,0:0|0:0|0:0,0:0:0:0:
356,140,33351,2,0,P|260:172|168:148,1,200,0|4,0:0|0:0,0:0:0:0:
84,92,34298,5,0,0:0:0:0:
96,192,34614,1,0,0:0:0:0:
96,192,34772,2,0,P|96:252|40:336,1,150,2|0,0:0|0:0,0:0:0:0:
8,236,35562,1,2,0:0:0:0:
27,140,35877,2,0,P|68:111|117:111,1,100,0|2,0:0|0:0,0:0:0:0:
212,148,36509,6,0,P|308:144|352:56,2,200,4|2|2,0:0|0:0|0:0,0:0:0:0:
132,92,38088,1,0,0:0:0:0:
124,192,38404,2,0,L|116:256,2,50,2|0|0,0:0|0:0|0:0,0:0:0:0:
132,92,39035,6,0,P|212:76|272:104,1,150,4|0,0:0|0:0,0:0:0:0:
372,116,39825,2,0,L|420:80,2,50,2|0|0,0:0|0:0|0:0,0:0:0:0:
336,152,40298,2,0,P|296:212|316:308,1,150,2|0,0:0|0:0,0:0:0:0:
312,336,40930,2,0,P|244:352|164:332,1,150,2|0,0:0|0:0,0:0:0:0:
124,308,41562,6,0,B|72:280|72:280|120:224|100:148,2,200,4|0|2,0:0|0:0|0:0,0:0:0:0:
200,244,43141,2,0,P|212:196|204:136,1,100,2|0,0:0|0:0,0:0:0:0:
152,340,44088,6,0,B|212:392|288:288|340:348,2,200,4|2|0,0:0|0:0|0:0,0:0:0:0:
80,272,45667,1,2,0:0:0:0:
167,224,45983,2,0,P|176:174|172:124,1,100,0|2,0:0|0:0,0:0:0:0:
128,36,46614,6,0,B|196:16|244:56|244:56|324:36,1,200,0|2,0:0|0:0,0:0:0:0:
416,16,47562,1,0,0:0:0:0:
368,104,47877,2,0,L|268:132,2,100,2|0|0,0:0|0:0|0:0,0:0:0:0:
416,16,48825,1,2,0:0:0:0:
464,104,49141,6,0,P|432:172|360:192,1,150,4|0,0:0|0:0,0:0:0:0:
316,204,49772,2,0,P|296:256|296:304,1,100,4|0,0:0|0:0,0:0:0:0:
392,276,50404,2,0,P|440:268|496:280,2,100,2|0|0,0:0|0:0|0:0,0:0:0:0:
292,288,51351,1,2,0:0:0:0:
216,224,51667,6,0,P|144:224|84:272,1,150,4|0,0:0|0:0,0:0:0:0:
56,312,52298,2,0,P|84:232|68:168,1,150,2|0,0:0|0:0,0:0:0:0:
48,124,52930,2,0,P|96:132|156:124,2,100,2|0|0,0:0|0:0|0:0,0:0:0:0:
104,40,53877,1,0,0:0:0:0:
204,56,54193,6,0,P|236:112|176:220,2,200,2|2|2,0:0|0:0|0:0,0:0:0:0:
144,136,55772,2,2,L|360:156,1,200
440,176,56719,5,4,0:0:0:0:
440,176,56877,1,0,0:0:0:0:
408,81,57193,2,0,P|368:111|343:154,1,100,2|0,0:0|0:0,0:0:0:0:
328,200,57667,2,2,L|260:200,1,50
176,200,58141,1,0,0:0:0:0:
176,200,58299,2,0,L|208:272,2,50,0|0|0,0:0|0:0|0:0,0:0:0:0:
128,104,59246,6,0,P|192:72|276:84,1,150,4|0,0:0|0:0,0:0:0:0:
312,104,59877,2,0,P|340:64|344:12,1,100,0|8,0:0|0:0,0:0:0:0:
248,44,60509,2,0,P|236:140|320:188,2,200,0|0|4,0:0|0:0|0:0,0:0:0:0:
336,92,62088,5,8,0:0:0:0:
396,172,62404,2,0,P|386:220|357:260,1,100,0|8,0:0|0:0,0:0:0:0:
282,327,63035,2,0,B|252:301|253:250|253:250|176:247,1,150,0|0,0:0|0:0,0:0:0:0:
185,347,63825,1,0,0:0:0:0:
282,327,64141,2,0,P|328:266|333:193,1,150,0|8,0:0|0:0,0:0:0:0:
331,94,64930,5,0,0:0:0:0:
252,156,65246,2,0,P|200:164|152:148,1,100,8|0,0:0|0:0,0:0:0:0:
64,108,65877,1,8,0:0:0:0:
12,192,66193,1,0,0:0:0:0:
88,256,66509,1,8,0:0:0:0:
88,256,66667,1,4,0:0:0:0:
180,216,66983,5,0,0:0:0:0:
180,216,67141,2,0,P|248:204|312:224,1,100,8|0,0:0|0:0,0:0:0:0:
324,228,67614,1,8,0:0:0:0:
392,300,67930,2,0,P|416:252|416:200,1,100,4|0,0:0|0:0,0:0:0:0:
400,160,68404,2,0,P|408:116|444:72,2,100,8|0|8,0:0|0:0|0:0,0:0:0:0:
324,228,69351,6,0,P|260:236|188:192,1,150,4|0,0:0|0:0,0:0:0:0:
160,152,69983,2,0,P|108:156|68:188,1,100,0|8,0:0|0:0,0:0:0:0:
148,252,70614,2,0,P|239:223|257:130,2,200,0|0|4,0:0|0:0|0:0,0:0:0:0:
48,244,72193,5,8,0:0:0:0:
108,164,72509,2,0,P|120:108|112:56,1,100,0|8,0:0|0:0,0:0:0:0:
24,112,73141,2,0,L|248:112,1,200
324,116,74088,1,8,0:0:0:0:
264,196,74404,6,0,P|248:248|252:292,1,100,4|8,0:0|0:0,0:0:0:0:
352,272,75035,1,0,0:0:0:0:
364,172,75351,1,8,0:0:0:0:
296,96,75667,2,0,P|296:44|320:0,2,100,0|8|0,0:0|0:0|0:0,0:0:0:0:
264,192,76614,1,8,0:0:0:0:
264,192,76772,6,0,P|184:212|116:192,1,150,4|8,0:0|0:0,0:0:0:0:
96,96,77562,2,0,P|147:99|190:122,1,100,0|8,0:0|0:0,0:0:0:0:
264,192,78193,1,0,0:0:0:0:
364,200,78509,1,8,0:0:0:0:
324,108,78825,1,0,0:0:0:0:
288,16,79141,1,8,0:0:0:0:
196,55,79456,6,0,P|146:59|97:47,1,100,8|8,0:0|0:0,0:0:0:0:
56,140,80088,2,0,P|83:181|97:229,1,100,8|8,0:0|0:0,0:0:0:0:
196,236,80719,2,0,P|218:191|252:155,1,100,8|8,0:0|0:0,0:0:0:0:
348,132,81351,2,0,P|393:154|429:187,1,100,8|8,0:0|0:0,0:0:0:0:
492,268,81983,5,8,0:0:0:0:
432,348,82298,1,8,0:0:0:0:
335,315,82614,2,0,P|287:303|239:314,1,100,0|8,0:0|0:0,0:0:0:0:
188,324,83088,2,0,P|140:264|144:192,1,150,4|8,0:0|0:0,0:0:0:0:
160,148,83719,2,0,B|176:108|176:108|224:136|284:124,1,150,0|8,0:0|0:0,0:0:0:0:
380,116,84509,6,0,P|412:156|424:204,1,100,4|8,0:0|0:0,0:0:0:0:
428,252,84983,2,0,L|504:160,2,100,0|8|4,0:0|0:0|0:0,0:0:0:0:
364,328,85930,1,0,0:0:0:0:
296,256,86246,2,0,P|224:240|152:268,1,150
236,324,87035,6,0,P|240:248|196:184,1,150,4|0,0:0|0:0,0:0:0:0:
155,167,87667,2,0,P|125:128|119:79,1,100,8|0,0:0|0:0,0:0:0:0:
216,100,88298,2,0,P|246:139|252:188,1,100,8|0,0:0|0:0,0:0:0:0:
200,276,88930,6,0,L|128:276,2,50,8|8|8,3:0|3:0|3:0,0:0:0:0:
252,276,89404,1,8,3:0:0:0:
