osu file format v13

[General]
AudioFilename: LiSA - Rising Hope.mp3
AudioLeadIn: 1000
PreviewTime: 68720
Countdown: 0
SampleSet: Soft
StackLeniency: 0.4
Mode: 0
LetterboxInBreaks: 0
WidescreenStoryboard: 1

[Editor]
DistanceSpacing: 1.2
BeatDivisor: 2
GridSize: 4
TimelineZoom: 2.5

[Metadata]
Title:Rising Hope -TV ver.-
TitleUnicode:Rising Hope -TV ver.-
Artist:LiSA
ArtistUnicode:LiSA
Creator:Quilt
Version:Insane
Source:魔法科高校の劣等生
Tags:the irregular at magic high school oribe risa tabuchi tomoya tsutomu satou 0OoMickeyoO0 Nardoxyribonucleic mahouka koukou no rettousei opening
BeatmapID:425643
BeatmapSetID:176779

[Difficulty]
HPDrainRate:7
CircleSize:4
OverallDifficulty:7
ApproachRate:9
SliderMultiplier:1.6
SliderTickRate:2

[Events]
//Background and Video events
0,0,"BG.jpg",0,0
Video,870,"op.avi"
//Break Periods
//Storyboard Layer 0 (Background)
//Storyboard Layer 1 (Fail)
//Storyboard Layer 2 (Pass)
//Storyboard Layer 3 (Foreground)
//Storyboard Sound Samples

[TimingPoints]
-122,315.789473684211,4,2,2,60,1,0
3667,-133.333333333333,4,2,1,40,0,0
8404,-83.3333333333333,4,2,1,80,0,0
8641,-83.3333333333333,4,2,1,5,0,0
8719,-100,4,2,1,60,0,0
13141,-100,4,2,2,40,0,0
13772,-133.333333333333,4,2,1,50,0,0
18509,-100,4,2,1,60,0,0
33351,-66.6666666666667,4,2,1,80,0,0
33983,-100,4,2,1,60,0,0
44088,-100,4,2,1,40,0,0
49141,-100,4,2,1,50,0,0
54193,-133.333333333333,4,2,1,40,0,0
56719,-100,4,2,1,60,0,0
58299,-100,4,2,1,45,0,0
58772,-133.333333333333,4,2,1,50,0,0
59246,-100,4,2,1,80,0,1
71877,-100,4,2,1,60,0,1
72193,-100,4,2,1,80,0,1
74404,-100,4,2,1,60,0,1
74562,-100,4,2,1,80,0,1
79456,-100,4,2,1,60,0,0
83956,-100,4,2,1,40,0,0
84509,-100,4,2,1,60,0,0

[Colours]
Combo1 : 255,128,64
Combo2 : 255,128,255
Combo3 : 18,124,255
Combo4 : 0,255,255

[HitObjects]
264,224,983,5,0,0:0:0:0:
332,304,1141,1,8,0:0:0:0:
356,280,1220,1,8,0:0:0:0:
368,252,1299,1,8,0:0:0:0:
368,220,1378,1,8,0:0:0:0:
360,188,1456,1,8,0:0:0:0:
188,160,1614,2,0,P|168:200|168:248,1,80,8|0,0:0|0:0,0:0:0:0:
220,80,1931,2,0,P|195:42|153:18,1,80,8|0,0:0|0:0,0:0:0:0:
272,144,2247,2,0,P|316:141|358:117,1,80,8|0,0:0|0:0,0:0:0:0:
440,56,2563,6,0,L|412:184,1,120,0|0,0:0|0:0,0:0:0:0:
444,208,2879,2,0,L|464:120,1,80
312,52,3194,1,0,0:0:0:0:
320,128,3352,2,0,P|324:172|348:208,1,80
320,128,3668,6,0,P|256:116|200:128,1,120.000004577637,4|2,0:0|0:0,0:0:0:0:
132,148,4142,1,0,0:0:0:0:
128,32,4299,1,0,0:0:0:0:
72,88,4457,1,0,0:0:0:0:
56,164,4615,2,0,P|48:224|80:272,1,120.000004577637,2|0,0:0|0:0,0:0:0:0:
200,320,5089,5,0,0:0:0:0:
200,320,5247,2,0,L|128:308,1,60.0000022888184,2|0,0:0|0:0,0:0:0:0:
152,184,5563,2,0,L|184:248,1,60.0000022888184,2|0,0:0|0:0,0:0:0:0:
312,272,5878,2,0,L|240:260,1,60.0000022888184,2|0,0:0|0:0,0:0:0:0:
96,240,6194,6,0,P|76:180|96:128,1,120.000004577637,2|0,0:0|0:0,0:0:0:0:
140,56,6668,1,0,0:0:0:0:
228,180,6826,2,0,L|180:116,1,60.0000022888184,2|0,0:0|0:0,0:0:0:0:
272,244,7142,2,0,P|280:280|276:304,1,60.0000022888184,2|0,0:0|0:0,0:0:0:0:
300,176,7457,6,0,P|332:193|348:211,1,60.0000022888184,2|0,0:0|0:0,0:0:0:0:
196,264,7773,2,0,P|163:246|147:228,1,60.0000022888184,2|0,0:0|0:0,0:0:0:0:
76,112,8089,6,0,L|52:152,1,30.0000011444092
168,88,8247,2,0,L|168:44,1,30.0000011444092
188,168,8405,6,0,P|256:188|324:160,1,143.999995605469,8|0,0:0|0:0,0:0:0:0:
364,140,8720,6,0,L|352:248,1,80,4|0,0:0|0:0,0:0:0:0:
340,332,9036,1,8,0:0:0:0:
432,192,9194,1,0,0:0:0:0:
448,312,9352,1,0,0:0:0:0:
448,312,9431,1,0,0:0:0:0:
448,312,9510,1,0,0:0:0:0:
432,192,9668,1,8,0:0:0:0:
340,332,9826,6,0,P|256:336|200:284,1,160
120,156,10299,2,0,L|96:248,1,80,8|0,0:0|0:0,0:0:0:0:
216,188,10615,1,0,0:0:0:0:
216,188,10694,1,0,0:0:0:0:
216,188,10773,1,0,0:0:0:0:
64,68,10931,2,0,L|40:160,1,80,8|0,0:0|0:0,0:0:0:0:
72,264,11247,5,0,0:0:0:0:
64,68,11405,1,0,0:0:0:0:
216,188,11563,2,0,P|256:196|296:184,1,80,8|0,0:0|0:0,0:0:0:0:
396,144,11878,1,0,0:0:0:0:
236,272,12036,1,0,0:0:0:0:
292,188,12194,2,0,P|292:124|272:88,1,80,8|0,0:0|0:0,0:0:0:0:
256,12,12510,5,0,0:0:0:0:
256,12,12589,1,0,0:0:0:0:
256,12,12668,1,0,0:0:0:0:
396,144,12826,1,8,0:0:0:0:
364,40,12984,1,0,0:0:0:0:
244,132,13142,5,8,0:0:0:0:
224,156,13220,1,8,0:0:0:0:
216,188,13299,1,8,0:0:0:0:
228,220,13378,1,8,0:0:0:0:
248,244,13457,1,8,0:0:0:0:
276,256,13536,1,8,0:0:0:0:
308,256,13615,1,8,0:0:0:0:
336,244,13694,1,8,0:0:0:0:
360,236,13773,6,0,P|420:224|480:244,1,120.000004577637,4|0,0:0|0:0,0:0:0:0:
512,304,14246,1,0,0:0:0:0:
296,292,14405,2,0,P|276:236|292:176,1,120.000004577637,0|0,0:0|0:0,0:0:0:0:
320,112,14878,1,2,0:0:0:0:
200,232,15036,6,0,P|168:236|140:232,1,60.0000022888184,2|0,0:0|0:0,0:0:0:0:
260,112,15352,2,0,P|292:108|320:112,1,60.0000022888184,0|0,0:0|0:0,0:0:0:0:
200,272,15668,2,0,P|168:276|140:272,1,60.0000022888184,2|0,0:0|0:0,0:0:0:0:
264,84,15984,2,0,P|296:80|324:84,1,60.0000022888184,0|0,0:0|0:0,0:0:0:0:
452,100,16299,5,0,0:0:0:0:
452,100,16457,1,0,0:0:0:0:
360,248,16615,1,2,0:0:0:0:
272,96,16773,1,0,0:0:0:0:
452,100,16931,1,0,0:0:0:0:
360,248,17089,2,0,P|348:284|348:320,1,60.0000022888184,2|0,0:0|0:0,0:0:0:0:
352,168,17405,2,0,P|312:184|284:212,1,60.0000022888184,2|0,0:0|0:0,0:0:0:0:
364,88,17720,6,0,P|396:100|420:136,1,60.0000022888184,2|0,0:0|0:0,0:0:0:0:
288,216,18036,2,0,P|236:188|216:132,1,120.000004577637,2|0,0:0|0:0,0:0:0:0:
268,76,18431,1,8,0:0:0:0:
268,76,18510,2,0,P|260:36|232:0,1,80,8|0,0:0|0:0,0:0:0:0:
144,128,18826,6,0,L|124:212,1,80,4|0,0:0|0:0,0:0:0:0:
52,308,19142,2,0,P|28:276|20:232,1,80,8|0,0:0|0:0,0:0:0:0:
12,120,19457,1,0,0:0:0:0:
52,308,19615,1,0,0:0:0:0:
192,200,19773,1,8,0:0:0:0:
96,140,19931,2,0,P|80:176|80:216,1,80
96,140,20247,5,0,0:0:0:0:
152,264,20405,2,0,P|100:296|56:296,1,80,8|0,0:0|0:0,0:0:0:0:
52,308,20642,1,0,0:0:0:0:
52,308,20720,1,0,0:0:0:0:
192,160,20878,2,0,P|196:120|184:80,2,80,0|8|0,0:0|0:0|0:0,0:0:0:0:
152,264,21352,5,0,0:0:0:0:
152,264,21431,1,0,0:0:0:0:
152,264,21510,1,0,0:0:0:0:
264,92,21668,2,0,P|268:140|264:172,1,80,8|0,0:0|0:0,0:0:0:0:
232,296,21984,2,0,P|276:308|312:308,1,80,0|0,0:0|0:0,0:0:0:0:
412,308,22299,1,8,0:0:0:0:
228,208,22457,2,0,P|148:268|168:356,1,200,4|0,0:0|0:0,0:0:0:0:
168,356,23405,6,0,L|82:308,1,80,0|8,0:0|0:0,0:0:0:0:
232,280,23720,2,0,P|268:260|288:228,1,80,4|0,0:0|0:0,0:0:0:0:
336,140,24036,1,0,0:0:0:0:
324,316,24194,1,8,0:0:0:0:
164,144,24352,2,0,L|216:204,1,80
324,316,24668,1,0,0:0:0:0:
264,140,24826,1,8,0:0:0:0:
164,288,24984,2,0,P|128:300|88:292,1,80
124,168,25299,5,0,0:0:0:0:
164,288,25457,1,8,0:0:0:0:
224,156,25615,2,0,P|212:120|184:88,1,80
80,284,25931,2,0,P|92:320|120:352,1,80,0|8,0:0|0:0,0:0:0:0:
124,168,26247,1,0,0:0:0:0:
208,264,26405,5,0,0:0:0:0:
208,264,26484,1,0,0:0:0:0:
208,264,26563,1,0,0:0:0:0:
224,156,26720,1,8,0:0:0:0:
104,264,26878,2,0,P|68:296|52:332,1,80
124,168,27194,1,0,0:0:0:0:
124,168,27351,1,8,0:0:0:0:
188,76,27510,2,0,P|232:64|268:72,1,80
380,192,27826,6,0,L|336:116,1,80,0|8,0:0|0:0,0:0:0:0:
264,184,28142,2,0,L|356:360,1,160
380,192,28615,1,8,0:0:0:0:
380,192,28694,1,0,0:0:0:0:
380,192,28773,1,0,0:0:0:0:
184,136,28931,6,0,P|124:136|76:172,1,120,4|0,0:0|0:0,0:0:0:0:
40,192,29247,2,0,P|20:160|20:116,1,80,8|0,0:0|0:0,0:0:0:0:
148,204,29563,2,0,P|168:236|168:280,1,80
104,140,29878,2,0,P|121:106|159:84,1,80,8|0,0:0|0:0,0:0:0:0:
312,100,30194,6,0,L|232:52,1,80
232,168,30510,1,8,0:0:0:0:
312,100,30668,2,0,P|384:80|464:120,1,160
297,207,31142,2,0,P|260:196|232:168,1,80,8|0,0:0|0:0,0:0:0:0:
152,56,31456,6,0,L|112:168,1,80,0|0,0:0|0:0,0:0:0:0:
116,156,31693,1,0,0:0:0:0:
116,156,31772,1,8,0:0:0:0:
64,256,31931,2,0,L|12:272,2,40,0|0|0,0:0|0:0|0:0,0:0:0:0:
164,224,32247,2,0,P|204:220|244:232,1,80,0|8,0:0|0:0,0:0:0:0:
376,296,32563,1,8,0:0:0:0:
252,120,32720,5,8,0:0:0:0:
252,352,32878,1,8,0:0:0:0:
360,168,33036,1,8,0:0:0:0:
360,168,33352,2,0,P|304:208|332:112,1,240.000009155274
360,168,33984,6,0,P|352:248|280:284,1,160,4|0,0:0|0:0,0:0:0:0:
180,288,34457,1,0,0:0:0:0:
128,100,34615,2,0,P|108:160|120:216,1,120,2|0,0:0|0:0,0:0:0:0:
164,276,34931,2,0,P|124:288|84:280,1,80,2|0,0:0|0:0,0:0:0:0:
212,208,35247,6,0,P|236:264|224:324,1,120,8|0,0:0|0:0,0:0:0:0:
204,364,35563,2,0,L|288:332,1,80,8|0,0:0|0:0,0:0:0:0:
352,136,35878,2,0,L|268:168,1,80,8|0,0:0|0:0,0:0:0:0:
144,212,36194,1,0,0:0:0:0:
144,212,36352,1,0,0:0:0:0:
208,124,36510,6,0,P|212:56|188:8,1,120,6|0,0:0|0:0,0:0:0:0:
128,72,36826,2,0,P|120:132|132:172,1,80,2|0,0:0|0:0,0:0:0:0:
156,288,37142,1,2,0:0:0:0:
156,288,37299,1,0,0:0:0:0:
208,124,37457,2,0,P|216:172|200:220,1,80,2|0,0:0|0:0,0:0:0:0:
256,68,37773,6,0,P|292:52|332:48,1,80,2|0,0:0|0:0,0:0:0:0:
264,252,38089,2,0,P|228:268|188:272,1,80,2|0,0:0|0:0,0:0:0:0:
56,276,38405,1,8,0:0:0:0:
56,276,38563,1,8,0:0:0:0:
56,276,38720,2,0,P|72:224|64:160,1,120,8|0,0:0|0:0,0:0:0:0:
48,92,39036,6,0,P|80:61|124:44,1,80,4|0,0:0|0:0,0:0:0:0:
280,148,39352,2,0,P|208:180|144:140,1,160,2|0,0:0|0:0,0:0:0:0:
112,46,39826,1,0,0:0:0:0:
112,46,39984,1,0,0:0:0:0:
112,46,40142,1,0,0:0:0:0:
216,108,40299,6,0,P|236:168|224:228,1,120,2|0,0:0|0:0,0:0:0:0:
201,289,40614,2,0,P|245:302|283:290,1,80,2|0,0:0|0:0,0:0:0:0:
360,148,40931,6,0,P|352:196|356:228,1,80,2|0,0:0|0:0,0:0:0:0:
368,292,41168,2,0,P|408:308|424:268,1,80,2|0,0:0|0:0,0:0:0:0:
359,147,41405,2,0,P|320:145|284:163,1,80,2|4,0:0|0:0,0:0:0:0:
204,296,41720,6,0,P|232:268|244:224,1,80,0|2,0:0|0:0,0:0:0:0:
160,144,42036,2,0,L|168:228,1,80,0|0,0:0|0:0,0:0:0:0:
184,368,42352,1,0,0:0:0:0:
184,368,42510,1,0,0:0:0:0:
284,236,42668,2,0,P|292:192|284:156,1,80,2|0,0:0|0:0,0:0:0:0:
244,56,42984,5,2,0:0:0:0:
284,236,43142,1,2,0:0:0:0:
344,112,43299,1,0,0:0:0:0:
216,176,43457,2,0,P|188:248|232:316,1,160
216,176,43931,1,0,0:0:0:0:
296,160,44089,6,0,B|352:160|352:160|392:196|392:196|448:196,1,160,4|2,0:0|0:0,0:0:0:0:
424,104,44563,1,0,0:0:0:0:
320,232,44720,2,0,P|296:304|332:380,1,160,2|0,0:0|0:0,0:0:0:0:
442,196,45194,1,0,0:0:0:0:
442,196,45352,5,2,0:0:0:0:
448,188,45668,1,2,0:0:0:0:
456,180,45984,1,2,0:0:0:0:
464,172,46299,1,2,0:0:0:0:
400,252,46615,6,0,P|328:288|260:256,1,160,2|2,0:0|0:0,0:0:0:0:
184,176,47089,1,0,0:0:0:0:
328,216,47247,2,0,B|352:160|308:108|308:108|360:52,1,160,2|2,0:0|0:0,0:0:0:0:
400,20,47720,1,0,0:0:0:0:
263,176,47878,6,0,P|224:178|185:170,1,80,2|0,0:0|0:0,0:0:0:0:
72,64,48194,2,0,L|116:152,1,80,2|0,0:0|0:0,0:0:0:0:
156,220,48510,5,4,0:0:0:0:
164,260,48615,1,0,0:0:0:0:
152,300,48720,1,0,0:0:0:0:
116,324,48826,1,0,0:0:0:0:
76,308,48931,1,0,0:0:0:0:
76,264,49036,1,0,0:0:0:0:
112,240,49142,6,0,P|180:236|248:292,1,160,4|0,0:0|0:0,0:0:0:0:
296,368,49615,1,0,0:0:0:0:
276,208,49773,2,0,P|261:133|300:63,1,160,4|0,0:0|0:0,0:0:0:0:
378,8,50247,1,0,0:0:0:0:
437,83,50405,6,0,P|452:158|413:228,1,160,2|2,0:0|0:0,0:0:0:0:
332,280,50878,1,0,0:0:0:0:
255,221,51036,2,0,P|179:204|111:244,1,160,0|2,0:0|0:0,0:0:0:0:
50,318,51510,1,0,0:0:0:0:
190,275,51668,6,0,P|206:238|212:199,1,80,4|0,0:0|0:0,0:0:0:0:
33,181,51984,2,0,P|16:217|10:256,1,80,2|0,0:0|0:0,0:0:0:0:
229,290,52299,2,0,P|245:253|251:214,1,80,2|0,0:0|0:0,0:0:0:0:
254,96,52615,1,2,0:0:0:0:
254,96,52773,1,0,0:0:0:0:
168,219,52931,5,0,0:0:0:0:
328,138,53089,1,0,0:0:0:0:
216,20,53247,1,2,0:0:0:0:
216,20,53405,1,0,0:0:0:0:
258,175,53563,2,0,P|294:205|331:217,1,80
434,244,53878,2,0,L|376:300,1,80
394,165,54194,6,0,P|384:107|401:50,1,120.000004577637,0|2,0:0|0:0,0:0:0:0:
457,112,54668,2,0,P|402:134|345:121,1,120.000004577637
279,89,55142,1,2,0:0:0:0:
194,187,55299,2,0,L|210:109,1,60.0000022888184
279,89,55615,5,0,0:0:0:0:
261,229,55773,2,0,P|236:252|208:263,1,60.0000022888184,2|0,0:0|0:0,0:0:0:0:
110,281,56089,1,0,0:0:0:0:
210,330,56247,1,0,0:0:0:0:
227,159,56405,1,0,0:0:0:0:
181,239,56563,1,0,0:0:0:0:
135,171,56720,5,4,0:0:0:0:
135,171,56799,1,0,0:0:0:0:
135,171,56878,2,0,P|126:125|133:91,1,80
149,3,57194,2,0,P|75:28|37:96,1,160,4|0,0:0|0:0,0:0:0:0:
14,198,57668,1,0,0:0:0:0:
159,96,57826,2,0,P|193:116|214:149,1,80
246,257,58142,5,0,0:0:0:0:
266,57,58299,1,8,0:0:0:0:
147,208,58457,1,8,0:0:0:0:
319,157,58615,1,8,0:0:0:0:
246,256,58773,2,0,P|229:281|218:309,2,60.0000022888184
319,156,59247,6,0,P|322:78|273:17,1,160,4|8,0:0|0:0,0:0:0:0:
386,28,59720,1,0,0:0:0:0:
245,117,59878,2,0,P|244:176|278:224,1,120
320,224,60194,2,0,L|269:309,1,80,8|0,0:0|0:0,0:0:0:0:
134,288,60510,6,0,L|185:203,1,80
245,117,60826,1,8,0:0:0:0:
139,116,60984,2,0,P|108:93|92:56,1,80
245,117,61299,2,0,P|251:166|247:198,1,80,0|8,0:0|0:0,0:0:0:0:
217,305,61615,1,0,0:0:0:0:
217,305,61773,6,0,B|267:340|311:276|376:313,1,160,4|8,0:0|0:0,0:0:0:0:
459,351,62247,1,0,0:0:0:0:
439,256,62405,2,0,P|434:213|442:171,1,80
455,82,62720,1,8,0:0:0:0:
508,213,62878,1,0,0:0:0:0:
382,113,63036,6,0,P|343:105|305:118,1,80,0|0,0:0|0:0,0:0:0:0:
379,28,63352,1,8,0:0:0:0:
242,76,63510,2,0,P|233:114|237:154,1,80
344,240,63826,2,0,P|347:176|312:135,1,120,0|0,0:0|0:0,0:0:0:0:
281,128,64142,2,0,L|356:58,1,80,4|0,0:0|0:0,0:0:0:0:
439,66,64457,5,0,0:0:0:0:
303,206,64615,2,0,P|263:208|227:193,1,80,8|0,0:0|0:0,0:0:0:0:
101,132,64931,2,0,P|75:162|55:197,1,80
153,299,65247,2,0,P|154:259|146:220,1,80,8|0,0:0|0:0,0:0:0:0:
131,57,65563,6,0,L|91:161,1,80,0|0,0:0|0:0,0:0:0:0:
61,244,65878,1,8,0:0:0:0:
61,244,66036,1,0,0:0:0:0:
183,224,66194,2,0,P|222:228|259:243,1,80
339,297,66510,1,8,0:0:0:0:
275,88,66668,2,0,L|274:169,1,80,4|0,0:0|0:0,0:0:0:0:
272,330,66984,5,0,0:0:0:0:
272,330,67063,1,0,0:0:0:0:
272,330,67142,1,8,0:0:0:0:
334,181,67299,1,0,0:0:0:0:
376,257,67457,1,8,0:0:0:0:
352,98,67615,1,0,0:0:0:0:
352,98,67694,1,0,0:0:0:0:
352,98,67773,1,8,0:0:0:0:
263,231,67931,2,0,P|187:236|137:178,1,160,4|0,0:0|0:0,0:0:0:0:
71,85,68405,6,0,P|45:118|35:158,1,80,12|0,0:0|0:0,0:0:0:0:
33,275,68720,1,0,0:0:0:0:
33,275,68799,1,0,0:0:0:0:
33,275,68878,1,0,0:0:0:0:
113,157,69036,1,8,0:0:0:0:
98,334,69194,1,0,0:0:0:0:
113,156,69352,6,0,P|166:143|232:156,1,120,4|0,0:0|0:0,0:0:0:0:
259,176,69668,1,8,0:0:0:0:
186,58,69826,1,0,0:0:0:0:
181,219,69984,2,0,P|178:264|189:296,1,80
113,157,70299,1,8,0:0:0:0:
256,254,70457,1,0,0:0:0:0:
256,254,70615,6,0,P|274:179|251:101,1,160,0|8,0:0|0:0,0:0:0:0:
112,157,71089,2,0,P|92:212|106:269,1,120
116,308,71405,2,0,P|77:316|38:308,1,80,0|8,0:0|0:0,0:0:0:0:
113,157,71720,1,0,0:0:0:0:
192,240,71878,6,0,B|244:280|296:208|344:248,1,160,4|8,0:0|0:0,0:0:0:0:
424,304,72352,1,0,0:0:0:0:
360,168,72510,2,0,P|352:128|364:92,1,80
400,0,72826,1,8,0:0:0:0:
276,124,72984,1,0,0:0:0:0:
432,140,73142,6,0,P|440:180|428:216,1,80
380,300,73457,1,8,0:0:0:0:
296,252,73615,2,0,P|220:232|144:260,2,160
348,168,74405,5,4,0:0:0:0:
232,312,74563,1,0,0:0:0:0:
416,212,74720,2,0,P|428:168|424:132,1,80,8|0,0:0|0:0,0:0:0:0:
272,168,75036,2,0,P|260:223|276:287,1,120
283,324,75352,2,0,P|247:341|209:351,1,80,8|0,0:0|0:0,0:0:0:0:
120,368,75668,5,0,0:0:0:0:
336,228,75826,1,0,0:0:0:0:
191,164,75984,2,0,P|184:203|186:242,1,80,8|0,0:0|0:0,0:0:0:0:
196,352,76299,1,0,0:0:0:0:
196,352,76378,1,0,0:0:0:0:
196,352,76457,1,0,0:0:0:0:
260,224,76615,1,8,0:0:0:0:
120,152,76773,1,4,0:0:0:0:
112,120,76852,1,0,0:0:0:0:
124,92,76931,1,0,0:0:0:0:
168,12,77089,5,0,0:0:0:0:
272,144,77247,2,0,P|276:104|270:64,1,80,8|0,0:0|0:0,0:0:0:0:
120,152,77563,2,0,P|115:191|121:231,1,80
204,368,77878,2,0,L|152:296,1,80,8|0,0:0|0:0,0:0:0:0:
224,224,78194,6,0,P|296:208|352:252,1,120
228,304,78510,2,0,P|168:280|144:224,1,120,8|0,0:0|0:0,0:0:0:0:
140,192,78826,2,0,P|100:180|60:184,1,80
24,192,79063,1,0,0:0:0:0:
24,192,79142,1,8,0:0:0:0:
200,68,79457,6,0,L|208:152,1,80,8|0,0:0|0:0,0:0:0:0:
252,296,79773,2,0,P|228:248|224:204,1,80,8|0,0:0|0:0,0:0:0:0:
352,112,80089,2,0,P|328:151|304:176,1,80,8|0,0:0|0:0,0:0:0:0:
144,260,80405,1,8,0:0:0:0:
176,340,80563,1,0,0:0:0:0:
224,212,80720,6,0,P|232:168|228:128,1,80,8|0,0:0|0:0,0:0:0:0:
204,28,81036,1,8,0:0:0:0:
296,112,81194,1,0,0:0:0:0:
148,176,81352,2,0,P|140:220|144:260,1,80,8|0,0:0|0:0,0:0:0:0:
248,120,81668,2,0,P|263:78|266:37,1,80,8|0,0:0|0:0,0:0:0:0:
232,200,81984,6,0,P|304:236|384:180,1,160,8|8,0:0|0:0,0:0:0:0:
428,128,82457,1,0,0:0:0:0:
276,136,82615,2,0,P|244:172|232:204,1,80,8|0,0:0|0:0,0:0:0:0:
224,64,82931,1,8,0:0:0:0:
312,208,83089,2,0,P|336:288|308:360,1,160,4|0,0:0|0:0,0:0:0:0:
312,208,83563,5,8,0:0:0:0:
224,280,83720,2,0,P|176:284|140:272,1,80
116,264,83957,1,8,0:0:0:0:
88,244,84036,1,8,0:0:0:0:
80,212,84115,1,8,0:0:0:0:
88,180,84194,1,8,0:0:0:0:
108,156,84273,1,8,0:0:0:0:
140,148,84352,1,8,0:0:0:0:
288,228,84510,6,0,P|303:248|328:264,1,40,8|0,0:0|0:0,0:0:0:0:
276,139,84668,2,0,P|280:120|288:102,1,40,8|0,0:0|0:0,0:0:0:0:
216,216,84826,2,0,P|206:237|196:268,1,40,8|0,0:0|0:0,0:0:0:0:
344,168,84984,2,0,P|380:160|428:168,1,80,8|0,0:0|0:0,0:0:0:0:
192,64,85299,2,0,L|200:168,1,80,8|0,0:0|0:0,0:0:0:0:
212,328,85615,2,0,P|128:300|104:232,1,160,8|0,0:0|0:0,0:0:0:0:
96,124,86089,5,0,0:0:0:0:
188,188,86247,2,0,P|248:192|276:176,1,80,0|0,0:0|0:0,0:0:0:0:
256,48,86563,2,0,P|236:80|232:124,2,80
324,132,87035,6,0,P|328:212|276:276,1,160,4|0,0:0|0:0,0:0:0:0:
200,304,87509,1,0,0:0:0:0:
124,260,87668,2,0,P|80:264|44:284,1,80,8|0,0:0|0:0,0:0:0:0:
232,220,87984,2,0,P|239:180|235:141,1,80,8|0,0:0|0:0,0:0:0:0:
220,48,88299,5,0,0:0:0:0:
324,132,88457,1,0,0:0:0:0:
231,220,88615,2,0,P|225:259|234:297,1,80,8|0,0:0|0:0,0:0:0:0:
336,260,88931,5,8,3:0:0:0:
180,120,89089,1,8,3:0:0:0:
324,132,89247,1,8,3:0:0:0:
208,332,89405,1,8,3:0:0:0:
