osu file format v13

[General]
AudioFilename: lisa - rising hope.mp3
AudioLeadIn: 1500
PreviewTime: 57914
Countdown: 0
SampleSet: Soft
StackLeniency: 0.7
Mode: 0
LetterboxInBreaks: 0
WidescreenStoryboard: 0

[Editor]
DistanceSpacing: 1.2
BeatDivisor: 4
GridSize: 4
TimelineZoom: 1.6

[Metadata]
Title:Rising Hope -TV ver.-
TitleUnicode:Rising Hope -TV ver.-
Artist:LiSA
ArtistUnicode:LiSA
Creator:[_Crystal]
Version:Easy
Source:魔法科高校の劣等生
Tags:Regraz IamKwaN Mahouka Koukou no Rettousei opening size
BeatmapID:500335
BeatmapSetID:185868

[Difficulty]
HPDrainRate:2
CircleSize:3
OverallDifficulty:2
ApproachRate:3
SliderMultiplier:0.8
SliderTickRate:1

[Events]
//Background and Video events
Video,-150,"LiSA - Rising Hope.avi"
0,0,"3.jpg",0,0
//Break Periods
2,3014,3901
2,43431,46212
2,53219,54422
//Storyboard Layer 0 (Background)
//Storyboard Layer 1 (Fail)
//Storyboard Layer 2 (Pass)
//Storyboard Layer 3 (Foreground)
//Storyboard Sound Samples
//Background Colour Transformations
3,100,163,162,255

[TimingPoints]
289,315.756236185665,4,2,1,50,1,0
1552,-100,4,2,1,20,0,0
2815,-100,4,2,1,50,0,0
2972,-100,4,2,2,50,0,0
7235,-100,4,2,1,50,0,0
8103,-100,4,2,3,50,0,0
8261,-100,4,2,1,50,0,0
9366,-100,4,2,3,50,0,0
9524,-100,4,2,1,50,0,0
10630,-100,4,2,3,50,0,0
10787,-100,4,2,1,50,0,0
11893,-100,4,2,3,50,0,0
12050,-100,4,2,1,50,0,0
12919,-100,4,2,2,40,0,0
17655,-100,4,2,1,50,0,0
20734,-100,4,2,3,50,0,0
20892,-100,4,2,1,50,0,0
21365,-100,4,2,3,50,0,0
21523,-100,4,2,1,50,0,0
22391,-100,4,2,1,50,0,0
24523,-100,4,2,3,50,0,0
24681,-100,4,2,1,50,0,0
25786,-100,4,2,3,50,0,0
25944,-100,4,2,1,50,0,0
27049,-100,4,2,3,50,0,0
27207,-100,4,2,1,50,0,0
28312,-100,4,2,3,50,0,0
28470,-100,4,2,1,50,0,0
33127,-100,4,2,1,50,0,0
51046,-100,4,2,3,50,0,0
51204,-100,4,2,1,50,0,0
57361,-100,4,2,3,50,0,0
57519,-100,4,2,1,50,0,0
58388,-100,4,2,1,50,0,1
58624,-100,4,2,3,50,0,1
58782,-100,4,2,1,50,0,1
61151,-100,4,2,3,50,0,1
61308,-100,4,2,1,50,0,1
68018,-100,4,2,1,50,0,0
68492,-100,4,2,1,50,0,1
68729,-100,4,2,3,50,0,1
68887,-100,4,2,1,50,0,1
71255,-100,4,2,3,50,0,1
71413,-100,4,2,1,50,0,1
73781,-100,4,2,3,50,0,1
73939,-100,4,2,1,50,0,1
75044,-100,4,2,3,50,0,1
75202,-100,4,2,1,50,0,1
78596,-100,4,2,1,50,0,0

[Colours]
Combo1 : 128,64,64
Combo2 : 128,128,255
Combo3 : 0,255,64
Combo4 : 255,128,0

[HitObjects]
168,40,289,5,4,0:0:0:0:
68,144,762,2,0,L|80:228,1,80,8|8,0:0|0:0,0:0:0:0:
164,268,1394,2,0,B|184:340|260:352|260:352|316:252|416:252|460:340,1,360,8|4,0:0|0:0,0:0:0:0:
256,192,5341,12,2,6604,0:0:0:0:
392,80,7867,6,0,P|412:176|308:152,1,240,4|8,0:0|0:0,0:0:0:0:
256,76,9130,2,0,P|180:72|120:136,1,160,2|2,0:0|0:0,0:0:0:0:
212,160,10077,1,8,0:0:0:0:
300,196,10393,6,0,B|264:268|184:252|184:252|168:292|232:332,1,240,4|8,0:0|0:0,0:0:0:0:
320,368,11656,2,0,P|400:376|468:332,1,160,2|2,0:0|0:0,0:0:0:0:
500,248,12603,1,8,0:0:0:0:
452,164,12919,6,0,P|464:88|404:40,1,160,4|2,0:0|0:0,0:0:0:0:
308,208,14182,2,0,L|336:376,1,160,2|2,0:0|0:0,0:0:0:0:
208,224,15445,6,0,P|224:148|308:112,1,160,4|2,0:3|0:0,0:0:0:0:
444,228,16708,2,0,P|370:252|300:196,1,160,2|2,0:0|0:0,0:0:0:0:
384,156,17655,1,0,0:0:0:0:
316,88,17971,6,0,L|236:64,1,80,4|8,0:0|0:0,0:0:0:0:
144,64,18602,2,0,L|67:86,1,80,2|8,0:0|0:0,0:0:0:0:
128,160,19234,2,0,L|140:248,1,80,2|8,0:0|0:0,0:0:0:0:
236,240,19865,2,0,L|246:160,1,80,2|8,0:0|0:0,0:0:0:0:
284,72,20497,2,0,B|320:48|356:60|368:100|368:100|344:284,1,280,2|4,0:0|0:0,0:0:0:0:
60,292,22549,5,0,0:0:0:0:
20,204,22865,2,0,P|16:148|72:100,1,120,4|8,0:0|0:0,0:0:0:0:
152,128,23654,2,0,P|192:144|252:140,1,80,2|8,0:0|0:0,0:0:0:0:
220,240,24286,6,0,P|262:235|276:64,1,240,2|8,0:0|0:0,0:0:0:0:
204,36,25549,2,0,P|280:56|376:16,1,160,2|2,0:0|0:0,0:0:0:0:
420,104,26496,1,8,0:0:0:0:
496,164,26812,2,0,L|476:328,1,160,2|2,0:0|0:0,0:0:0:0:
388,360,27759,1,8,0:0:0:0:
304,316,28075,6,0,L|284:157,1,160,4|2,0:0|0:0,0:0:0:0:
216,92,29022,1,8,0:0:0:0:
136,36,29338,2,0,P|96:28|40:36,2,80,2|8|2,0:0|0:0|0:0,0:0:0:0:
216,92,30285,1,8,0:0:0:0:
308,60,30601,6,0,P|360:80|424:56,2,120,2|2|2,0:0|0:0|0:0,0:0:0:0:
216,92,31864,1,8,0:0:0:0:
128,132,32180,1,12,0:0:0:0:
128,132,33127,6,0,B|104:228|104:228|108:264|156:268,1,160,4|8,0:0|0:0,0:0:0:0:
316,352,34390,2,0,P|342:278|314:205,1,160,2|8,0:0|0:0,0:0:0:0:
436,56,35653,6,0,L|264:44,1,160,2|8,0:0|0:0,0:0:0:0:
96,112,36916,2,0,P|80:144|80:188,2,80,2|8|8,0:0|0:0|0:0,0:0:0:0:
168,48,37863,1,8,0:0:0:0:
216,132,38179,6,0,L|176:300,1,160,4|8,0:0|0:0,0:0:0:0:
240,360,39127,1,8,0:0:0:0:
312,300,39442,2,0,P|372:328|444:260,1,160,2|8,0:0|0:0,0:0:0:0:
492,196,40390,1,8,0:0:0:0:
480,100,40705,6,0,B|404:112|396:184|396:184|372:184|344:176,2,160,6|8|2,0:0|0:0|0:0,0:0:0:0:
492,196,42284,1,0,0:0:0:0:
436,276,42600,2,0,B|400:312|388:340|388:340|376:312|336:272,1,160,8|4,0:0|0:0,0:0:0:0:
112,72,47652,6,0,L|100:168,1,80,2|8,0:0|0:0,0:0:0:0:
104,248,48283,2,0,B|172:256|192:224|192:224|208:152,1,160,4|2,0:0|0:0,0:0:0:0:
384,88,49546,6,0,L|360:256,1,160,2|2,0:0|0:0,0:0:0:0:
192,156,50809,2,0,L|168:324,1,160,2|2,0:0|0:0,0:0:0:0:
104,132,52073,6,0,P|140:76|184:60,1,80,2|8,0:0|0:0,0:0:0:0:
244,76,52704,2,0,P|272:103|285:141,1,80,8|8,0:0|0:0,0:0:0:0:
136,248,55862,6,0,P|80:300|20:300,1,120,4|8,0:0|0:0,0:0:0:0:
48,208,56651,1,8,0:0:0:0:
124,152,56967,2,0,B|220:116|220:116|276:160|236:228,1,200,8|8,0:0|0:0,0:0:0:0:
396,316,58388,6,0,P|460:256|448:176,1,160,4|2,0:0|0:0,0:0:0:0:
332,40,59651,2,0,L|208:44,2,120,2|2|2,0:0|0:0|0:0,0:0:0:0:
428,28,60914,6,0,P|420:92|332:140,1,160,4|0,0:0|0:0,0:0:0:0:
152,164,62177,2,0,P|72:168|24:160,2,120,2|2|8,0:0|0:0|0:0,0:0:0:0:
228,104,63440,6,0,P|248:160|236:208,1,80,4|8,0:0|0:0,0:0:0:0:
184,252,64071,2,0,L|160:332,1,80,2|8,0:0|0:0,0:0:0:0:
256,352,64703,2,0,L|278:275,1,80,2|8,0:0|0:0,0:0:0:0:
364,232,65334,6,0,P|412:152|392:104,2,120,10|4|8,0:0|0:0|0:0,0:0:0:0:
277,275,66597,2,0,L|144:256,1,120,8|0,0:0|0:0,0:0:0:0:
52,164,67545,2,0,B|96:112|76:44|76:44|132:76,1,160,8|8,0:0|0:0,0:0:0:0:
200,56,68492,6,0,P|276:36|364:64,1,160,4|2,0:0|0:0,0:0:0:0:
416,128,69439,1,8,0:0:0:0:
472,208,69755,2,0,L|444:352,2,120,2|2|2,0:0|0:0|0:0,0:0:0:0:
416,128,71018,6,0,P|340:148|256:124,1,160,4|2,0:0|0:0,0:0:0:0:
196,56,71965,1,8,0:0:0:0:
108,92,72281,2,0,P|84:164|108:204,2,120,2|2|2,0:0|0:0|0:0,0:0:0:0:
196,56,73544,6,0,P|248:68|348:32,1,160,4|2,0:0|0:0,0:0:0:0:
396,116,74491,1,8,0:0:0:0:
472,56,74807,2,0,P|491:104|440:202,1,160,2|2,0:0|0:0,0:0:0:0:
444,340,75912,6,0,L|312:328,1,120,4|8,0:0|0:0,0:0:0:0:
228,344,76702,2,0,L|233:246,1,80,2|8,0:0|0:0,0:0:0:0:
136,281,77333,2,0,L|131:360,1,80,2|8,0:0|0:0,0:0:0:0:
40,324,77965,1,2,0:0:0:0:
56,228,78280,1,8,0:0:0:0:
68,132,78596,6,0,P|56:92|68:52,1,80,8|8,0:0|0:0,0:0:0:0:
152,12,79228,2,0,P|164:52|152:92,1,80,8|8,0:0|0:0,0:0:0:0:
180,180,79859,1,8,0:0:0:0:
276,196,80175,2,0,L|360:192,2,80,8|8|8,0:0|0:0|0:0,0:0:0:0:
276,292,81122,6,0,L|355:288,1,80,8|8,0:0|0:0,0:0:0:0:
444,244,81754,2,0,P|456:176|432:124,1,120,8|4,0:0|0:0,0:0:0:0:
316,52,82701,2,0,P|240:72|168:28,1,160,8|8,0:0|0:0,0:0:0:0:
108,104,83648,6,0,P|163:159|168:200,1,120,4|8,0:0|0:0,0:0:0:0:
120,280,84438,1,8,0:0:0:0:
68,200,84753,1,8,0:0:0:0:
256,192,86174,12,8,88542,0:0:0:0:
