osu file format v14

[General]
AudioFilename: LiSA - Rising Hope.mp3
AudioLeadIn: 1000
PreviewTime: 58615
Countdown: 0
SampleSet: Soft
StackLeniency: 0.7
Mode: 3
LetterboxInBreaks: 0
SpecialStyle: 0
WidescreenStoryboard: 0

[Editor]
DistanceSpacing: 0.8
BeatDivisor: 4
GridSize: 4
TimelineZoom: 2.5

[Metadata]
Title:Rising Hope -TV ver.-
TitleUnicode:Rising Hope -TV ver.-
Artist:LiSA
ArtistUnicode:LiSA
Creator:[AyanoTatemaya]
Version:7K MX
Source:魔法科高校の劣等生
Tags:Mahouka Koukou no Rettousei Oribe Risa 織部 里沙 Tabuchi Tomoya Tsutomu Satō The Irregular at Magic High School HinagikuKatsura Zan_- [Shana_Lesus] [_s_a_k_u_r_a_] opening
BeatmapID:523169
BeatmapSetID:224058

[Difficulty]
HPDrainRate:8
CircleSize:7
OverallDifficulty:8
ApproachRate:9
SliderMultiplier:1.6
SliderTickRate:2

[Events]
//Background and Video events
0,0,"Mahouka.jpg.jpg",0,0
Video,820,"op.avi"
//Break Periods
//Storyboard Layer 0 (Background)
//Storyboard Layer 1 (Fail)
//Storyboard Layer 2 (Pass)
//Storyboard Layer 3 (Foreground)
//Storyboard Sound Samples
Sample,1773,0,"1-7^2-9^3-9x.wav",70
Sample,2089,0,"1-7^2-9^3-9x.wav",70
Sample,8878,0,"hihat.wav",50
Sample,9194,0,"hihat.wav",50
Sample,10142,0,"hihat.wav",50
Sample,10457,0,"hihat.wav",50
Sample,10773,0,"hihat.wav",50
Sample,11405,0,"hihat.wav",50
Sample,11720,0,"hihat.wav",50
Sample,18984,0,"3-9s.wav",70
Sample,19142,0,"3-9s.wav",70
Sample,19773,0,"3-9s.wav",70
Sample,20405,0,"3-11s.wav",70
Sample,21036,0,"3-11s.wav",70
Sample,21668,0,"3-13s.wav",70
Sample,21984,0,"3-13s.wav",70
Sample,26405,0,"hihat.wav",50
Sample,29089,0,"2-9^3-11s.wav",70
Sample,29405,0,"2-9^3-11s.wav",70
Sample,30036,0,"2-9^3-11s.wav",70
Sample,30668,0,"2-7^3-9.wav",70
Sample,31773,0,"basskick.wav",70
Sample,34931,0,"hihat.wav",50
Sample,35089,0,"1-5^2-7^3-7s.wav",70
Sample,36194,0,"hihat.wav",50
Sample,36352,0,"1-0^2-2^3-2s.wav",70
Sample,37457,0,"1-5^2-7^3-7s.wav",70
Sample,37615,0,"1-5^2-7^3-7s.wav",70
Sample,38405,0,"hihat.wav",50
Sample,39352,0,"hihat.wav",50
Sample,39984,0,"1-5^2-7^3-7s.wav",70
Sample,40142,0,"1-5^2-7^3-7s.wav",70
Sample,41247,0,"hihat.wav",50
Sample,41405,0,"1-7^2-9^3-9x.wav",70
Sample,41878,0,"hihat.wav",50
Sample,42510,0,"hihat.wav",50
Sample,42668,0,"2-12^4-14s.wav",70
Sample,43142,0,"hihat.wav",50
Sample,48668,0,"4-9^5-9s.wav",70
Sample,48984,0,"4-9^5-9s.wav",70
Sample,49299,0,"3-11^5-14s.wav",70
Sample,49457,0,"hihat.wav",50
Sample,49931,0,"3-11^5-14s.wav",70
Sample,50089,0,"hihat.wav",50
Sample,50720,0,"hihat.wav",50
Sample,51194,0,"basskick.wav",70
Sample,51510,0,"3-8^5-11s.wav",70
Sample,51826,0,"3-8^5-11s.wav",70
Sample,52142,0,"3-8^5-11s.wav",70
Sample,59405,0,"3-7^5-10s.wav",70
Sample,59720,0,"3-7^5-10s.wav",70
Sample,59878,0,"hihat.wav",50
Sample,60352,0,"3-7^5-10s.wav",70
Sample,61142,0,"hihat.wav",50
Sample,61615,0,"3-4^5-7s.wav",70
Sample,61931,0,"3-6^5-9s.wav",70
Sample,62247,0,"4-4^6-7~4-11^6-14.wav",70
Sample,62878,0,"4-11^6-14s.wav",70
Sample,63510,0,"4-9^6-12s.wav",70
Sample,63668,0,"hihat.wav",50
Sample,64142,0,"3-9^5-12s.wav",70
Sample,64457,0,"4-9^6-12s.wav",70
Sample,64773,0,"4-9^6-12s.wav",70
Sample,64931,0,"hihat.wav",50
Sample,65405,0,"4-9^6-12s.wav",70
Sample,66030,0,"4-10^6-13s.wav",70
Sample,66194,0,"hihat.wav",50
Sample,69984,0,"hihat.wav",50
Sample,70615,0,"hihat.wav",50
Sample,71247,0,"hihat.wav",50
Sample,71720,0,"3-4^5-7s.wav",70
Sample,72036,0,"3-6^5-9s.wav",70
Sample,72352,0,"4-4^6-7~4-11^6-14.wav",70
Sample,72984,0,"4-11^6-14s.wav",70
Sample,73615,0,"4-9^6-12s.wav",70
Sample,73773,0,"hihat.wav",50
Sample,74247,0,"3-9^5-12s.wav",70
Sample,74878,0,"2-4^3-6^4-6s.wav",70
Sample,75510,0,"2-4^3-6^4-6s.wav",70
Sample,76457,0,"5-6s.wav",70
Sample,78036,0,"2-6^3-9^4-8l.wav",70
Sample,78984,0,"2-6^3-9^4-8s.wav",70
Sample,84036,0,"3-8^5-11s.wav",70
Sample,85142,0,"1-7^2-9^3-9x.wav",70
Sample,85457,0,"1-7^2-9^3-9x.wav",70
Sample,87352,0,"hihat.wav",50

[TimingPoints]
1142,315.789473684211,4,2,1,10,1,0
54194,-100,4,2,1,30,0,0
56720,-100,4,2,1,30,0,0
58615,-250,4,2,1,10,0,0
58931,-166.666666666667,4,2,1,10,0,0
59010,-125,4,2,1,10,0,0
59089,-100,4,2,1,10,0,0
59168,-83.3333333333333,4,2,1,10,0,0
59247,-100,4,2,1,10,0,1
79457,-100,4,2,1,10,0,0

[HitObjects]
256,192,1142,5,0,0:0:0:70:1-7^2-9^3-9.wav
475,192,1142,5,0,0:0:0:70:basskick.wav
36,192,1142,1,0,0:0:0:50:drumfinish.wav
182,192,1299,1,0,0:0:0:50:drumclap.wav
402,192,1299,1,0,0:0:0:0:
109,192,1378,1,0,0:0:0:50:drumclap.wav
329,192,1378,1,0,0:0:0:0:
256,192,1457,1,0,0:0:0:50:tom.wav
36,192,1457,1,0,0:0:0:0:
475,192,1457,1,0,0:0:0:70:1-7^2-9^3-9x.wav
109,192,1615,1,0,0:0:0:70:basskick.wav
182,192,1615,1,0,0:0:0:50:hihat.wav
329,192,1615,128,0,1773:0:0:0:70:1-7^2-9^3-9x2.wav
182,192,1931,1,0,0:0:0:70:basskick.wav
256,192,1931,1,0,0:0:0:50:hihat.wav
402,192,1931,128,0,2089:0:0:0:70:1-7^2-9^3-9x2.wav
256,192,2247,128,0,3668:0:0:0:70:2-7^3-9^4-9l.wav
36,192,2247,1,0,0:0:0:50:drumclap.wav
329,192,2247,1,0,0:0:0:0:
475,192,2247,128,0,2720:0:0:0:0:
475,192,3668,1,0,0:0:0:0:
36,192,3668,1,0,0:0:0:70:basskick.wav
182,192,3668,1,0,0:0:0:50:drumfinish.wav
329,192,3668,1,0,0:0:0:70:2-9^3-11^4-11l.wav
402,192,3984,128,0,4299:0:0:0:0:
182,192,4299,128,0,4457:0:0:0:0:
329,192,4457,128,0,4615:0:0:0:0:
109,192,4457,128,0,4615:0:0:0:0:
402,192,4615,128,0,4773:0:0:0:0:
182,192,4615,128,0,4773:0:0:0:0:
475,192,4773,128,0,5089:0:0:0:0:
36,192,4773,128,0,5247:0:0:0:0:
256,192,5089,128,0,5247:0:0:0:0:
329,192,5247,128,0,5405:0:0:0:0:
109,192,5247,128,0,5563:0:0:0:0:
256,192,5405,128,0,5563:0:0:0:0:
36,192,5563,128,0,5878:0:0:0:0:
402,192,5563,128,0,5720:0:0:0:0:
329,192,5720,128,0,5878:0:0:0:0:
475,192,5878,128,0,6036:0:0:0:0:
109,192,6036,1,0,0:0:0:50:cling.wav
402,192,6036,128,0,6194:0:0:0:0:
182,192,6089,1,0,0:0:0:50:cling.wav
256,192,6142,1,0,0:0:0:50:cling.wav
36,192,6194,128,0,7299:0:0:0:0:
329,192,6194,1,0,0:0:0:50:cling.wav
475,192,6194,128,0,6510:0:0:0:0:
182,192,6510,128,0,6826:0:0:0:0:
475,192,6826,128,0,7142:0:0:0:0:
256,192,6984,128,0,7142:0:0:0:0:
329,192,7142,128,0,7299:0:0:0:0:
402,192,7299,128,0,7615:0:0:0:0:
182,192,7457,128,0,7615:0:0:0:0:
475,192,7615,128,0,7773:0:0:0:0:
109,192,7615,128,0,7931:0:0:0:0:
329,192,7773,128,0,7931:0:0:0:0:
256,192,7931,128,0,8247:0:0:0:0:
475,192,8089,128,0,8247:0:0:0:50:hihat.wav
109,192,8089,1,0,0:0:0:70:1-12c.wav
402,192,8247,1,0,0:0:0:70:basskick.wav
182,192,8247,1,0,0:0:0:0:
329,192,8326,1,0,0:0:0:70:basskick.wav
475,192,8405,1,0,0:0:0:50:drumclap.wav
256,192,8405,1,0,0:0:0:0:
36,192,8405,128,0,8720:0:0:0:0:
402,192,8720,128,0,8878:0:0:0:70:4-14.wav
109,192,8720,1,0,0:0:0:70:basskick.wav
475,192,8720,1,0,0:0:0:50:drumfinish.wav
182,192,8720,128,0,9826:0:0:0:0:
256,192,8878,1,0,0:0:0:70:3-14.wav
475,192,9036,128,0,9194:0:0:0:0:
36,192,9036,1,0,0:0:0:50:drumclap.wav
329,192,9036,1,0,0:0:0:70:4-16.wav
109,192,9194,1,0,0:0:0:70:3-14.wav
256,192,9352,128,0,9510:0:0:0:70:4-14.wav
402,192,9352,1,0,0:0:0:70:basskick.wav
475,192,9510,1,0,0:0:0:50:hihat.wav
36,192,9510,128,0,9668:0:0:0:70:3-14.wav
329,192,9668,128,0,9826:0:0:0:70:4-16.wav
109,192,9668,1,0,0:0:0:50:drumclap.wav
402,192,9668,1,0,0:0:0:0:
475,192,9826,128,0,10299:0:0:0:0:
36,192,9826,1,0,0:0:0:50:hihat.wav
256,192,9826,128,0,11247:0:0:0:70:4-14l.wav
109,192,9984,1,0,0:0:0:70:basskick.wav
402,192,10142,1,0,0:0:0:70:4-14.wav
109,192,10299,128,0,10457:0:0:0:70:3-14.wav
329,192,10299,1,0,0:0:0:50:drumclap.wav
36,192,10299,1,0,0:0:0:0:
402,192,10457,1,0,0:0:0:70:4-14.wav
329,192,10615,128,0,10773:0:0:0:70:5-14.wav
475,192,10615,1,0,0:0:0:70:basskick.wav
182,192,10773,1,0,0:0:0:70:4-16.wav
36,192,10931,128,0,11089:0:0:0:70:4-14.wav
402,192,10931,1,0,0:0:0:50:drumclap.wav
109,192,10931,1,0,0:0:0:0:
475,192,11089,128,0,11247:0:0:0:70:3-14.wav
182,192,11089,1,0,0:0:0:50:hihat.wav
402,192,11247,128,0,11405:0:0:0:70:4-14.wav
36,192,11247,1,0,0:0:0:70:basskick.wav
109,192,11247,128,0,12352:0:0:0:0:
182,192,11405,1,0,0:0:0:70:3-14.wav
329,192,11563,128,0,11720:0:0:0:70:4-16.wav
256,192,11563,1,0,0:0:0:50:drumclap.wav
475,192,11563,1,0,0:0:0:0:
182,192,11720,1,0,0:0:0:70:3-14.wav
475,192,11878,128,0,12036:0:0:0:70:4-18.wav
36,192,11878,1,0,0:0:0:70:basskick.wav
329,192,12036,128,0,12194:0:0:0:70:3-14.wav
182,192,12036,1,0,0:0:0:50:hihat.wav
402,192,12194,128,0,12352:0:0:0:70:4-14.wav
256,192,12194,1,0,0:0:0:50:drumclap.wav
36,192,12194,1,0,0:0:0:0:
475,192,12352,128,0,12668:0:0:0:70:3-14l.wav
182,192,12352,1,0,0:0:0:50:hihat.wav
329,192,12510,1,0,0:0:0:70:basskick.wav
36,192,12668,128,0,12826:0:0:0:70:4-14.wav
256,192,12668,1,0,0:0:0:50:hihat.wav
402,192,12826,128,0,12984:0:0:0:70:3-14.wav
475,192,12826,1,0,0:0:0:50:drumclap.wav
109,192,12826,1,0,0:0:0:0:
182,192,12984,128,0,13142:0:0:0:70:4-14.wav
328,192,12984,1,0,0:0:0:50:hihat.wav
402,192,13142,128,0,13299:0:0:0:70:5-14.wav
36,192,13142,1,0,0:0:0:50:drumclap.wav
109,192,13142,1,0,0:0:0:0:
329,192,13299,128,0,13457:0:0:0:70:4-14.wav
475,192,13299,1,0,0:0:0:50:drumclap.wav
182,192,13378,1,0,0:0:0:50:drumclap.wav
256,192,13457,128,0,13615:0:0:0:70:4-16.wav
402,192,13457,1,0,0:0:0:70:basskick.wav
109,192,13536,1,0,0:0:0:50:drumclap.wav
182,192,13615,128,0,13773:0:0:0:70:3-14.wav
329,192,13615,1,0,0:0:0:50:drumclap.wav
36,192,13694,1,0,0:0:0:50:drumclap.wav
475,192,13773,1,0,0:0:0:70:3-14^4-14^5-14l.wav
402,192,13773,1,0,0:0:0:70:basskick.wav
256,192,13773,1,0,0:0:0:50:drumfinish.wav
329,192,13931,1,0,0:0:0:0:
329,192,14089,1,0,0:0:0:0:
182,192,14089,1,0,0:0:0:50:hihat.wav
329,192,14247,1,0,0:0:0:0:
329,192,14405,1,0,0:0:0:0:
182,192,14405,1,0,0:0:0:50:hihat.wav
329,192,14563,1,0,0:0:0:0:
329,192,14720,1,0,0:0:0:0:
182,192,14720,1,0,0:0:0:50:hihat.wav
329,192,14878,1,0,0:0:0:0:
109,192,15036,1,0,0:0:0:0:
402,192,15036,1,0,0:0:0:50:hihat.wav
109,192,15194,1,0,0:0:0:0:
109,192,15352,1,0,0:0:0:0:
402,192,15352,1,0,0:0:0:50:hihat.wav
109,192,15510,1,0,0:0:0:0:
109,192,15668,1,0,0:0:0:0:
402,192,15668,1,0,0:0:0:50:hihat.wav
109,192,15826,1,0,0:0:0:0:
109,192,15984,1,0,0:0:0:0:
402,192,15984,1,0,0:0:0:50:hihat.wav
182,192,16142,1,0,0:0:0:0:
329,192,16142,1,0,0:0:0:70:basskick.wav
475,192,16299,1,0,0:0:0:0:
36,192,16299,1,0,0:0:0:70:basskick.wav
256,192,16299,1,0,0:0:0:50:hihat.wav
475,192,16457,1,0,0:0:0:0:
475,192,16615,1,0,0:0:0:0:
36,192,16615,1,0,0:0:0:50:hihat.wav
475,192,16773,1,0,0:0:0:0:
475,192,16931,1,0,0:0:0:0:
36,192,16931,1,0,0:0:0:50:hihat.wav
475,192,17089,1,0,0:0:0:0:
475,192,17247,1,0,0:0:0:0:
36,192,17247,1,0,0:0:0:50:hihat.wav
475,192,17405,1,0,0:0:0:0:
109,192,17563,1,0,0:0:0:0:
402,192,17563,1,0,0:0:0:50:hihat.wav
109,192,17720,1,0,0:0:0:0:
109,192,17878,1,0,0:0:0:0:
402,192,17878,1,0,0:0:0:50:hihat.wav
109,192,18036,1,0,0:0:0:0:
109,192,18194,1,0,0:0:0:70:1-12c.wav
402,192,18194,1,0,0:0:0:50:hihat.wav
36,192,18352,1,0,0:0:0:0:
475,192,18352,1,0,0:0:0:70:basskick.wav
402,192,18431,1,0,0:0:0:70:basskick.wav
109,192,18431,1,0,0:0:0:0:
36,192,18510,1,0,0:0:0:0:
329,192,18510,1,0,0:0:0:50:drumclap.wav
182,192,18510,1,0,0:0:0:50:drumfinish.wav
475,192,18510,1,0,0:0:0:0:
475,192,18826,1,0,0:0:0:70:3-9s.wav
36,192,18826,1,0,0:0:0:70:basskick.wav
256,192,18826,1,0,0:0:0:50:drumfinish.wav
109,192,18826,128,0,19457:0:0:0:0:
329,192,19063,1,0,0:0:0:0:
402,192,19063,1,0,0:0:0:50:drumclap.wav
182,192,19142,1,0,0:0:0:70:basskick.wav
475,192,19299,1,0,0:0:0:50:drumclap.wav
402,192,19299,1,0,0:0:0:70:3-9s.wav
36,192,19457,1,0,0:0:0:70:3-9s.wav
256,192,19457,1,0,0:0:0:70:basskick.wav
182,192,19457,128,0,20089:0:0:0:0:
402,192,19615,1,0,0:0:0:50:drumclap.wav
329,192,19615,1,0,0:0:0:70:3-9s.wav
109,192,19773,1,0,0:0:0:70:basskick.wav
475,192,19931,1,0,0:0:0:50:drumclap.wav
36,192,19931,1,0,0:0:0:70:3-9s.wav
402,192,20010,1,0,0:0:0:50:drumclap.wav
109,192,20010,1,0,0:0:0:0:
36,192,20089,1,0,0:0:0:70:3-11s.wav
329,192,20089,1,0,0:0:0:70:basskick.wav
256,192,20089,128,0,20720:0:0:0:0:
475,192,20247,1,0,0:0:0:50:drumclap.wav
109,192,20247,1,0,0:0:0:70:3-11s.wav
402,192,20326,1,0,0:0:0:50:drumclap.wav
109,192,20326,1,0,0:0:0:0:
475,192,20405,1,0,0:0:0:70:basskick.wav
329,192,20563,1,0,0:0:0:50:drumclap.wav
36,192,20563,1,0,0:0:0:70:3-11s.wav
402,192,20642,1,0,0:0:0:50:drumclap.wav
109,192,20642,1,0,0:0:0:0:
475,192,20720,1,0,0:0:0:70:3-11s.wav
182,192,20720,1,0,0:0:0:70:basskick.wav
329,192,20720,128,0,21352:0:0:0:0:
109,192,20878,1,0,0:0:0:50:drumclap.wav
402,192,20878,1,0,0:0:0:70:3-11s.wav
182,192,20957,1,0,0:0:0:50:drumclap.wav
402,192,20957,1,0,0:0:0:0:
109,192,21036,1,0,0:0:0:70:basskick.wav
36,192,21194,1,0,0:0:0:50:drumclap.wav
256,192,21194,1,0,0:0:0:70:3-11s.wav
182,192,21273,1,0,0:0:0:50:drumclap.wav
402,192,21273,1,0,0:0:0:0:
36,192,21352,1,0,0:0:0:70:3-13s.wav
475,192,21352,1,0,0:0:0:70:basskick.wav
109,192,21352,128,0,22457:0:0:0:0:
475,192,21510,1,0,0:0:0:50:drumclap.wav
182,192,21510,1,0,0:0:0:70:3-13s.wav
402,192,21589,1,0,0:0:0:50:drumclap.wav
256,192,21589,1,0,0:0:0:0:
329,192,21668,1,0,0:0:0:70:basskick.wav
402,192,21826,1,0,0:0:0:50:drumclap.wav
36,192,21826,1,0,0:0:0:70:3-13s.wav
329,192,21905,1,0,0:0:0:50:drumclap.wav
182,192,21905,1,0,0:0:0:0:
256,192,21984,1,0,0:0:0:70:basskick.wav
329,192,22142,1,0,0:0:0:50:drumclap.wav
182,192,22142,1,0,0:0:0:70:3-13s.wav
475,192,22220,1,0,0:0:0:50:drumclap.wav
36,192,22220,1,0,0:0:0:0:
182,192,22299,1,0,0:0:0:50:drumclap.wav
329,192,22299,1,0,0:0:0:70:3-13s.wav
475,192,22378,1,0,0:0:0:50:drumclap.wav
36,192,22378,1,0,0:0:0:0:
329,192,22457,1,0,0:0:0:70:3-11^4-10^5-9.wav
256,192,22457,1,0,0:0:0:70:basskick.wav
182,192,22457,1,0,0:0:0:50:drumfinish.wav
475,192,22773,128,0,22931:0:0:0:0:
256,192,22931,128,0,23089:0:0:0:0:
402,192,23089,128,0,23247:0:0:0:0:
182,192,23247,128,0,23405:0:0:0:0:
36,192,23247,1,0,0:0:0:70:basskick.wav
256,192,23405,1,0,0:0:0:70:basskick.wav
329,192,23405,128,0,23563:0:0:0:0:
182,192,23563,1,0,0:0:0:50:drumclap.wav
475,192,23563,1,0,0:0:0:0:
402,192,23720,128,0,24036:0:0:0:70:2-9l.wav
109,192,23720,1,0,0:0:0:70:basskick.wav
256,192,23720,1,0,0:0:0:50:drumfinish.wav
36,192,23720,1,0,0:0:0:0:
475,192,24036,1,0,0:0:0:70:2-9.wav
329,192,24036,1,0,0:0:0:70:basskick.wav
109,192,24194,1,0,0:0:0:50:drumclap.wav
256,192,24194,1,0,0:0:0:50:hihat.wav
36,192,24194,128,0,24352:0:0:0:70:3-9.wav
329,192,24352,1,0,0:0:0:70:2-11.wav
402,192,24510,1,0,0:0:0:70:basskick.wav
256,192,24510,1,0,0:0:0:50:hihat.wav
182,192,24510,128,0,24668:0:0:0:70:3-11.wav
36,192,24668,1,0,0:0:0:70:basskick.wav
475,192,24668,1,0,0:0:0:70:2-11.wav
256,192,24826,1,0,0:0:0:50:drumclap.wav
109,192,24826,1,0,0:0:0:50:hihat.wav
329,192,24826,128,0,24984:0:0:0:70:4-9.wav
182,192,24984,1,0,0:0:0:70:2-9.wav
36,192,25142,1,0,0:0:0:70:basskick.wav
402,192,25142,1,0,0:0:0:50:hihat.wav
475,192,25142,128,0,25299:0:0:0:70:4-11.wav
329,192,25299,1,0,0:0:0:70:basskick.wav
109,192,25299,1,0,0:0:0:70:2-11.wav
36,192,25457,1,0,0:0:0:50:drumclap.wav
402,192,25457,1,0,0:0:0:50:hihat.wav
182,192,25457,128,0,25615:0:0:0:70:3-9.wav
329,192,25615,1,0,0:0:0:70:2-9.wav
109,192,25773,1,0,0:0:0:70:basskick.wav
256,192,25773,1,0,0:0:0:50:hihat.wav
402,192,25773,128,0,25931:0:0:0:70:3-11.wav
182,192,25931,1,0,0:0:0:70:basskick.wav
329,192,25931,1,0,0:0:0:70:2-11.wav
36,192,26089,1,0,0:0:0:50:drumclap.wav
256,192,26089,1,0,0:0:0:50:hihat.wav
475,192,26089,128,0,26247:0:0:0:70:4-9.wav
182,192,26247,1,0,0:0:0:70:2-9.wav
109,192,26405,1,0,0:0:0:70:basskick.wav
402,192,26405,1,0,0:0:0:70:3-9s.wav
329,192,26563,1,0,0:0:0:70:4-9.wav
182,192,26563,1,0,0:0:0:0:
256,192,26720,1,0,0:0:0:50:drumclap.wav
402,192,26720,1,0,0:0:0:50:hihat.wav
36,192,26720,128,0,26878:0:0:0:70:5-9s.wav
475,192,26878,128,0,27036:0:0:0:70:5-10~5-9.wav
109,192,26878,1,0,0:0:0:0:
36,192,27036,1,0,0:0:0:70:basskick.wav
329,192,27036,1,0,0:0:0:50:hihat.wav
256,192,27036,128,0,27194:0:0:0:0:
182,192,27194,1,0,0:0:0:70:basskick.wav
402,192,27194,128,0,27352:0:0:0:70:2-11.wav
36,192,27352,128,0,27510:0:0:0:70:4-9.wav
109,192,27352,1,0,0:0:0:50:drumclap.wav
329,192,27352,1,0,0:0:0:50:hihat.wav
475,192,27510,128,0,27668:0:0:0:70:3-9.wav
329,192,27668,128,0,27826:0:0:0:70:3-7s.wav
256,192,27668,1,0,0:0:0:70:basskick.wav
109,192,27668,1,0,0:0:0:50:hihat.wav
36,192,27826,128,0,27984:0:0:0:70:4-6s.wav
402,192,27826,1,0,0:0:0:70:basskick.wav
109,192,27984,128,0,28142:0:0:0:70:5-5s.wav
256,192,27984,1,0,0:0:0:50:drumclap.wav
475,192,27984,1,0,0:0:0:50:hihat.wav
402,192,28142,128,0,28299:0:0:0:70:6-5.wav
475,192,28299,128,0,28457:0:0:0:70:5-5.wav
256,192,28299,1,0,0:0:0:70:basskick.wav
36,192,28299,1,0,0:0:0:50:hihat.wav
329,192,28457,128,0,28615:0:0:0:70:4-6.wav
109,192,28457,1,0,0:0:0:70:basskick.wav
36,192,28615,128,0,28773:0:0:0:70:3-7s.wav
402,192,28615,1,0,0:0:0:50:drumclap.wav
256,192,28615,1,0,0:0:0:50:hihat.wav
182,192,28773,1,0,0:0:0:50:drumclap.wav
475,192,28773,1,0,0:0:0:0:
109,192,28852,1,0,0:0:0:50:drumclap.wav
402,192,28852,1,0,0:0:0:0:
256,192,28931,128,0,29563:0:0:0:70:2-9^3-11s.wav
329,192,28931,1,0,0:0:0:70:basskick.wav
36,192,28931,1,0,0:0:0:50:drumfinish.wav
109,192,29247,1,0,0:0:0:50:drumclap.wav
402,192,29247,1,0,0:0:0:50:drumfinish.wav
36,192,29247,1,0,0:0:0:70:2-9^3-11s.wav
402,192,29563,128,0,30194:0:0:0:70:2-9^3-11s.wav
182,192,29563,1,0,0:0:0:70:basskick.wav
329,192,29563,1,0,0:0:0:0:
182,192,29720,1,0,0:0:0:70:basskick.wav
329,192,29720,1,0,0:0:0:70:2-9^3-11s.wav
475,192,29878,1,0,0:0:0:70:2-9^3-11s.wav
109,192,29878,1,0,0:0:0:50:drumclap.wav
36,192,29878,1,0,0:0:0:0:
329,192,30194,128,0,30826:0:0:0:70:2-7^3-9.wav
36,192,30194,1,0,0:0:0:70:basskick.wav
256,192,30194,1,0,0:0:0:0:
36,192,30352,1,0,0:0:0:70:basskick.wav
256,192,30352,1,0,0:0:0:70:2-7^3-9.wav
109,192,30510,1,0,0:0:0:50:drumclap.wav
182,192,30510,1,0,0:0:0:70:2-7^3-9.wav
475,192,30510,1,0,0:0:0:0:
475,192,30826,128,0,31457:0:0:0:70:2-7^3-9.wav
182,192,30826,1,0,0:0:0:70:basskick.wav
402,192,30826,1,0,0:0:0:0:
182,192,30984,1,0,0:0:0:70:basskick.wav
402,192,30984,1,0,0:0:0:70:2-7^3-9.wav
109,192,31142,1,0,0:0:0:50:drumclap.wav
329,192,31142,1,0,0:0:0:50:drumfinish.wav
36,192,31142,1,0,0:0:0:70:2-7^3-9l.wav
182,192,31299,1,0,0:0:0:0:
402,192,31457,128,0,32720:0:0:0:70:2-9^4-11.wav
36,192,31457,1,0,0:0:0:50:drumclap.wav
256,192,31457,1,0,0:0:0:50:drumfinish.wav
329,192,31615,1,0,0:0:0:50:drumclap.wav
475,192,31615,1,0,0:0:0:0:
182,192,31694,1,0,0:0:0:50:drumclap.wav
256,192,31694,1,0,0:0:0:0:
36,192,31773,1,0,0:0:0:70:2-9^4-11s.wav
109,192,31773,1,0,0:0:0:0:
329,192,31931,1,0,0:0:0:50:drumclap.wav
475,192,31931,1,0,0:0:0:70:2-14^4-16.wav
256,192,32010,1,0,0:0:0:50:drumclap.wav
182,192,32010,1,0,0:0:0:0:
109,192,32089,1,0,0:0:0:70:basskick.wav
36,192,32089,1,0,0:0:0:0:
475,192,32247,1,0,0:0:0:50:drumclap.wav
329,192,32247,1,0,0:0:0:70:2-14^4-16s.wav
256,192,32326,1,0,0:0:0:50:drumclap.wav
182,192,32326,1,0,0:0:0:0:
109,192,32405,1,0,0:0:0:70:2-14^4-16s.wav
36,192,32405,1,0,0:0:0:70:basskick.wav
182,192,32563,1,0,0:0:0:70:basskick.wav
329,192,32563,1,0,0:0:0:70:2-9^4-11s.wav
36,192,32720,1,0,0:0:0:70:2-11^4-13s.wav
109,192,32720,1,0,0:0:0:50:drumclap.wav
256,192,32720,1,0,0:0:0:50:tom.wav
402,192,32878,1,0,0:0:0:70:2-11^4-13s.wav
182,192,32878,1,0,0:0:0:50:tom.wav
475,192,32878,1,0,0:0:0:50:drumclap.wav
36,192,33036,128,0,33510:0:0:0:0:
402,192,33036,1,0,0:0:0:50:tom.wav
109,192,33036,1,0,0:0:0:50:drumclap.wav
329,192,33036,1,0,0:0:0:70:2-11^4-13s.wav
402,192,33352,128,0,33510:0:0:0:0:
182,192,33510,1,0,0:0:0:0:
256,192,33668,128,0,33984:0:0:0:70:1-12^2-12l.wav
182,192,33984,128,0,34457:0:0:0:70:1-2^2-4^3-4.wav
109,192,33984,1,0,0:0:0:70:basskick.wav
329,192,33984,1,0,0:0:0:50:drumfinish.wav
475,192,33984,1,0,0:0:0:0:
402,192,34299,1,0,0:0:0:70:1-2^2-4^3-4s.wav
36,192,34457,1,0,0:0:0:70:basskick.wav
256,192,34457,1,0,0:0:0:70:1-2^2-4^3-4s.wav
329,192,34615,128,0,34773:0:0:0:70:1-2^2-4^3-4~1-5^2-7^3-7.wav
109,192,34615,1,0,0:0:0:50:drumclap.wav
475,192,34615,1,0,0:0:0:50:hihat.wav
402,192,34773,128,0,35247:0:0:0:0:
36,192,34773,1,0,0:0:0:70:basskick.wav
182,192,34931,1,0,0:0:0:70:1-5^2-7^3-7s.wav
256,192,35247,128,0,35405:0:0:0:70:1-5^2-7^3-7~1-7^2-9^3-9.wav
36,192,35247,1,0,0:0:0:70:basskick.wav
329,192,35247,1,0,0:0:0:50:hihat.wav
475,192,35405,128,0,35878:0:0:0:0:
182,192,35405,1,0,0:0:0:50:drumclap.wav
109,192,35405,1,0,0:0:0:0:
329,192,35563,1,0,0:0:0:50:hihat.wav
182,192,35720,1,0,0:0:0:70:basskick.wav
36,192,35720,1,0,0:0:0:70:1-7^2-9^3-9s.wav
329,192,35878,128,0,36036:0:0:0:70:1-7^2-9^3-9s.wav
109,192,35878,1,0,0:0:0:50:drumclap.wav
256,192,35878,1,0,0:0:0:50:hihat.wav
182,192,36036,128,0,36510:0:0:0:70:1-0^2-2^3-2s.wav
402,192,36036,1,0,0:0:0:70:basskick.wav
475,192,36194,1,0,0:0:0:70:1-0^2-2^3-2s.wav
36,192,36510,128,0,36984:0:0:0:70:1-2^2-4^3-4.wav
402,192,36510,1,0,0:0:0:70:basskick.wav
256,192,36510,1,0,0:0:0:50:drumfinish.wav
109,192,36510,1,0,0:0:0:0:
182,192,36826,1,0,0:0:0:70:1-2^2-4^3-4s.wav
475,192,36984,1,0,0:0:0:70:basskick.wav
256,192,36984,1,0,0:0:0:70:1-2^2-4^3-4s.wav
182,192,37142,128,0,37299:0:0:0:70:1-2^2-4^3-4~1-5^2-7^3-7.wav
109,192,37142,1,0,0:0:0:50:drumclap.wav
402,192,37142,1,0,0:0:0:50:hihat.wav
256,192,37299,128,0,37773:0:0:0:0:
475,192,37299,1,0,0:0:0:70:basskick.wav
109,192,37457,1,0,0:0:0:50:hihat.wav
402,192,37773,128,0,37931:0:0:0:70:1-5^2-7^3-7~1-7^2-9^3-9.wav
36,192,37773,1,0,0:0:0:70:basskick.wav
182,192,37773,1,0,0:0:0:50:hihat.wav
475,192,37931,128,0,38405:0:0:0:0:
109,192,37931,1,0,0:0:0:50:drumclap.wav
329,192,37931,1,0,0:0:0:0:
36,192,38089,1,0,0:0:0:70:basskick.wav
256,192,38089,1,0,0:0:0:50:hihat.wav
329,192,38247,1,0,0:0:0:70:1-7^2-9^3-9s.wav
109,192,38326,1,0,0:0:0:50:drumclap.wav
182,192,38326,1,0,0:0:0:0:
329,192,38405,1,0,0:0:0:50:drumclap.wav
402,192,38405,1,0,0:0:0:70:1-0^2-2^3-2ss.wav
256,192,38563,128,0,39036:0:0:0:0:
109,192,38563,1,0,0:0:0:50:drumclap.wav
36,192,38563,1,0,0:0:0:70:1-0^2-2^3-2ss.wav
475,192,38720,1,0,0:0:0:50:drumclap.wav
402,192,38720,1,0,0:0:0:70:1-0^2-2^3-2ss.wav
329,192,38878,1,0,0:0:0:50:drumclap.wav
182,192,38878,1,0,0:0:0:70:1-0^2-2^3-2ss.wav
109,192,39036,128,0,39510:0:0:0:70:1-2^2-4^3-4.wav
475,192,39036,1,0,0:0:0:70:basskick.wav
402,192,39036,1,0,0:0:0:50:drumfinish.wav
36,192,39036,1,0,0:0:0:0:
402,192,39352,1,0,0:0:0:70:1-2^2-4^3-4s.wav
182,192,39510,1,0,0:0:0:70:basskick.wav
475,192,39510,1,0,0:0:0:70:1-2^2-4^3-4s.wav
329,192,39668,128,0,39826:0:0:0:70:1-2^2-4^3-4~1-5^2-7^3-7.wav
36,192,39668,1,0,0:0:0:50:drumclap.wav
256,192,39668,1,0,0:0:0:50:hihat.wav
402,192,39826,128,0,40299:0:0:0:0:
182,192,39826,1,0,0:0:0:70:basskick.wav
109,192,39984,1,0,0:0:0:50:hihat.wav
329,192,40299,128,0,40457:0:0:0:70:1-5^2-7^3-7~1-7^2-9^3-9.wav
36,192,40299,1,0,0:0:0:70:basskick.wav
475,192,40457,128,0,40931:0:0:0:0:
109,192,40457,1,0,0:0:0:50:drumclap.wav
256,192,40457,1,0,0:0:0:0:
182,192,40615,1,0,0:0:0:50:hihat.wav
36,192,40773,1,0,0:0:0:70:basskick.wav
329,192,40773,1,0,0:0:0:70:1-7^2-9^3-9s.wav
182,192,40931,128,0,41089:0:0:0:0:
109,192,40931,1,0,0:0:0:50:drumclap.wav
402,192,40931,1,0,0:0:0:70:1-7^2-9^3-9x.wav
329,192,41089,128,0,41405:0:0:0:70:1-7^2-9^3-9x.wav
36,192,41089,1,0,0:0:0:70:basskick.wav
182,192,41247,1,0,0:0:0:70:1-7^2-9^3-9x.wav
109,192,41405,1,0,0:0:0:0:
182,192,41484,1,0,0:0:0:0:
475,192,41563,128,0,42826:0:0:0:70:2-11^4-14.wav
36,192,41563,1,0,0:0:0:70:basskick.wav
402,192,41563,1,0,0:0:0:50:drumfinish.wav
256,192,41563,1,0,0:0:0:0:
402,192,41878,1,0,0:0:0:70:2-12^4-14s.wav
36,192,42036,1,0,0:0:0:70:basskick.wav
256,192,42036,1,0,0:0:0:70:2-11^4-14.wav
109,192,42194,1,0,0:0:0:50:drumclap.wav
182,192,42194,1,0,0:0:0:50:hihat.wav
329,192,42194,1,0,0:0:0:0:
36,192,42352,1,0,0:0:0:70:basskick.wav
256,192,42352,1,0,0:0:0:70:2-12^4-14s.wav
182,192,42510,128,0,42826:0:0:0:70:2-12^4-14s.wav
256,192,42826,128,0,44089:0:0:0:70:2-11^4-13.wav
36,192,42826,1,0,0:0:0:70:basskick.wav
402,192,42826,1,0,0:0:0:50:hihat.wav
329,192,42984,1,0,0:0:0:0:
109,192,42984,1,0,0:0:0:50:drumclap.wav
475,192,42984,1,0,0:0:0:0:
36,192,43142,1,0,0:0:0:70:basskick.wav
182,192,43142,1,0,0:0:0:70:2-11^4-14.wav
109,192,43299,1,0,0:0:0:50:drumclap.wav
402,192,43299,1,0,0:0:0:0:
475,192,43378,1,0,0:0:0:50:drumclap.wav
329,192,43378,1,0,0:0:0:0:
182,192,43457,1,0,0:0:0:70:2-11^4-13.wav
36,192,43457,1,0,0:0:0:70:basskick.wav
109,192,43615,1,0,0:0:0:50:tom.wav
402,192,43615,1,0,0:0:0:0:
182,192,43773,1,0,0:0:0:50:tom.wav
475,192,43773,1,0,0:0:0:70:2-9^4-11.wav
109,192,43931,1,0,0:0:0:50:tom.wav
402,192,43931,1,0,0:0:0:0:
475,192,44089,1,0,0:0:0:0:
36,192,44089,1,0,0:0:0:70:basskick.wav
182,192,44089,1,0,0:0:0:50:drumfinish.wav
329,192,44089,1,0,0:0:0:50:4-9s.wav
109,192,44247,1,0,0:0:0:50:3-7s.wav
402,192,44405,1,0,0:0:0:50:3-9s.wav
36,192,44405,1,0,0:0:0:50:hihat.wav
329,192,44563,1,0,0:0:0:50:3-7s.wav
475,192,44720,1,0,0:0:0:50:4-9s.wav
36,192,44720,1,0,0:0:0:50:hihat.wav
256,192,44878,1,0,0:0:0:50:3-7s.wav
329,192,45036,1,0,0:0:0:50:3-9s.wav
36,192,45036,1,0,0:0:0:50:hihat.wav
182,192,45194,1,0,0:0:0:50:3-7s.wav
402,192,45352,1,0,0:0:0:50:4-9s.wav
36,192,45352,1,0,0:0:0:50:hihat.wav
256,192,45510,1,0,0:0:0:50:3-7s.wav
36,192,45668,1,0,0:0:0:50:3-9s.wav
329,192,45668,1,0,0:0:0:50:hihat.wav
182,192,45826,1,0,0:0:0:50:3-7s.wav
402,192,45984,1,0,0:0:0:50:4-9s.wav
36,192,45984,1,0,0:0:0:50:hihat.wav
256,192,46142,1,0,0:0:0:50:3-7s.wav
36,192,46299,1,0,0:0:0:50:3-9s.wav
475,192,46299,1,0,0:0:0:50:hihat.wav
329,192,46457,1,0,0:0:0:50:3-7s.wav
109,192,46457,1,0,0:0:0:70:basskick.wav
402,192,46615,1,0,0:0:0:50:4-9s.wav
36,192,46615,1,0,0:0:0:70:basskick.wav
256,192,46615,1,0,0:0:0:50:hihat.wav
182,192,46773,1,0,0:0:0:50:3-7s.wav
109,192,46931,1,0,0:0:0:50:3-9s.wav
475,192,46931,1,0,0:0:0:50:hihat.wav
256,192,47089,1,0,0:0:0:50:3-7s.wav
329,192,47247,1,0,0:0:0:50:4-9s.wav
475,192,47247,1,0,0:0:0:50:hihat.wav
182,192,47405,1,0,0:0:0:50:3-7s.wav
256,192,47563,1,0,0:0:0:50:3-9s.wav
475,192,47563,1,0,0:0:0:50:hihat.wav
109,192,47720,1,0,0:0:0:50:3-7s.wav
182,192,47878,1,0,0:0:0:50:4-9s.wav
475,192,47878,1,0,0:0:0:50:hihat.wav
36,192,48036,1,0,0:0:0:50:3-7s.wav
109,192,48194,1,0,0:0:0:50:4-6s.wav
475,192,48194,1,0,0:0:0:50:hihat.wav
256,192,48352,1,0,0:0:0:50:3-7s.wav
475,192,48510,1,0,0:0:0:0:
109,192,48510,1,0,0:0:0:50:drumclap.wav
329,192,48510,1,0,0:0:0:70:4-9^5-9s.wav
36,192,48615,1,0,0:0:0:50:drumclap.wav
402,192,48615,1,0,0:0:0:0:
182,192,48615,1,0,0:0:0:0:
256,192,48720,1,0,0:0:0:50:tom.wav
475,192,48720,1,0,0:0:0:0:
402,192,48826,1,0,0:0:0:70:4-9^5-9s.wav
182,192,48826,1,0,0:0:0:50:tom.wav
109,192,48931,1,0,0:0:0:50:tom.wav
329,192,48931,1,0,0:0:0:0:
36,192,49036,1,0,0:0:0:50:tom.wav
256,192,49036,1,0,0:0:0:0:
475,192,49142,128,0,50405:0:0:0:70:3-11^5-14s.wav
329,192,49142,1,0,0:0:0:70:basskick.wav
182,192,49142,1,0,0:0:0:50:drumfinish.wav
402,192,49142,1,0,0:0:0:0:
329,192,49457,1,0,0:0:0:70:3-11^5-14s.wav
36,192,49615,1,0,0:0:0:70:basskick.wav
182,192,49615,1,0,0:0:0:70:3-11^5-14s.wav
402,192,49773,1,0,0:0:0:70:3-11^5-14s.wav
109,192,49773,1,0,0:0:0:50:drumclap.wav
256,192,49773,1,0,0:0:0:50:drumfinish.wav
329,192,50089,1,0,0:0:0:70:3-11^5-14~3-9^5-12.wav
402,192,50405,128,0,51668:0:0:0:70:3-9^5-12s.wav
36,192,50405,1,0,0:0:0:70:basskick.wav
256,192,50405,1,0,0:0:0:50:hihat.wav
109,192,50563,1,0,0:0:0:50:drumclap.wav
329,192,50563,1,0,0:0:0:70:3-9^5-12s.wav
182,192,50563,1,0,0:0:0:0:
256,192,50720,1,0,0:0:0:70:3-9^5-12s.wav
36,192,50878,1,0,0:0:0:70:basskick.wav
182,192,50878,1,0,0:0:0:70:3-9^5-12s.wav
475,192,51036,1,0,0:0:0:70:3-9^5-12s.wav
109,192,51036,1,0,0:0:0:50:drumclap.wav
329,192,51036,1,0,0:0:0:50:hihat.wav
256,192,51194,1,0,0:0:0:70:3-9^5-12s.wav
36,192,51352,1,0,0:0:0:50:drumclap.wav
329,192,51352,1,0,0:0:0:50:hihat.wav
182,192,51352,1,0,0:0:0:70:3-9^5-12s.wav
475,192,51668,1,0,0:0:0:0:
36,192,51668,1,0,0:0:0:70:basskick.wav
256,192,51668,1,0,0:0:0:50:drumfinish.wav
109,192,51668,1,0,0:0:0:70:3-8^5-11s.wav
36,192,51984,1,0,0:0:0:70:basskick.wav
256,192,51984,1,0,0:0:0:70:3-8^5-11s.wav
36,192,52299,1,0,0:0:0:70:basskick.wav
329,192,52299,1,0,0:0:0:70:3-8^5-11s.wav
36,192,52457,1,0,0:0:0:70:basskick.wav
329,192,52457,1,0,0:0:0:70:3-8^5-11s.wav
182,192,52615,1,0,0:0:0:70:basskick.wav
475,192,52615,1,0,0:0:0:70:3-8^5-11s.wav
36,192,52773,1,0,0:0:0:70:basskick.wav
329,192,52773,1,0,0:0:0:70:3-4^5-7s.wav
109,192,52931,1,0,0:0:0:50:drumclap.wav
402,192,52931,1,0,0:0:0:70:3-4^5-7s.wav
109,192,53089,1,0,0:0:0:50:drumclap.wav
402,192,53089,1,0,0:0:0:70:3-4^5-7s.wav
475,192,53247,1,0,0:0:0:0:
36,192,53247,1,0,0:0:0:50:drumclap.wav
329,192,53247,1,0,0:0:0:70:3-4^5-7s.wav
402,192,53405,1,0,0:0:0:0:
109,192,53405,1,0,0:0:0:50:drumclap.wav
256,192,53405,1,0,0:0:0:70:3-4^5-7s.wav
36,192,53563,1,0,0:0:0:0:
475,192,53563,1,0,0:0:0:50:drumclap.wav
182,192,53563,1,0,0:0:0:70:3-4^5-7s.wav
402,192,53720,1,0,0:0:0:0:
109,192,53720,1,0,0:0:0:50:drumclap.wav
256,192,53720,1,0,0:0:0:70:3-4^5-7s.wav
36,192,53878,1,0,0:0:0:0:
329,192,53878,1,0,0:0:0:50:drumclap.wav
475,192,53878,1,0,0:0:0:70:3-4^5-7s.wav
109,192,54036,1,0,0:0:0:0:
256,192,54036,1,0,0:0:0:50:drumclap.wav
402,192,54036,1,0,0:0:0:70:3-4^5-7s.wav
36,192,54194,1,0,0:0:0:0:
109,192,54352,1,0,0:0:0:0:
256,192,54510,1,0,0:0:0:0:
402,192,54668,1,0,0:0:0:0:
475,192,54826,1,0,0:0:0:0:
36,192,54984,1,0,0:0:0:0:
256,192,55142,1,0,0:0:0:0:
109,192,55299,1,0,0:0:0:0:
329,192,55457,1,0,0:0:0:0:
475,192,55615,1,0,0:0:0:0:
402,192,55773,1,0,0:0:0:0:
256,192,55931,1,0,0:0:0:0:
109,192,56089,1,0,0:0:0:0:
36,192,56247,1,0,0:0:0:0:
475,192,56405,1,0,0:0:0:50:drumclap.wav
329,192,56405,1,0,0:0:0:0:
109,192,56405,1,0,0:0:0:0:
256,192,56484,1,0,0:0:0:50:tom.wav
36,192,56484,1,0,0:0:0:0:
182,192,56563,1,0,0:0:0:50:tom.wav
402,192,56563,1,0,0:0:0:0:
329,192,56642,1,0,0:0:0:0:
109,192,56642,1,0,0:0:0:50:tom.wav
36,192,56720,1,0,0:0:0:70:2-5^3-7^4-7.wav
475,192,56720,1,0,0:0:0:50:drumclap.wav
256,192,56720,1,0,0:0:0:50:drumfinish.wav
182,192,56878,1,0,0:0:0:70:basskick.wav
402,192,56878,1,0,0:0:0:0:
36,192,57036,1,0,0:0:0:70:basskick.wav
256,192,57036,1,0,0:0:0:70:2-5^3-7^4-7x.wav
475,192,57194,1,0,0:0:0:0:
109,192,57194,1,0,0:0:0:50:tom.wav
329,192,57194,1,0,0:0:0:70:1-4^2-6^3-6.wav
109,192,57510,1,0,0:0:0:50:tom.wav
329,192,57510,1,0,0:0:0:0:
256,192,57510,1,0,0:0:0:70:1-4^2-6^3-6s.wav
36,192,57668,1,0,0:0:0:70:basskick.wav
182,192,57668,1,0,0:0:0:70:1-4^2-6^3-6s.wav
109,192,57826,1,0,0:0:0:50:drumclap.wav
256,192,57826,1,0,0:0:0:50:drumfinish.wav
475,192,57826,1,0,0:0:0:0:
402,192,57826,1,0,0:0:0:70:2-4^3-6^4-6l.wav
36,192,58142,1,0,0:0:0:50:drumclap.wav
402,192,58142,1,0,0:0:0:0:
109,192,58142,1,0,0:0:0:70:2-4^3-6^4-6s.wav
475,192,58142,1,0,0:0:0:0:
36,192,58299,1,0,0:0:0:50:drumclap.wav
109,192,58299,1,0,0:0:0:70:2-4^3-6^4-6s.wav
402,192,58299,1,0,0:0:0:0:
475,192,58299,1,0,0:0:0:0:
109,192,58457,1,0,0:0:0:50:drumclap.wav
36,192,58457,1,0,0:0:0:0:
402,192,58457,1,0,0:0:0:70:2-4^3-6^4-6s.wav
475,192,58457,1,0,0:0:0:0:
329,192,58615,1,0,0:0:0:50:drumclap.wav
182,192,58615,1,0,0:0:0:70:2-4^3-6^4-6s.wav
475,192,58615,1,0,0:0:0:0:
36,192,58615,1,0,0:0:0:0:
475,192,59247,1,0,0:0:0:0:
36,192,59247,1,0,0:0:0:70:basskick.wav
256,192,59247,1,0,0:0:0:50:drumfinish.wav
109,192,59247,128,0,60510:0:0:0:70:3-7^5-10s.wav
182,192,59563,1,0,0:0:0:50:drumclap.wav
329,192,59563,1,0,0:0:0:50:hihat.wav
402,192,59563,1,0,0:0:0:70:3-7^5-10s.wav
256,192,59878,1,0,0:0:0:70:basskick.wav
475,192,59878,1,0,0:0:0:70:3-7^5-10s.wav
182,192,60036,1,0,0:0:0:70:basskick.wav
402,192,60036,1,0,0:0:0:70:3-7^5-10s.wav
36,192,60194,1,0,0:0:0:50:drumclap.wav
329,192,60194,1,0,0:0:0:50:hihat.wav
475,192,60194,1,0,0:0:0:70:3-7^5-10s.wav
256,192,60510,1,0,0:0:0:70:basskick.wav
402,192,60510,1,0,0:0:0:50:hihat.wav
182,192,60510,128,0,60984:0:0:0:70:3-4^5-7s.wav
329,192,60668,1,0,0:0:0:70:basskick.wav
475,192,60668,1,0,0:0:0:70:3-4^5-7s.wav
256,192,60826,1,0,0:0:0:50:drumclap.wav
402,192,60826,1,0,0:0:0:50:hihat.wav
36,192,60826,1,0,0:0:0:70:3-4^5-7s.wav
109,192,60984,1,0,0:0:0:0:
329,192,60984,128,0,61457:0:0:0:70:3-4^5-7s.wav
256,192,61142,1,0,0:0:0:70:basskick.wav
475,192,61142,1,0,0:0:0:70:3-4^5-7s.wav
182,192,61299,1,0,0:0:0:70:basskick.wav
402,192,61299,1,0,0:0:0:70:3-4^5-7s.wav
475,192,61457,1,0,0:0:0:70:3-4^5-7s.wav
109,192,61457,1,0,0:0:0:50:drumclap.wav
36,192,61457,1,0,0:0:0:50:hihat.wav
475,192,61773,1,0,0:0:0:0:
36,192,61773,1,0,0:0:0:70:basskick.wav
256,192,61773,1,0,0:0:0:50:drumfinish.wav
402,192,61773,128,0,62405:0:0:0:70:3-6^5-9s.wav
109,192,62089,1,0,0:0:0:50:drumclap.wav
329,192,62089,1,0,0:0:0:50:hihat.wav
256,192,62089,1,0,0:0:0:70:3-6^5-9s.wav
36,192,62405,1,0,0:0:0:70:basskick.wav
475,192,62405,1,0,0:0:0:50:hihat.wav
256,192,62405,128,0,62720:0:0:0:0:
182,192,62563,1,0,0:0:0:0:
329,192,62563,1,0,0:0:0:70:basskick.wav
36,192,62720,1,0,0:0:0:50:drumclap.wav
402,192,62720,1,0,0:0:0:50:hihat.wav
475,192,62720,128,0,63036:0:0:0:70:4-11^6-14s.wav
109,192,63036,1,0,0:0:0:70:basskick.wav
329,192,63036,1,0,0:0:0:50:hihat.wav
182,192,63036,128,0,63984:0:0:0:70:4-11^6-14~4-9^6-12.wav
36,192,63194,1,0,0:0:0:70:basskick.wav
256,192,63194,1,0,0:0:0:0:
109,192,63352,1,0,0:0:0:50:drumclap.wav
329,192,63352,1,0,0:0:0:50:hihat.wav
402,192,63352,1,0,0:0:0:70:4-9^6-12s.wav
475,192,63668,1,0,0:0:0:70:basskick.wav
329,192,63668,1,0,0:0:0:70:4-9^6-12s.wav
402,192,63826,1,0,0:0:0:70:basskick.wav
256,192,63826,1,0,0:0:0:70:3-9^5-12s.wav
36,192,63984,1,0,0:0:0:50:drumclap.wav
475,192,63984,1,0,0:0:0:50:drumfinish.wav
329,192,63984,1,0,0:0:0:70:3-9^5-12s.wav
475,192,64299,1,0,0:0:0:0:
36,192,64299,1,0,0:0:0:70:basskick.wav
256,192,64299,1,0,0:0:0:50:drumfinish.wav
402,192,64299,128,0,65563:0:0:0:70:4-9^6-12s.wav
109,192,64615,1,0,0:0:0:50:drumclap.wav
329,192,64615,1,0,0:0:0:50:hihat.wav
182,192,64615,1,0,0:0:0:70:4-9^6-12s.wav
36,192,64931,1,0,0:0:0:70:basskick.wav
256,192,64931,1,0,0:0:0:70:4-9^6-12s.wav
109,192,65089,1,0,0:0:0:70:basskick.wav
329,192,65089,1,0,0:0:0:70:4-9^6-12s.wav
36,192,65247,1,0,0:0:0:50:drumclap.wav
256,192,65247,1,0,0:0:0:50:hihat.wav
475,192,65247,1,0,0:0:0:70:4-9^6-12s.wav
329,192,65563,1,0,0:0:0:70:basskick.wav
109,192,65563,1,0,0:0:0:50:hihat.wav
256,192,65563,128,0,66668:0:0:0:70:4-10^6-13s.wav
402,192,65720,1,0,0:0:0:70:basskick.wav
182,192,65720,1,0,0:0:0:70:4-10^6-13s.wav
109,192,65878,1,0,0:0:0:50:drumclap.wav
475,192,65878,1,0,0:0:0:50:hihat.wav
36,192,65878,1,0,0:0:0:70:4-10^6-13s.wav
182,192,66194,1,0,0:0:0:70:basskick.wav
475,192,66194,1,0,0:0:0:70:4-13^6-16s.wav
109,192,66352,1,0,0:0:0:70:basskick.wav
402,192,66352,1,0,0:0:0:70:4-13^6-16s.wav
182,192,66510,1,0,0:0:0:50:drumclap.wav
329,192,66510,1,0,0:0:0:0:
36,192,66510,1,0,0:0:0:0:
109,192,66668,1,0,0:0:0:70:basskick.wav
475,192,66668,1,0,0:0:0:50:drumfinish.wav
402,192,66668,128,0,67142:0:0:0:70:2-9l2.wav
36,192,66668,1,0,0:0:0:0:
36,192,66984,1,0,0:0:0:70:basskick.wav
182,192,66984,1,0,0:0:0:70:2-9s.wav
109,192,67142,1,0,0:0:0:50:drumclap.wav
256,192,67142,1,0,0:0:0:50:hihat.wav
475,192,67142,1,0,0:0:0:70:3-9s.wav
36,192,67299,1,0,0:0:0:70:basskick.wav
182,192,67299,1,0,0:0:0:70:3-11s.wav
256,192,67457,1,0,0:0:0:50:drumclap.wav
475,192,67457,1,0,0:0:0:50:hihat.wav
109,192,67457,128,0,67773:0:0:0:70:3-9s.wav
182,192,67615,1,0,0:0:0:70:basskick.wav
402,192,67615,1,0,0:0:0:70:4-9s.wav
329,192,67773,1,0,0:0:0:50:drumclap.wav
475,192,67773,1,0,0:0:0:70:3-9s.wav
256,192,67852,1,0,0:0:0:50:drumclap.wav
36,192,67852,1,0,0:0:0:0:
475,192,67931,1,0,0:0:0:70:5-12.wav
109,192,67931,1,0,0:0:0:70:basskick.wav
329,192,67931,1,0,0:0:0:50:drumfinish.wav
402,192,67931,128,0,68247:0:0:0:0:
109,192,68247,1,0,0:0:0:70:basskick.wav
182,192,68247,1,0,0:0:0:70:6-12s.wav
36,192,68405,1,0,0:0:0:50:drumclap.wav
329,192,68405,1,0,0:0:0:50:hihat.wav
256,192,68405,128,0,68720:0:0:0:70:6-13~6-12l.wav
109,192,68563,1,0,0:0:0:70:basskick.wav
475,192,68563,1,0,0:0:0:0:
36,192,68720,1,0,0:0:0:50:drumclap.wav
182,192,68720,1,0,0:0:0:50:hihat.wav
402,192,68720,1,0,0:0:0:0:
329,192,68878,1,0,0:0:0:50:drumclap.wav
475,192,68878,1,0,0:0:0:0:
36,192,68957,1,0,0:0:0:50:drumclap.wav
182,192,68957,1,0,0:0:0:0:
329,192,69036,1,0,0:0:0:50:drumclap.wav
475,192,69036,1,0,0:0:0:0:
36,192,69115,1,0,0:0:0:50:drumclap.wav
182,192,69115,1,0,0:0:0:0:
329,192,69194,1,0,0:0:0:50:drumclap.wav
475,192,69194,1,0,0:0:0:0:
402,192,69273,1,0,0:0:0:50:drumclap.wav
109,192,69273,1,0,0:0:0:0:
475,192,69352,1,0,0:0:0:0:
36,192,69352,1,0,0:0:0:70:basskick.wav
256,192,69352,1,0,0:0:0:50:drumfinish.wav
182,192,69352,128,0,71878:0:0:0:70:3-7^5-10s.wav
402,192,69510,1,0,0:0:0:70:3-7^5-10s.wav
109,192,69668,1,0,0:0:0:50:drumclap.wav
256,192,69668,1,0,0:0:0:50:hihat.wav
475,192,69668,1,0,0:0:0:70:3-7^5-10s.wav
402,192,69826,1,0,0:0:0:70:3-7^5-10s.wav
475,192,69984,1,0,0:0:0:70:basskick.wav
109,192,69984,1,0,0:0:0:70:3-7^5-10s.wav
36,192,70142,1,0,0:0:0:70:basskick.wav
402,192,70142,1,0,0:0:0:70:3-7^5-10s.wav
109,192,70299,1,0,0:0:0:50:drumclap.wav
329,192,70299,1,0,0:0:0:50:hihat.wav
475,192,70299,1,0,0:0:0:70:3-7^5-10s.wav
256,192,70457,1,0,0:0:0:70:3-7^5-10s.wav
36,192,70615,1,0,0:0:0:70:basskick.wav
329,192,70615,1,0,0:0:0:70:3-4^5-7s.wav
109,192,70773,1,0,0:0:0:70:basskick.wav
402,192,70773,1,0,0:0:0:70:3-4^5-7s.wav
475,192,70931,1,0,0:0:0:70:3-4^5-7s.wav
36,192,70931,1,0,0:0:0:50:drumclap.wav
256,192,70931,1,0,0:0:0:50:hihat.wav
329,192,71089,1,0,0:0:0:70:3-4^5-7s.wav
109,192,71247,1,0,0:0:0:70:basskick.wav
402,192,71247,1,0,0:0:0:70:3-4^5-7s.wav
36,192,71405,1,0,0:0:0:70:basskick.wav
329,192,71405,1,0,0:0:0:70:3-4^5-7s.wav
475,192,71563,1,0,0:0:0:70:3-4^5-7s.wav
109,192,71563,1,0,0:0:0:50:drumclap.wav
402,192,71563,1,0,0:0:0:50:hihat.wav
402,192,71878,1,0,0:0:0:0:
36,192,71878,1,0,0:0:0:70:basskick.wav
256,192,71878,1,0,0:0:0:50:drumfinish.wav
329,192,71878,128,0,72510:0:0:0:70:3-6^5-9s.wav
109,192,72194,1,0,0:0:0:50:drumclap.wav
256,192,72194,1,0,0:0:0:50:hihat.wav
475,192,72194,1,0,0:0:0:70:3-6^5-9s.wav
36,192,72510,1,0,0:0:0:70:basskick.wav
182,192,72510,1,0,0:0:0:0:
475,192,72510,128,0,72826:0:0:0:0:
109,192,72668,1,0,0:0:0:70:basskick.wav
256,192,72668,1,0,0:0:0:0:
329,192,72826,1,0,0:0:0:50:drumclap.wav
36,192,72826,1,0,0:0:0:50:hihat.wav
402,192,72826,128,0,73142:0:0:0:70:4-11^6-14s.wav
109,192,73142,1,0,0:0:0:70:basskick.wav
475,192,73142,1,0,0:0:0:50:hihat.wav
256,192,73142,128,0,74089:0:0:0:70:4-11^6-14~4-9^6-12.wav
36,192,73299,1,0,0:0:0:70:basskick.wav
402,192,73299,1,0,0:0:0:0:
109,192,73457,1,0,0:0:0:50:drumclap.wav
475,192,73457,1,0,0:0:0:50:hihat.wav
182,192,73457,1,0,0:0:0:70:4-9^6-12s.wav
36,192,73773,1,0,0:0:0:70:basskick.wav
329,192,73773,1,0,0:0:0:70:4-9^6-12s.wav
109,192,73931,1,0,0:0:0:70:basskick.wav
402,192,73931,1,0,0:0:0:70:3-9^5-12s.wav
475,192,74089,1,0,0:0:0:70:3-9^5-12s.wav
182,192,74089,1,0,0:0:0:50:drumclap.wav
329,192,74089,1,0,0:0:0:50:drumfinish.wav
109,192,74405,1,0,0:0:0:0:
36,192,74405,1,0,0:0:0:70:basskick.wav
256,192,74405,1,0,0:0:0:50:drumfinish.wav
402,192,74405,128,0,75668:0:0:0:70:2-4^3-6^4-6l.wav
109,192,74720,1,0,0:0:0:50:drumclap.wav
329,192,74720,1,0,0:0:0:50:hihat.wav
182,192,74720,1,0,0:0:0:70:2-4^3-6^4-6s.wav
36,192,75036,1,0,0:0:0:70:basskick.wav
256,192,75036,1,0,0:0:0:50:hihat.wav
36,192,75194,1,0,0:0:0:70:basskick.wav
256,192,75194,1,0,0:0:0:70:2-4^3-6^4-6s.wav
475,192,75352,1,0,0:0:0:70:2-4^3-6^4-6s.wav
109,192,75352,1,0,0:0:0:50:drumclap.wav
329,192,75352,1,0,0:0:0:50:hihat.wav
182,192,75668,1,0,0:0:0:70:4-6s.wav
36,192,75668,128,0,75826:0:0:0:70:basskick.wav
402,192,75826,1,0,0:0:0:70:4-6s.wav
256,192,75826,128,0,75984:0:0:0:70:basskick.wav
329,192,75984,1,0,0:0:0:50:hihat.wav
475,192,75984,1,0,0:0:0:50:drumclap.wav
109,192,75984,128,0,76142:0:0:0:70:4-8s.wav
402,192,76142,128,0,76299:0:0:0:70:4-8s.wav
256,192,76142,1,0,0:0:0:0:
36,192,76299,1,0,0:0:0:50:tom.wav
475,192,76299,128,0,76773:0:0:0:0:
182,192,76299,1,0,0:0:0:70:5-6s.wav
256,192,76536,1,0,0:0:0:50:drumclap.wav
402,192,76536,1,0,0:0:0:0:
36,192,76615,1,0,0:0:0:50:drumclap.wav
182,192,76615,1,0,0:0:0:70:5-6s.wav
256,192,76694,1,0,0:0:0:50:drumclap.wav
402,192,76694,1,0,0:0:0:0:
329,192,76773,1,0,0:0:0:0:
36,192,76773,1,0,0:0:0:70:basskick.wav
182,192,76773,1,0,0:0:0:50:drumfinish.wav
109,192,76773,128,0,77878:0:0:0:70:2-9^3-11^4-11.wav
182,192,77089,1,0,0:0:0:70:basskick.wav
402,192,77089,1,0,0:0:0:70:2-9^3-11^4-11s.wav
329,192,77247,1,0,0:0:0:50:drumclap.wav
36,192,77247,1,0,0:0:0:50:hihat.wav
475,192,77247,128,0,77563:0:0:0:70:2-9^3-11^4-11.wav
36,192,77563,1,0,0:0:0:70:basskick.wav
256,192,77563,1,0,0:0:0:50:hihat.wav
402,192,77563,128,0,77878:0:0:0:70:2-9^3-11^4-11s.wav
182,192,77720,1,0,0:0:0:70:basskick.wav
329,192,77720,1,0,0:0:0:70:2-9^3-11^4-11s.wav
36,192,77878,1,0,0:0:0:50:drumclap.wav
256,192,77878,1,0,0:0:0:50:hihat.wav
475,192,77878,1,0,0:0:0:70:2-9^3-11^4-11s.wav
36,192,78194,1,0,0:0:0:70:basskick.wav
256,192,78194,128,0,79142:0:0:0:0:
475,192,78194,128,0,78510:0:0:0:50:hihat.wav
329,192,78352,1,0,0:0:0:70:basskick.wav
182,192,78352,1,0,0:0:0:70:2-6^3-9^4-8s.wav
109,192,78510,1,0,0:0:0:50:drumclap.wav
36,192,78510,1,0,0:0:0:50:hihat.wav
402,192,78510,128,0,78826:0:0:0:70:2-6^3-9^4-8.wav
475,192,78826,1,0,0:0:0:0:
36,192,78826,1,0,0:0:0:50:tom.wav
109,192,78826,128,0,79142:0:0:0:70:2-6^3-9^4-8s.wav
182,192,79063,1,0,0:0:0:50:drumclap.wav
329,192,79063,1,0,0:0:0:0:
475,192,79142,1,0,0:0:0:50:drumclap.wav
36,192,79142,1,0,0:0:0:70:2-6^3-9^4-8s.wav
402,192,79299,1,0,0:0:0:70:basskick.wav
109,192,79299,1,0,0:0:0:70:2-6^3-9^4-8s.wav
475,192,79457,1,0,0:0:0:70:2-2^3-4^4-4s.wav
36,192,79457,1,0,0:0:0:50:drumclap.wav
329,192,79457,1,0,0:0:0:50:drumfinish.wav
182,192,79457,1,0,0:0:0:0:
256,192,79615,1,0,0:0:0:70:basskick.wav
475,192,79773,1,0,0:0:0:70:2-2^3-4^4-4s.wav
109,192,79773,1,0,0:0:0:50:drumclap.wav
329,192,79773,1,0,0:0:0:50:hihat.wav
475,192,80089,1,0,0:0:0:70:2-2^3-4^4-4s.wav
109,192,80089,1,0,0:0:0:50:drumclap.wav
329,192,80089,1,0,0:0:0:50:hihat.wav
256,192,80247,1,0,0:0:0:70:basskick.wav
475,192,80405,1,0,0:0:0:70:2-2^3-4^4-4s.wav
109,192,80405,1,0,0:0:0:50:drumclap.wav
329,192,80405,1,0,0:0:0:50:hihat.wav
256,192,80563,1,0,0:0:0:70:basskick.wav
402,192,80720,1,0,0:0:0:70:2-7^3-9^4-9s.wav
182,192,80720,1,0,0:0:0:50:drumclap.wav
329,192,80720,1,0,0:0:0:50:hihat.wav
402,192,81036,1,0,0:0:0:70:2-7^3-9^4-9s.wav
182,192,81036,1,0,0:0:0:50:drumclap.wav
329,192,81036,1,0,0:0:0:50:hihat.wav
329,192,81352,1,0,0:0:0:70:2-5^3-7^4-7s.wav
109,192,81352,1,0,0:0:0:50:drumclap.wav
256,192,81352,1,0,0:0:0:50:hihat.wav
182,192,81510,1,0,0:0:0:70:basskick.wav
329,192,81668,1,0,0:0:0:70:2-5^3-7^4-7s.wav
109,192,81668,1,0,0:0:0:50:drumclap.wav
256,192,81668,1,0,0:0:0:50:hihat.wav
475,192,81826,1,0,0:0:0:70:basskick.wav
402,192,81984,1,0,0:0:0:70:2-4^3-6^4-6s.wav
36,192,81984,1,0,0:0:0:70:basskick.wav
182,192,81984,1,0,0:0:0:50:hihat.wav
402,192,82299,1,0,0:0:0:70:2-4^3-6^4-6s.wav
36,192,82299,1,0,0:0:0:50:drumclap.wav
182,192,82299,1,0,0:0:0:50:hihat.wav
475,192,82615,1,0,0:0:0:70:2-4^3-6^4-6s.wav
109,192,82615,1,0,0:0:0:50:drumclap.wav
256,192,82615,1,0,0:0:0:50:hihat.wav
402,192,82773,1,0,0:0:0:70:basskick.wav
182,192,82773,1,0,0:0:0:0:
329,192,82931,1,0,0:0:0:70:2-4^3-6^4-6x.wav
109,192,82931,1,0,0:0:0:50:drumclap.wav
36,192,83089,1,0,0:0:0:70:basskick.wav
256,192,83089,1,0,0:0:0:50:drumfinish.wav
402,192,83089,128,0,83878:0:0:0:70:3-9^5-12l.wav
475,192,83089,1,0,0:0:0:0:
36,192,83405,1,0,0:0:0:70:basskick.wav
256,192,83405,1,0,0:0:0:70:3-9^5-12s.wav
109,192,83563,1,0,0:0:0:50:drumclap.wav
329,192,83563,1,0,0:0:0:50:hihat.wav
475,192,83563,1,0,0:0:0:70:3-9^5-12x.wav
182,192,83720,1,0,0:0:0:70:3-8^5-11.wav
475,192,83878,1,0,0:0:0:50:tom.wav
256,192,83878,128,0,84510:0:0:0:0:
36,192,83878,1,0,0:0:0:0:
36,192,84115,1,0,0:0:0:50:drumclap.wav
475,192,84115,1,0,0:0:0:0:
182,192,84194,1,0,0:0:0:50:drumclap.wav
329,192,84194,1,0,0:0:0:70:3-8^5-11.wav
36,192,84273,1,0,0:0:0:50:tom.wav
475,192,84273,1,0,0:0:0:0:
109,192,84352,1,0,0:0:0:50:tom.wav
402,192,84352,1,0,0:0:0:0:
329,192,84510,1,0,0:0:0:70:1-7^2-9^3-9.wav
182,192,84510,1,0,0:0:0:50:drumclap.wav
36,192,84589,1,0,0:0:0:50:drumclap.wav
475,192,84589,1,0,0:0:0:0:
329,192,84668,1,0,0:0:0:0:
182,192,84668,1,0,0:0:0:50:drumclap.wav
36,192,84747,1,0,0:0:0:50:drumclap.wav
475,192,84747,1,0,0:0:0:0:
182,192,84826,1,0,0:0:0:50:drumclap.wav
329,192,84826,1,0,0:0:0:70:1-7^2-9^3-9x.wav
402,192,84984,1,0,0:0:0:70:1-7^2-9^3-9x2.wav
109,192,84984,1,0,0:0:0:70:basskick.wav
256,192,84984,1,0,0:0:0:50:hihat.wav
329,192,85299,1,0,0:0:0:70:1-7^2-9^3-9x2.wav
36,192,85299,1,0,0:0:0:70:basskick.wav
182,192,85299,1,0,0:0:0:50:hihat.wav
402,192,85615,1,0,0:0:0:0:
109,192,85615,1,0,0:0:0:50:tom.wav
256,192,85615,128,0,86089:0:0:0:70:2-7^3-9^4-9l.wav
36,192,87036,128,0,87510:0:0:0:70:1-2^2-4^3-4.wav
109,192,87036,1,0,0:0:0:70:basskick.wav
256,192,87036,1,0,0:0:0:50:drumfinish.wav
475,192,87036,1,0,0:0:0:0:
182,192,87352,1,0,0:0:0:70:basskick.wav
329,192,87352,1,0,0:0:0:70:1-2^2-4^3-4s.wav
256,192,87510,1,0,0:0:0:70:basskick.wav
402,192,87510,1,0,0:0:0:70:1-2^2-4^3-4s.wav
182,192,87668,128,0,87826:0:0:0:70:1-2^2-4^3-4~1-5^2-7^3-7.wav
475,192,87668,1,0,0:0:0:50:drumclap.wav
329,192,87668,1,0,0:0:0:50:hihat.wav
402,192,87826,128,0,87984:0:0:0:0:
36,192,87826,1,0,0:0:0:70:basskick.wav
109,192,87984,1,0,0:0:0:50:hihat.wav
256,192,87984,128,0,88299:0:0:0:70:1-5^2-7^3-7s.wav
36,192,88142,1,0,0:0:0:70:basskick.wav
475,192,88142,1,0,0:0:0:70:1-5^2-7^3-7s.wav
329,192,88299,128,0,88457:0:0:0:70:1-5^2-7^3-7~1-7^2-9^3-9.wav
109,192,88299,1,0,0:0:0:50:drumclap.wav
402,192,88299,1,0,0:0:0:50:drumfinish.wav
182,192,88457,1,0,0:0:0:70:basskick.wav
475,192,88457,128,0,88615:0:0:0:0:
109,192,88615,1,0,0:0:0:50:drumfinish.wav
256,192,88615,1,0,0:0:0:50:drumclap.wav
402,192,88615,128,0,88931:0:0:0:70:1-7^2-9^3-9s.wav
36,192,88615,1,0,0:0:0:0:
329,192,88773,1,0,0:0:0:70:basskick.wav
182,192,88773,1,0,0:0:0:70:1-7^2-9^3-9s.wav
256,192,88931,1,0,0:0:0:70:1-0^2-2^3-2ss.wav
109,192,88931,1,0,0:0:0:50:drumclap.wav
475,192,88931,1,0,0:0:0:50:drumfinish.wav
402,192,89089,1,0,0:0:0:70:1-0^2-2^3-2ss.wav
36,192,89089,1,0,0:0:0:70:basskick.wav
182,192,89089,1,0,0:0:0:50:tom.wav
109,192,89247,1,0,0:0:0:70:1-0^2-2^3-2ss.wav
329,192,89247,1,0,0:0:0:70:basskick.wav
475,192,89247,1,0,0:0:0:50:tom.wav
36,192,89405,1,0,0:0:0:70:1-0^2-2^3-2ss.wav
402,192,89405,1,0,0:0:0:70:basskick.wav
182,192,89405,1,0,0:0:0:50:tom.wav
