osu file format v12

[General]
AudioFilename: LiSA - Rising Hope.mp3
AudioLeadIn: 1000
PreviewTime: 58694
Countdown: 0
SampleSet: Soft
StackLeniency: 0.4
Mode: 0
LetterboxInBreaks: 0
WidescreenStoryboard: 0

[Editor]
DistanceSpacing: 0.5
BeatDivisor: 4
GridSize: 4
TimelineZoom: 4.999997

[Metadata]
Title:Rising Hope (TV Size)
TitleUnicode:Rising Hope (TV Size)
Artist:LiSA
ArtistUnicode:LiSA
Creator:xChippy
Version:Hope
Source:魔法科高校の劣等生
Tags:Mahouka Koukou no Rettousei Oribe Risa 織部 里沙 Tabuchi Tomoya Tsutomu Satō The Irregular at Magic High School captin1
BeatmapID:397476
BeatmapSetID:163078

[Difficulty]
HPDrainRate:8
CircleSize:4
OverallDifficulty:8
ApproachRate:9
SliderMultiplier:1.8
SliderTickRate:1

[Events]
//Background and Video events
0,0,"Mahouka.jpg.jpg",0,0
Video,820,"op.avi"
//Break Periods
2,54393,55805
//Storyboard Layer 0 (Background)
//Storyboard Layer 1 (Fail)
//Storyboard Layer 2 (Pass)
//Storyboard Layer 3 (Foreground)
//Storyboard Sound Samples
//Background Colour Transformations
3,100,163,162,255

[TimingPoints]
1142,315.789473684211,4,2,1,80,1,0
2563,-133.333333333333,4,2,1,50,0,0
3668,-100,4,2,1,70,0,0
3984,-133.333333333333,4,2,3,60,0,0
8089,-100,4,2,1,70,0,0
8720,-100,4,2,1,80,0,0
13773,-133.333333333333,4,2,1,50,0,0
18826,-100,4,2,1,70,0,0
22457,-133.333333333333,4,2,1,60,0,0
22931,-153.846153846154,4,2,1,50,0,0
23247,-181.818181818182,4,2,1,40,0,0
23720,-100,4,2,1,70,0,0
31142,-100,4,2,1,70,0,0
31220,-100,4,2,1,50,0,0
31457,-100,4,2,1,70,0,0
33352,-133.333333333333,4,2,1,40,0,0
33668,-200,4,2,1,30,0,0
33984,-100,4,2,1,80,0,0
44089,-133.333333333333,4,2,1,50,0,0
49142,-133.333333333333,4,2,1,70,0,0
52931,-133.333333333333,4,2,1,65,0,0
53247,-133.333333333333,4,2,1,75,0,0
53563,-133.333333333333,4,2,1,85,0,0
54194,-133.333333333333,4,2,3,55,0,0
56405,-133.333333333333,4,2,1,65,0,0
56720,-100,4,2,1,80,0,0
57826,-76.9230769230769,4,2,1,80,0,0
58773,-200,4,2,1,40,0,0
59247,-83.3333333333333,4,2,1,90,0,1
63984,-83.3333333333333,4,2,1,65,0,1
64299,-83.3333333333333,4,2,1,90,0,1
69273,-83.3333333333333,4,2,1,90,0,0
69352,-83.3333333333333,4,2,1,90,0,1
74089,-83.3333333333333,4,2,1,65,0,1
74405,-83.3333333333333,4,2,1,90,0,1
79457,-83.3333333333333,4,2,1,60,0,0
85931,-83.3333333333333,4,2,1,30,0,0
86720,-83.3333333333333,4,2,1,40,0,0
87036,-100,4,2,1,60,0,0

[Colours]
Combo1 : 210,210,210
Combo2 : 121,121,255
Combo3 : 176,211,255

[HitObjects]
176,172,1142,6,0,P|180:199|192:228,1,45,4|0,0:0|0:0,0:0:0:0:
256,224,1299,2,0,P|270:248|291:269,1,45,8|8,0:0|0:0,0:0:0:0:
348,272,1457,1,8,0:0:0:0:
232,104,1615,6,0,P|220:40|220:0,1,90,4|0,0:0|0:0,0:0:0:0:
280,280,1931,2,0,P|292:344|294:384,1,90,4|0,0:0|0:0,0:0:0:0:
176,172,2247,1,8,0:0:0:0:
176,172,2563,6,0,L|264:168,1,67.5000025749208
340,208,2878,2,0,L|480:200,1,135.000005149842
224,344,3352,1,0,0:0:0:0:
207,337,3431,1,0,0:0:0:0:
189,333,3510,1,0,0:0:0:0:
172,328,3589,1,0,0:0:0:0:
154,324,3668,6,0,B|130:281|155:238|155:238|125:190|74:173,1,180,4|0,0:0|0:0,0:0:0:0:
32,272,4142,5,0,0:0:0:0:
221,285,4300,2,0,P|269:285|302:275,1,67.5000025749208,2|0,0:0|0:0,0:0:0:0:
149,251,4615,1,0,0:0:0:0:
323,353,4773,6,0,P|379:325|437:268,1,135.000005149842,2|2,0:0|0:0,0:0:0:0:
256,165,5247,1,0,0:0:0:0:
318,226,5405,1,2,0:0:0:0:
152,144,5563,5,0,0:0:0:0:
208,60,5720,1,2,0:0:0:0:
196,236,5878,5,2,0:0:0:0:
160,312,6036,1,2,0:0:0:0:
321,143,6194,6,0,P|365:157|399:248,1,135,2|0,0:0|0:0,0:0:0:0:
318,226,6668,1,0,0:0:0:0:
423,101,6826,2,0,P|455:80|501:68,1,67.5000025749208,2|0,0:0|0:0,0:0:0:0:
390,184,7142,1,0,0:0:0:0:
268,76,7300,6,0,L|116:72,1,135,2|0,0:0|0:0,0:0:0:0:
4,152,7773,2,0,L|89:166,1,67.5000025749208,0|2,0:0|0:0,0:0:0:0:
216,160,8089,6,0,P|212:212|216:252,1,90,0|2,0:0|0:0,0:0:0:0:
192,332,8326,1,2,0:0:0:0:
192,332,8405,2,0,L|330:325,1,135,8|0,0:0|0:0,0:0:0:0:
392,282,8721,6,0,P|403:322|389:375,1,90,4|0,0:0|0:0,0:0:0:0:
216,160,9036,2,0,P|205:116|216:73,1,90,8|0,0:0|0:0,0:0:0:0:
312,124,9352,1,2,0:0:0:0:
256,280,9510,1,0,0:0:0:0:
128,104,9668,1,2,0:0:0:0:
376,76,9826,1,0,0:0:0:0:
292,208,9984,5,2,0:0:0:0:
292,208,10300,2,0,L|396:212,1,90,8|0,0:0|0:0,0:0:0:0:
192,248,10615,2,0,P|181:204|192:161,1,90,2|0,0:0|0:0,0:0:0:0:
292,208,10931,1,8,0:0:0:0:
272,360,11089,1,0,0:0:0:0:
136,196,11247,6,0,L|131:97,1,90,2|0,0:0|0:0,0:0:0:0:
95,298,11563,2,0,P|143:306|207:273,1,90,8|0,0:0|0:0,0:0:0:0:
136,196,11878,1,2,0:0:0:0:
172,384,12036,1,0,0:0:0:0:
216,152,12194,1,8,0:0:0:0:
337,274,12352,6,0,P|381:283|443:263,1,90,0|2,0:0|0:0,0:0:0:0:
382,177,12668,1,0,0:0:0:0:
256,296,12826,2,0,P|278:334|317:357,1,90,8|0,0:0|0:0,0:0:0:0:
176,304,13142,6,0,L|173:349,1,45,2|0,0:0|0:0,0:0:0:0:
108,248,13300,2,0,L|105:204,1,45,8|8,0:0|0:0,0:0:0:0:
231,165,13457,2,0,L|231:210,1,45,8|8,0:0|0:0,0:0:0:0:
134,95,13615,2,0,L|139:50,1,45,0|8,0:0|0:0,0:0:0:0:
231,164,13773,6,0,P|166:151|133:95,1,135.000005149842,4|0,0:0|0:0,0:0:0:0:
220,84,14247,1,0,0:0:0:0:
179,237,14405,2,0,L|175:321,1,67.5000025749208,0|0,0:0|0:0,0:0:0:0:
231,165,14721,1,0,0:0:0:0:
231,165,14878,1,0,0:0:0:0:
97,269,15036,6,0,L|93:336,1,67.5000025749208
144,192,15352,1,0,0:0:0:0:
200,288,15510,1,0,0:0:0:0:
256,376,15668,1,0,0:0:0:0:
312,284,15826,2,0,P|346:275|392:284,1,67.5000025749208
352,360,16142,1,2,0:0:0:0:
256,208,16300,6,0,P|281:156|355:141,1,135.000005149842,2|0,0:0|0:0,0:0:0:0:
200,288,16773,2,0,P|167:295|133:294,1,67.5000025749208
312,284,17089,2,0,P|341:308|354:355,1,67.5000025749208
146,347,17405,6,0,P|124:270|160:214,1,135.000005149842
256,208,17878,1,0,0:0:0:0:
263,305,18036,2,0,P|230:302|200:288,1,67.5000025749208
404,272,18352,1,2,0:0:0:0:
404,272,18431,1,2,0:0:0:0:
404,272,18510,1,8,0:0:0:0:
404,272,18826,6,0,B|400:324|400:324|408:384,1,90,4|0,0:0|0:0,0:0:0:0:
256,208,19142,2,0,B|256:260|256:260|288:332,1,90,2|0,0:0|0:0,0:0:0:0:
272,104,19457,2,0,B|220:92|220:92|156:96,1,90,2|0,0:0|0:0,0:0:0:0:
422,145,19773,2,0,B|474:157|474:157|538:153,1,90,2|0,0:0|0:0,0:0:0:0:
346,57,20089,6,0,L|346:146,1,90,2|0,0:0|0:0,0:0:0:0:
347,147,20326,1,8,0:0:0:0:
347,147,20405,1,2,0:0:0:0:
396,328,20563,1,0,0:0:0:0:
396,328,20642,2,0,L|404:254,1,45,8|2,0:0|0:0,0:0:0:0:
272,176,20878,1,0,0:0:0:0:
272,176,20957,2,0,L|281:238,1,45,8|2,0:0|0:0,0:0:0:0:
200,372,21194,5,0,0:0:0:0:
200,372,21273,2,0,L|184:308,1,45,8|2,0:0|0:0,0:0:0:0:
104,236,21510,1,0,0:0:0:0:
104,236,21589,2,0,L|119:161,1,45,8|2,0:0|0:0,0:0:0:0:
160,56,21826,1,0,0:0:0:0:
283,139,21984,2,0,L|387:123,1,90,2|0,0:0|0:0,0:0:0:0:
394,120,22221,1,8,0:0:0:0:
416,116,22300,1,8,0:0:0:0:
436,112,22378,1,8,0:0:0:0:
452,107,22457,6,0,L|440:19,1,67.5000025749208,4|0,0:0|0:0,0:0:0:0:
396,196,22773,1,2,0:0:0:0:
488,284,22931,6,0,L|496:216,1,58.4999973220826,0|2,0:0|0:0,0:0:0:0:
392,368,23247,2,0,L|376:312,1,49.5000015106202,2|2,0:0|0:0,0:0:0:0:
276,240,23563,1,8,0:0:0:0:
144,316,23721,6,0,P|92:297|57:175,1,180,4|2,0:0|0:0,0:0:0:0:
240,112,24194,2,0,P|251:166|237:227,1,90,8|0,0:0|0:0,0:0:0:0:
148,164,24510,1,2,0:0:0:0:
148,164,24668,1,2,0:0:0:0:
335,203,24826,2,0,P|331:258|302:313,1,90,8|0,0:0|0:0,0:0:0:0:
232,226,25142,5,2,0:0:0:0:
232,226,25300,1,2,0:0:0:0:
332,368,25457,1,8,0:0:0:0:
166,284,25615,2,0,P|149:239|155:181,1,90,0|2,0:0|0:0,0:0:0:0:
36,156,25931,2,0,P|53:201|47:259,1,90,2|8,0:0|0:0,0:0:0:0:
8,316,26247,1,0,0:0:0:0:
152,136,26405,6,0,P|244:124|344:128,1,180,2|8,0:0|0:0,0:0:0:0:
468,208,26878,2,0,P|432:236|361:259,1,90,0|2,0:0|0:0,0:0:0:0:
380,68,27194,2,0,L|392:168,1,90,2|8,0:0|0:0,0:0:0:0:
288,356,27510,6,0,L|296:264,1,90,0|2,0:0|0:0,0:0:0:0:
308,140,27826,1,2,0:0:0:0:
396,280,27984,1,8,0:0:0:0:
308,140,28142,1,0,0:0:0:0:
180,296,28300,6,0,P|127:288|95:267,1,90,2|2,0:0|0:0,0:0:0:0:
182,139,28615,2,0,L|272:132,1,90,8|0,0:0|0:0,0:0:0:0:
305,83,28852,1,8,0:0:0:0:
305,83,28931,6,0,P|265:166|327:270,1,180,4|8,0:0|0:0,0:0:0:0:
364,168,29405,1,0,0:0:0:0:
184,96,29563,2,0,L|56:88,1,90,2|2,0:0|0:0,0:0:0:0:
216,204,29878,2,0,L|344:196,1,90,8|0,0:0|0:0,0:0:0:0:
428,208,30194,5,2,0:0:0:0:
304,344,30352,1,2,0:0:0:0:
388,304,30510,1,8,0:0:0:0:
216,316,30668,1,0,0:0:0:0:
100,204,30826,2,0,B|89:164|89:164|97:116,1,90,2|2,0:0|0:0,0:0:0:0:
216,204,31142,2,0,L|260:224,3,45,8|0|0|0,0:0|0:0|0:0|0:0,0:0:0:0:
300,226,31457,6,0,P|306:271|307:316,1,90,2|0,0:0|0:0,0:0:0:0:
245,357,31694,1,8,0:0:0:0:
245,357,31773,2,0,L|121:367,1,90,2|0,0:0|0:0,0:0:0:0:
99,297,32010,1,8,0:0:0:0:
99,297,32089,2,0,L|207:288,1,90,2|0,0:0|0:0,0:0:0:0:
256,256,32326,2,0,L|268:208,1,45,8|2,0:0|0:0,0:0:0:0:
304,76,32563,1,2,0:0:0:0:
388,172,32721,5,8,0:0:0:0:
480,280,32878,1,8,0:0:0:0:
388,172,33036,1,8,0:0:0:0:
388,172,33115,1,0,0:0:0:0:
388,172,33194,1,0,0:0:0:0:
283,203,33352,6,0,P|250:208|204:193,1,67.5000025749208
128,136,33668,6,0,L|41:141,1,67.5
0,176,33984,6,0,L|188:165,1,180,4|0,0:0|0:0,0:0:0:0:
276,124,34457,1,2,0:0:0:0:
371,277,34615,2,0,P|279:283|232:198,1,180,8|0,0:0|0:0,0:0:0:0:
316,208,35089,1,0,0:0:0:0:
312,372,35247,5,2,0:0:0:0:
119,248,35405,2,0,P|109:154|136:48,1,180,8|2,0:0|0:0,0:0:0:0:
316,208,35878,2,0,L|324:320,1,90,8|0,0:0|0:0,0:0:0:0:
186,197,36194,2,0,L|193:108,1,90
444,84,36510,6,0,L|460:296,1,180,4|0,0:0|0:0,0:0:0:0:
400,344,36984,1,2,0:0:0:0:
492,196,37142,1,8,0:0:0:0:
344,92,37300,2,0,P|246:67|166:94,1,180,2|0,0:0|0:0,0:0:0:0:
282,275,37773,6,0,B|324:279|324:279|384:257,1,90,2|8,0:0|0:0,0:0:0:0:
424,144,38089,1,2,0:0:0:0:
400,344,38247,1,0,0:0:0:0:
400,344,38326,1,8,0:0:0:0:
400,344,38405,1,8,0:0:0:0:
472,192,38563,1,8,0:0:0:0:
344,92,38721,2,10,L|334:-18,1,90
282,275,39036,6,0,P|188:278|102:273,1,180,4|0,0:0|0:0,0:0:0:0:
24,160,39510,2,0,P|64:140|144:147,1,90,2|8,0:0|0:0,0:0:0:0:
96,236,39826,1,2,0:0:0:0:
164,64,39984,1,0,0:0:0:0:
124,220,40142,1,0,0:0:0:0:
192,60,40300,6,0,L|296:64,1,90,2|8,0:0|0:0,0:0:0:0:
353,70,40536,1,0,0:0:0:0:
416,224,40773,1,0,0:0:0:0:
416,224,40931,2,0,L|312:228,1,90,8|2,0:0|0:0,0:0:0:0:
272,280,41168,2,0,L|141:288,1,90
112,308,41405,1,0,0:0:0:0:
307,355,41563,6,0,P|350:287|270:189,1,180,4|0,0:0|0:0,0:0:0:0:
272,280,42036,1,2,0:0:0:0:
416,224,42194,2,0,L|424:120,1,90,8|2,0:0|0:0,0:0:0:0:
424,32,42510,1,0,0:0:0:0:
296,192,42668,5,0,0:0:0:0:
296,192,42747,1,0,0:0:0:0:
296,192,42826,2,0,P|248:200|188:188,1,90,0|8,0:0|0:0,0:0:0:0:
119,167,43142,1,2,0:0:0:0:
272,280,43300,1,0,0:0:0:0:
272,280,43378,1,8,0:0:0:0:
272,280,43457,1,8,0:0:0:0:
256,84,43615,1,2,0:0:0:0:
192,325,43773,1,2,0:0:0:0:
119,166,43931,1,2,0:0:0:0:
343,229,44089,6,4,P|353:295|321:353,1,135.000005149842,4|0,0:0|0:0,0:0:0:0:
272,280,44563,1,0,0:0:0:0:
408,360,44721,2,0,L|488:364,1,67.5000025749208
351,285,45036,1,0,0:0:0:0:
296,192,45194,1,0,0:0:0:0:
172,336,45352,6,0,L|161:269,1,67.5000025749208
306,125,45668,2,0,L|296:192,1,67.5000025749208
261,47,45984,2,0,P|325:39|396:88,1,135.000005149842
408,172,46457,1,2,0:0:0:0:
264,304,46615,6,0,L|252:148,1,135.000005149842,2|0,0:0|0:0,0:0:0:0:
184,132,47089,1,0,0:0:0:0:
336,256,47247,2,0,L|344:344,1,67.5000025749208
424,364,47563,1,0,0:0:0:0:
424,364,47721,1,0,0:0:0:0:
259,252,47878,6,0,L|255:177,1,67.5000025749208
344,80,48194,2,0,L|340:164,1,67.5000025749208
225,312,48510,6,0,L|223:357,1,45.0000017166138,8|8,0:0|0:0,0:0:0:0:
96,300,48720,2,0,L|90:249,1,45.0000017166138,8|8,0:0|0:0,0:0:0:0:
188,184,48931,2,0,L|182:229,1,45.0000017166138,0|8,0:0|0:0,0:0:0:0:
104,152,49142,6,0,P|156:101|232:104,1,135.000005149842,4|0,0:0|0:0,0:0:0:0:
380,160,49615,1,2,0:0:0:0:
292,312,49773,2,0,L|288:177,1,135.000005149842,12|0,0:0|0:0,0:0:0:0:
328,48,50247,1,0,0:0:0:0:
200,188,50405,6,0,P|156:212|120:212,1,67.5000025749208,2|8,0:0|0:0,0:0:0:0:
288,156,50721,2,0,P|324:164|353:193,1,67.5000025749208,0|2,0:0|0:0,0:0:0:0:
216,108,51036,2,0,P|208:78|216:32,1,67.5000025749208,8|2,0:0|0:0,0:0:0:0:
252,272,51352,1,8,0:0:0:0:
252,272,51668,6,0,L|92:280,1,135.000005149842,12|2,0:0|0:0,0:0:0:0:
28,356,52142,1,0,0:0:0:0:
192,196,52300,2,0,L|200:112,1,67.5000025749208,2|0,0:0|0:0,0:0:0:0:
312,24,52615,2,0,L|319:91,1,67.5000025749208,2|0,0:0|0:0,0:0:0:0:
336,200,52931,5,2,0:0:0:0:
352,312,53089,1,0,0:0:0:0:
156,288,53247,5,8,0:0:0:0:
132,120,53405,1,8,0:0:0:0:
400,52,53563,5,2,0:0:0:0:
440,280,53721,1,8,0:0:0:0:
276,264,53878,5,8,0:0:0:0:
260,88,54036,2,0,L|255:20,1,67.5000025749208,0|2,0:0|0:0,0:0:0:0:
200,256,56405,5,8,0:0:0:0:
200,256,56484,1,8,0:0:0:0:
200,256,56563,1,2,0:0:0:0:
200,256,56642,1,2,0:0:0:0:
200,256,56721,6,0,L|196:156,1,90,4|2,0:0|0:0,0:0:0:0:
128,88,57036,1,2,0:0:0:0:
141,340,57194,2,0,P|216:356|298:272,1,180,8|8,0:0|0:0,0:0:0:0:
200,256,57668,1,0,0:0:0:0:
40,172,57826,6,0,B|90:160|90:160|137:172|137:172|179:163|179:163|239:195|293:143,1,233.999989288331,4|0,0:0|0:0,0:0:0:0:
400,24,58300,1,10,0:0:0:0:
360,252,58457,1,10,0:0:0:0:
384,48,58615,1,10,0:0:0:0:
280,128,58773,6,0,B|272:172|272:172|280:208|280:208|272:248,1,112.5
268,260,59247,6,0,B|210:294|152:258|152:258|94:249|62:286,1,215.999993408203,4|8,0:0|0:0,0:0:0:0:
103,371,59721,1,0,0:0:0:0:
216,198,59878,2,0,P|292:186|332:310,1,215.999993408203,2|8,0:0|0:0,0:0:0:0:
236,340,60352,1,0,0:0:0:0:
328,172,60510,6,0,P|340:132|335:66,1,107.999996704102,2|2,0:0|0:0,0:0:0:0:
221,110,60826,1,8,0:0:0:0:
356,280,60984,2,0,P|392:301|461:304,1,107.999996704102,0|2,0:0|0:0,0:0:0:0:
246,243,61300,2,0,P|211:251|148:297,1,107.999996704102,2|8,0:0|0:0,0:0:0:0:
244,376,61615,1,0,0:0:0:0:
328,172,61773,6,0,P|396:165|474:281,1,215.999993408203,4|8,0:0|0:0,0:0:0:0:
292,312,62247,1,0,0:0:0:0:
166,173,62405,2,0,P|135:98|221:10,1,215.999993408203,2|8,0:0|0:0,0:0:0:0:
231,104,62878,1,0,0:0:0:0:
84,220,63036,6,0,P|41:234|-44:224,1,107.999996704102,2|2,0:0|0:0,0:0:0:0:
164,40,63352,1,8,0:0:0:0:
344,188,63510,2,0,P|356:256|347:316,1,107.999996704102,0|2,0:0|0:0,0:0:0:0:
212,52,63826,1,2,0:0:0:0:
272,252,63984,2,0,P|264:320|236:372,1,107.999996704102,12|0,0:0|0:0,0:0:0:0:
0,164,64300,6,0,P|50:131|152:149,1,161.999995056153,4|0,0:0|0:0,0:0:0:0:
216,184,64615,2,0,B|265:193|265:193|325:182,1,107.999996704102,8|0,0:0|0:0,0:0:0:0:
460,48,64931,2,0,B|403:41|403:41|345:51,1,107.999996704102,2|2,0:0|0:0,0:0:0:0:
167,233,65247,6,0,B|220:223|220:223|268:192,1,107.999996704102,8|0,0:0|0:0,0:0:0:0:
503,6,65563,2,0,B|448:16|448:16|403:43,1,107.999996704102,2|2,0:0|0:0,0:0:0:0:
272,240,65878,6,0,P|299:271|357:303,1,107.999996704102,8|0,0:0|0:0,0:0:0:0:
122,156,66194,2,0,P|87:195|80:248,1,107.999996704102,2|2,0:0|0:0,0:0:0:0:
208,32,66510,1,8,0:0:0:0:
124,320,66668,6,0,P|29:309|10:202,1,215.999993408203,4|2,0:0|0:0,0:0:0:0:
127,29,67142,1,8,0:0:0:0:
80,249,67300,1,2,0:0:0:0:
44,0,67457,1,8,0:0:0:0:
184,264,67615,1,2,0:0:0:0:
25,97,67773,6,0,L|-21:63,1,53.9999983520508,8|8,0:0|0:0,0:0:0:0:
97,120,67931,2,0,L|317:160,1,215.999993408203,4|2,0:0|0:0,0:0:0:0:
170,207,68405,1,8,0:0:0:0:
232,48,68563,2,0,L|350:72,1,107.999996704102,2|8,0:0|0:0,0:0:0:0:
470,157,68878,1,8,0:0:0:0:
475,172,68957,1,8,0:0:0:0:
480,187,69036,1,8,0:0:0:0:
483,202,69115,1,8,0:0:0:0:
487,218,69194,1,8,0:0:0:0:
491,234,69273,1,8,0:0:0:0:
495,246,69352,6,0,B|435:224|403:230|403:230|366:269|314:258|295:231,1,215.999993408203,4|8,0:0|0:0,0:0:0:0:
217,127,69826,1,0,0:0:0:0:
292,318,69984,2,0,B|252:317|216:273|213:233|213:233|124:203,1,215.999993408203,2|8,0:0|0:0,0:0:0:0:
295,232,70457,1,0,0:0:0:0:
57,235,70615,6,0,P|55:176|97:133,1,107.999996704102,2|2,0:0|0:0,0:0:0:0:
296,232,70931,1,8,0:0:0:0:
0,292,71089,2,0,P|-22:238|-18:168,1,107.999996704102,0|2,0:0|0:0,0:0:0:0:
14,123,71326,1,0,0:0:0:0:
14,123,71405,2,0,B|48:127|70:151|70:151|124:144,1,107.999996704102,2|8,0:0|0:0,0:0:0:0:
212,120,71721,1,0,0:0:0:0:
302,318,71878,6,0,B|371:303|377:224|377:224|463:192,1,215.999993408203,4|8,0:0|0:0,0:0:0:0:
464,352,72352,1,0,0:0:0:0:
296,232,72510,2,0,P|244:192|217:144,1,107.999996704102,2|2,0:0|0:0,0:0:0:0:
343,105,72826,1,8,0:0:0:0:
379,227,72984,1,0,0:0:0:0:
132,270,73142,6,0,P|112:202|123:147,1,107.999996704102,2|2,0:0|0:0,0:0:0:0:
147,75,73457,1,8,0:0:0:0:
248,331,73615,2,0,P|266:281|262:228,1,107.999996704102,0|2,0:0|0:0,0:0:0:0:
212,151,73931,1,2,0:0:0:0:
379,227,74089,2,0,B|425:237|425:237|486:228,1,107.999996704102,12|0,0:0|0:0,0:0:0:0:
344,45,74405,5,4,0:0:0:0:
212,151,74563,1,0,0:0:0:0:
192,40,74721,1,8,0:0:0:0:
341,176,74878,1,0,0:0:0:0:
184,272,75036,2,0,B|144:272|144:272|112:280|112:280|68:272|68:272|25:289|-26:262,1,215.999993408203,2|8,0:0|0:0,0:0:0:0:
164,360,75510,1,0,0:0:0:0:
341,176,75668,5,2,0:0:0:0:
292,360,75826,1,2,0:0:0:0:
252,232,75984,1,8,0:0:0:0:
396,368,76142,1,0,0:0:0:0:
164,268,76300,2,0,P|157:215|176:156,1,107.999996704102,2|0,0:0|0:0,0:0:0:0:
172,164,76536,1,8,0:0:0:0:
172,164,76615,1,8,0:0:0:0:
172,164,76694,1,8,0:0:0:0:
172,164,76773,6,0,L|388:146,1,215.999993408203,4|2,0:0|0:0,0:0:0:0:
512,223,77247,2,0,P|470:264|409:286,1,107.999996704102,8|0,0:0|0:0,0:0:0:0:
252,232,77563,1,2,0:0:0:0:
192,320,77721,1,2,0:0:0:0:
88,316,77878,2,0,L|35:214,1,107.999996704102,8|0,0:0|0:0,0:0:0:0:
88,72,78194,5,2,0:0:0:0:
176,116,78352,1,2,0:0:0:0:
244,36,78510,2,0,B|295:21|295:21|359:24,1,107.999996704102,8|0,0:0|0:0,0:0:0:0:
384,208,78826,2,0,B|336:192|336:192|299:148,1,107.999996704102,2|0,0:0|0:0,0:0:0:0:
443,167,79063,1,8,0:0:0:0:
443,167,79142,2,0,P|455:214|428:268,1,107.999996704102,8|0,0:0|0:0,0:0:0:0:
299,148,79457,6,0,L|318:41,1,107.999996704102,12|0,0:0|0:0,0:0:0:0:
200,316,79773,2,0,L|171:205,1,107.999996704102,8|0,0:0|0:0,0:0:0:0:
312,240,80089,5,8,0:0:0:0:
348,344,80247,1,2,0:0:0:0:
192,136,80405,5,8,0:0:0:0:
156,32,80563,1,2,0:0:0:0:
396,233,80721,6,0,B|352:273|352:273|296:288,1,107.999996704102,8|0,0:0|0:0,0:0:0:0:
115,150,81036,2,0,B|152:116|152:116|208:99,1,107.999996704102,8|0,0:0|0:0,0:0:0:0:
457,267,81352,6,0,B|403:284|403:284|343:269,1,107.999996704102,8|2,0:0|0:0,0:0:0:0:
54,120,81668,2,0,B|104:102|104:102|159:115,1,107.999996704102,8|2,0:0|0:0,0:0:0:0:
200,360,81984,6,0,P|172:316|159:252,1,107.999996704102,8|0,0:0|0:0,0:0:0:0:
348,264,82300,2,0,P|376:220|386:156,1,107.999996704102,8|0,0:0|0:0,0:0:0:0:
224,144,82615,2,0,P|206:97|210:28,1,107.999996704102,8|2,0:0|0:0,0:0:0:0:
328,80,82931,1,8,0:0:0:0:
268,268,83089,6,0,P|175:277|122:175,1,215.999993408203,4|2,0:0|0:0,0:0:0:0:
208,200,83563,1,8,0:0:0:0:
52,312,83721,2,0,P|16:260|10:203,1,107.999996704102,0|2,0:0|0:0,0:0:0:0:
100,76,84036,1,0,0:0:0:0:
132,85,84115,1,8,0:0:0:0:
163,95,84194,1,8,0:0:0:0:
195,104,84273,1,8,3:0:0:0:
227,113,84352,1,8,3:0:0:0:
416,244,84510,5,4,0:0:0:0:
416,244,84589,1,8,0:0:0:0:
416,244,84668,1,8,0:0:0:0:
416,244,84747,2,0,L|407:323,1,53.9999983520508,8|8,0:0|0:0,0:0:0:0:
264,384,84984,2,0,B|244:332|244:332|248:264,1,107.999996704102,4|0,0:0|0:0,0:0:0:0:
432,68,85300,2,0,B|452:120|452:120|448:188,1,107.999996704102,4|0,0:0|0:0,0:0:0:0:
217,163,85615,5,12,0:0:0:0:
208,188,85931,1,0,0:0:0:0:
208,216,86247,1,0,0:0:0:0:
221,240,86563,1,0,0:0:0:0:
478,197,86720,5,0,0:0:0:0:
487,172,86799,1,0,0:0:0:0:
487,144,86878,1,0,0:0:0:0:
474,120,86957,1,0,0:0:0:0:
448,104,87036,6,0,P|348:95|248:100,1,180,4|2,0:0|0:0,0:0:0:0:
128,128,87510,1,2,0:0:0:0:
292,328,87668,2,0,P|332:224|296:160,1,180,8|2,0:0|0:0,0:0:0:0:
220,240,88142,1,2,0:0:0:0:
384,356,88299,6,0,L|516:344,1,90,8|2,0:0|0:0,0:0:0:0:
220,240,88615,2,0,L|88:252,1,90,12|0,0:0|0:0,0:0:0:0:
20,252,88931,5,8,0:0:0:0:
316,168,89089,1,8,0:0:0:0:
40,216,89247,1,8,0:0:0:0:
308,204,89405,1,8,0:0:0:0:
