osu file format v13

[General]
AudioFilename: 01. Rising Hope.mp3
AudioLeadIn: 1000
PreviewTime: 63088
Countdown: 0
SampleSet: Soft
StackLeniency: 0.7
Mode: 0
LetterboxInBreaks: 0
WidescreenStoryboard: 0

[Editor]
Bookmarks: 38298,106509
DistanceSpacing: 0.8
BeatDivisor: 4
GridSize: 4
TimelineZoom: 4.499998

[Metadata]
Title:Rising Hope
TitleUnicode:Rising Hope
Artist:LiSA
ArtistUnicode:LiSA
Creator:Kibbleru
Version:Promise
Source:魔法科高校の劣等生
Tags:Mahouka Koukou no Rettousei The Irregular at Magic High School Frostings pkk Garven
BeatmapID:517562
BeatmapSetID:183876

[Difficulty]
HPDrainRate:7.5
CircleSize:4
OverallDifficulty:8
ApproachRate:9.3
SliderMultiplier:1.75
SliderTickRate:2

[Events]
//Background and Video events
0,0,"kibbleru inc bg2.jpg",0,0
//Break Periods
2,8182,9955
2,10709,11850
2,96604,105323
2,138288,140218
2,188346,191537
2,227660,229432
//Storyboard Layer 0 (Background)
//Storyboard Layer 1 (Fail)
//Storyboard Layer 2 (Pass)
//Storyboard Layer 3 (Foreground)
//Storyboard Sound Samples
//Background Colour Transformations
3,100,163,162,255

[TimingPoints]
404,315.789473684211,4,2,1,30,1,0
404,-133.333333333333,4,2,1,30,0,0
4509,-100,4,2,1,20,0,0
4667,-100,4,2,1,25,0,0
4825,-100,4,2,1,30,0,0
4982,-100,4,2,1,35,0,0
5140,-100,4,2,1,40,0,0
5456,-100,4,2,1,50,0,0
7982,-100,4,2,1,40,0,0
12404,-100,4,2,1,60,0,0
18088,-133.333333333333,4,2,1,40,0,0
22825,-166.666666666667,4,2,1,40,0,0
23140,-100,4,2,1,55,0,0
28035,-100,4,2,1,55,0,0
37667,-133.333333333333,4,2,1,55,0,0
37982,-100,4,2,1,55,0,0
38298,-200,4,2,1,60,0,0
38298,-200,4,2,1,60,0,0
38298,-200,4,2,1,60,0,0
48404,-133.333333333333,4,2,1,40,0,0
53035,-133.333333333333,4,2,1,30,0,0
53456,-133.333333333333,4,2,1,60,0,0
57877,-133.333333333333,4,2,1,55,0,0
59298,-133.333333333333,4,2,1,45,0,0
60719,-100,4,2,1,55,0,0
62614,-100,4,2,1,60,0,0
63088,-133.333333333333,4,2,1,30,0,0
63561,-100,4,2,1,60,0,1
73193,-100,4,2,1,45,0,0
73667,-100,4,2,1,60,0,1
82509,-100,4,2,1,60,0,0
88509,-100,4,2,1,40,0,0
88825,-100,4,2,1,60,0,0
90877,-133.333333333333,4,2,1,40,0,0
91351,-100,4,2,1,50,0,0
95140,-80,4,2,1,50,0,0
96404,-100,4,2,1,50,0,0
106509,-100,4,2,1,60,0,0
127193,-200,4,2,1,40,0,0
130193,-133.333333333333,4,2,1,40,0,0
131772,-100,4,2,1,55,0,0
136825,-133.333333333333,4,2,1,50,0,0
141246,-100,4,2,1,50,0,0
145667,-100,4,1,1,40,0,0
147877,315.789473684211,4,1,1,40,1,0
150087,315.789473684211,4,1,1,40,1,0
153560,345.622119815668,4,1,1,40,1,8
154078,345.622119815668,4,2,1,30,1,0
154078,-200,4,2,1,30,0,0
155460,315.789473684211,4,2,1,45,1,0
160512,-100,4,2,1,60,0,0
166354,-133.333333333333,4,2,1,55,0,0
167775,-100,4,2,1,55,0,0
168091,-100,4,2,1,60,0,0
170617,342.857142857143,4,2,1,60,1,0
170788,315.789473684211,4,2,1,60,1,8
170945,315.789473684211,4,2,1,60,1,8
171893,355.029585798817,4,2,1,60,1,0
172070,315.789473684211,4,2,1,60,1,8
172227,315.789473684211,4,2,1,60,1,8
172542,331.491712707182,4,2,1,60,1,8
172749,-133.333333333333,4,2,1,40,0,0
173205,310.880829015544,4,2,1,40,1,0
173205,-133.333333333333,4,2,1,40,0,0
176935,315.789473684211,4,2,1,40,1,0
176935,-133.333333333333,4,2,1,40,0,0
178198,320.855614973262,4,2,1,40,1,0
178198,-133.333333333333,4,2,1,40,0,0
179481,315.789473684211,4,2,1,40,1,0
179481,-133.333333333333,4,2,1,40,0,0
180744,310.880829015544,4,2,1,40,1,0
181987,315.789473684211,4,2,1,40,1,0
182934,324.324324324324,4,2,1,40,1,8
182934,-133.333333333333,4,2,1,40,0,0
183258,315.789473684211,4,2,1,55,1,0
183258,-100,4,2,1,50,0,0
184205,307.692307692308,4,2,1,50,1,8
184512,320.341697810998,4,2,1,50,1,0
185793,315.789473684211,4,2,1,50,1,0
186740,299.25187032419,4,2,1,50,1,8
187039,320.341697810998,4,2,1,50,1,0
187679,311.364815775817,4,2,1,50,1,8
188302,315.789473684211,4,2,1,50,1,0
188302,-133.333333333333,4,2,1,40,0,0
192091,-100,4,2,1,60,0,1
201723,-100,4,2,1,50,0,0
202196,-100,4,2,1,60,0,1
211038,-100,4,2,1,60,0,0
217038,-100,4,2,1,40,0,0
217354,-100,4,2,1,60,0,0
224933,-100,4,2,1,40,0,0
235038,-100,4,2,1,60,0,0

[Colours]
Combo1 : 151,216,251
Combo2 : 41,55,182
Combo3 : 62,167,244

[HitObjects]
152,168,404,6,0,P|146:205|140:252,2,65.6250025033952,2|0|0,0:0|0:0|0:0,0:0:0:0:
232,92,877,1,2,0:0:0:0:
312,168,1035,2,0,P|349:165|384:164,1,65.6250025033952,0|0,0:0|0:0,0:0:0:0:
316,264,1351,2,0,P|281:258|252:252,1,65.6250025033952,2|0,0:0|0:0,0:0:0:0:
160,184,1667,5,2,0:0:0:0:
140,332,1825,2,0,P|116:292|112:256,1,65.6250025033952,2|0,0:0|0:0,0:0:0:0:
160,184,2140,1,2,0:0:0:0:
272,240,2298,2,0,P|309:235|348:232,1,65.6250025033952,2|0,0:0|0:0,0:0:0:0:
476,184,2614,2,0,P|442:176|400:164,1,65.6250025033952,2|0,0:0|0:0,0:0:0:0:
328,48,2930,6,0,P|327:81|328:124,1,65.6250025033952,2|0,0:0|0:0,0:0:0:0:
376,224,3246,1,0,0:0:0:0:
296,148,3404,1,2,0:0:0:0:
288,316,3561,2,0,P|252:309|208:308,1,65.6250025033952,2|0,0:0|0:0,0:0:0:0:
360,240,3877,1,2,0:0:0:0:
212,208,4035,6,0,P|176:207|136:204,1,65.6250025033952,2|0,0:0|0:0,0:0:0:0:
128,188,4272,1,0,0:0:0:0:
121,165,4351,1,0,0:0:0:0:
121,141,4430,1,0,0:0:0:0:
127,118,4509,1,2,0:0:0:0:
138,98,4588,1,2,0:0:0:0:
154,80,4667,1,2,0:0:0:0:
174,67,4746,1,2,0:0:0:0:
196,60,4825,5,2,0:0:0:0:
220,58,4904,1,2,0:0:0:0:
243,63,4982,1,2,0:0:0:0:
264,72,5061,1,2,0:0:0:0:
328,144,5456,6,0,L|320:192,1,43.75,8|0,0:1|0:0,0:0:0:0:
416,208,5614,2,0,L|420:260,1,43.75,8|0,0:0|0:0,0:0:0:0:
324,308,5772,1,8,0:0:0:0:
328,144,5930,5,12,0:1:0:0:
416,208,6246,1,12,0:1:0:0:
324,308,6561,1,12,0:0:0:0:
328,224,7982,5,12,0:1:0:0:
228,200,10509,5,10,0:1:0:0:
312,132,12404,5,2,0:0:0:0:
352,220,12561,2,0,L|336:264,1,43.75,8|0,0:1|0:0,0:0:0:0:
312,132,12719,1,8,0:0:0:0:
312,132,13035,6,0,P|216:136|132:136,1,175,12|10,0:1|0:0,0:0:0:0:
140,276,13509,1,0,0:0:0:0:
252,228,13667,2,0,P|312:256|328:280,1,87.5,10|2,0:1|0:0,0:0:0:0:
140,276,13982,1,10,0:0:0:0:
192,144,14140,6,0,P|236:143|288:140,1,87.5,2|8,0:0|0:1,0:0:0:0:
356,216,14456,1,2,0:0:0:0:
240,316,14614,2,0,P|245:265|256:212,1,87.5,10|0,0:0|0:0,0:0:0:0:
116,168,14930,2,0,P|126:208|136:276,1,87.5,10|0,0:1|0:0,0:0:0:0:
212,144,15246,2,0,P|221:91|224:48,1,87.5,10|2,0:0|0:0,0:0:0:0:
312,176,15561,6,0,P|388:168|408:176,1,87.5,10|0,0:1|0:0,0:0:0:0:
256,264,15877,1,10,0:0:0:0:
312,176,16035,1,2,0:0:0:0:
208,108,16193,2,0,P|162:111|120:112,1,87.5,10|0,0:1|0:0,0:0:0:0:
216,228,16509,1,10,0:0:0:0:
340,160,16667,2,0,P|343:115|344:72,1,87.5,2|8,0:0|0:1,0:0:0:0:
252,200,16982,5,2,0:0:0:0:
340,160,17140,1,10,0:0:0:0:
420,212,17298,1,2,0:0:0:0:
272,304,17456,6,0,P|273:260|276:216,1,87.5,10|10,0:1|0:0,0:0:0:0:
292,192,17693,1,8,0:0:0:0:
316,174,17772,1,10,0:0:0:0:
345,164,17851,1,8,0:0:0:0:
376,164,17930,1,10,0:0:0:0:
405,173,18009,1,8,0:0:0:0:
430,191,18088,6,0,P|471:192|504:192,1,65.6250025033952,4|0,0:0|0:0,0:0:0:0:
384,280,18404,2,0,P|342:278|310:279,1,65.6250025033952,0|0,0:0|0:0,0:0:0:0:
472,268,18719,2,0,P|468:312|456:336,1,65.6250025033952,2|0,0:0|0:0,0:0:0:0:
360,200,19035,2,0,P|348:160|348:128,1,65.6250025033952,0|0,0:0|0:0,0:0:0:0:
384,280,19351,6,0,P|349:277|316:276,1,65.6250025033952,2|0,0:0|0:0,0:0:0:0:
240,332,19667,1,0,0:0:0:0:
200,192,19825,2,0,P|248:200|280:228,1,65.6250025033952,2|0,0:0|0:0,0:0:0:0:
148,324,20140,2,0,P|130:278|139:236,1,65.6250025033952,2|0,0:0|0:0,0:0:0:0:
256,320,20456,1,10,0:1:0:0:
112,176,20614,6,0,P|110:135|108:84,1,65.6250025033952,10|0,0:1|0:0,0:0:0:0:
192,228,20930,1,0,0:0:0:0:
216,112,21088,2,0,P|228:77|244:32,1,65.6250025033952,2|0,0:0|0:0,0:0:0:0:
316,132,21404,2,0,L|352:126|388:120,1,65.6250025033952,2|0,0:0|0:0,0:0:0:0:
264,224,21719,2,0,P|227:218|192:212,1,65.6250025033952,2|0,0:0|0:0,0:0:0:0:
400,212,22035,6,0,P|452:200|484:208,1,65.6250025033952,2|0,0:0|0:0,0:0:0:0:
332,284,22351,2,0,P|364:288|394:300,1,65.6250025033952,2|0,0:0|0:0,0:0:0:0:
248,320,22667,1,8,0:1:0:0:
248,320,22746,1,8,0:1:0:0:
248,320,22825,6,0,P|200:304|152:308,1,78.7499975967408,8|0,0:3|0:0,0:0:0:0:
96,324,23140,5,12,0:1:0:0:
116,228,23298,1,0,0:0:0:0:
136,136,23456,1,10,0:1:0:0:
92,48,23614,1,0,0:0:0:0:
0,188,23772,5,10,0:1:0:0:
96,232,23930,1,0,0:0:0:0:
180,172,24088,1,10,0:1:0:0:
164,68,24246,1,0,0:0:0:0:
164,68,24325,1,8,0:0:0:0:
164,68,24404,6,0,P|127:59|64:52,1,87.5,10|0,0:1|0:0,0:0:0:0:
36,128,24640,1,8,0:0:0:0:
36,128,24719,2,0,P|45:175|44:220,1,87.5,10|0,0:1|0:0,0:0:0:0:
136,176,24956,1,8,0:0:0:0:
136,176,25035,2,0,P|144:232|164:268,1,87.5,10|0,0:1|0:0,0:0:0:0:
68,288,25272,1,8,0:0:0:0:
68,288,25351,2,0,P|48:340|20:368,1,87.5,10|0,0:1|0:0,0:0:0:0:
144,340,25588,1,8,0:0:0:0:
144,340,25667,6,0,P|196:352|232:344,1,87.5,10|0,0:1|0:0,0:0:0:0:
280,272,25904,1,8,0:0:0:0:
280,272,25982,2,0,P|264:220|239:193,1,87.5,10|0,0:1|0:0,0:0:0:0:
160,168,26219,1,8,0:0:0:0:
186,168,26298,5,10,0:1:0:0:
212,168,26377,1,8,0:0:0:0:
238,168,26456,1,8,0:0:0:0:
264,167,26535,1,8,0:0:0:0:
291,166,26614,2,0,P|302:147|310:127,1,43.75,8|8,0:0|0:0,0:0:0:0:
364,200,26772,5,12,0:1:0:0:
364,200,27561,5,0,0:0:0:0:
272,264,27719,1,8,0:1:0:0:
456,248,27877,1,8,0:0:0:0:
312,108,28035,6,0,P|230:111|136:112,1,175,12|8,0:1|0:1,0:0:0:0:
40,212,28509,2,0,P|100:208|140:228,1,87.5,8|2,0:0|0:0,0:0:0:0:
192,328,28825,1,10,0:1:0:0:
268,204,28982,1,8,0:1:0:0:
192,328,29140,2,0,P|143:325|88:324,1,87.5,8|2,0:0|0:0,0:0:0:0:
280,292,29456,6,0,P|325:304|372:316,1,87.5,10|8,0:1|0:1,0:0:0:0:
240,192,29772,1,10,0:0:0:0:
368,168,29930,2,0,P|380:108|376:68,1,87.5,2|8,0:0|0:1,0:0:0:0:
220,148,30246,2,0,P|208:208|212:248,1,87.5,10|8,0:1|0:0,0:0:0:0:
296,80,30561,1,2,0:0:0:0:
320,244,30719,6,0,P|396:252|460:176,1,175,10|8,0:1|0:0,0:0:0:0:
320,244,31193,1,2,0:0:0:0:
416,344,31351,2,0,P|484:336|508:336,1,87.5,8|10,0:1|0:1,0:0:0:0:
312,328,31667,2,0,P|256:344|212:336,1,87.5,8|2,0:0|0:0,0:0:0:0:
400,224,31982,6,0,P|401:175|400:120,1,87.5,8|10,0:1|0:1,0:0:0:0:
312,328,32298,1,8,0:0:0:0:
400,224,32456,1,2,0:0:0:0:
280,220,32614,1,8,0:1:0:0:
424,324,32772,1,8,0:1:0:0:
280,220,32930,1,8,0:0:0:0:
372,260,33088,1,10,0:0:0:0:
372,260,33167,1,8,0:0:0:0:
372,260,33246,6,0,P|378:212|384:160,1,87.5,12|0,0:1|0:0,0:0:0:0:
200,268,33561,2,0,P|204:311|210:354,1,87.5,10|0,0:0|0:0,0:0:0:0:
248,188,33877,2,0,P|188:180|144:188,1,87.5,10|8,0:1|0:1,0:0:0:0:
324,340,34193,2,0,P|384:348|428:340,1,87.5,10|0,0:0|0:0,0:0:0:0:
320,232,34509,5,10,0:1:0:0:
216,340,34667,1,8,0:1:0:0:
400,316,34825,1,10,0:0:0:0:
288,296,34982,1,0,0:0:0:0:
176,276,35140,2,0,P|132:282|89:286,1,87.5,10|8,0:1|0:1,0:0:0:0:
136,200,35456,1,8,0:0:0:0:
136,364,35614,1,2,0:0:0:0:
136,200,35772,6,0,P|184:136|240:144,1,131.25,10|8,0:1|0:0,0:0:0:0:
296,208,36088,2,0,B|348:212|348:212|388:204|428:196,1,131.25,10|8,0:1|0:0,0:0:0:0:
456,112,36404,2,0,P|453:176|444:260,1,131.25,10|8,0:1|0:0,0:0:0:0:
412,356,36719,2,0,P|376:320|384:268,1,87.5,10|0,0:1|0:0,0:0:0:0:
496,188,37035,5,10,0:3:0:0:
288,308,37193,1,10,0:3:0:0:
336,76,37351,1,10,0:0:0:0:
356,200,37667,6,0,P|312:184|268:184,1,65.6250025033952,2|0,0:0|0:0,0:0:0:0:
208,180,37982,6,0,B|244:184|284:156|284:156|312:156|333:158,1,131.25,2|0,0:0|0:0,0:0:0:0:
392,216,38298,6,0,P|392:280|328:316,1,131.25,12|8,0:1|0:1,0:0:0:0:
340,315,38930,1,8,0:0:0:0:
260,260,39088,2,0,B|233:257|200:260|200:260|168:280|128:284,1,131.25,8|8,0:1|0:1,0:0:0:0:
96,200,39719,6,0,P|144:200|180:164,1,87.5,8|8,0:0|0:1,0:0:0:0:
248,128,40193,2,0,L|308:132,1,43.75,8|8,0:0|0:1,0:0:0:0:
336,208,40509,2,0,L|396:204,1,43.75,0|0,0:0|0:0,0:0:0:0:
268,268,40825,6,0,P|200:268|124:276,1,131.25,12|8,0:1|0:1,0:0:0:0:
137,274,41456,1,8,0:0:0:0:
116,184,41614,2,0,P|172:164|188:108,1,109.375,8|0,0:1|0:0,0:0:0:0:
164,48,42088,5,8,0:1:0:0:
300,120,42246,1,8,0:0:0:0:
200,172,42404,1,8,0:1:0:0:
260,96,42561,1,0,0:0:0:0:
260,96,42640,1,8,0:0:0:0:
260,96,42719,5,8,0:0:0:0:
132,128,42877,1,8,0:0:0:0:
340,196,43035,1,8,0:0:0:0:
220,228,43193,1,8,0:0:0:0:
340,196,43351,6,0,B|389:189|428:188|428:188|451:196|472:208,1,131.25,4|8,0:0|0:1,0:0:0:0:
467,205,43982,1,8,0:0:0:0:
348,275,44140,2,0,P|287:256|262:197,1,131.25,8|8,0:1|0:1,0:0:0:0:
312,112,44772,6,0,P|364:104|408:112,1,87.5,8|8,0:0|0:1,0:0:0:0:
456,180,45246,2,0,L|460:236,1,43.75,8|8,0:0|0:1,0:0:0:0:
360,224,45561,2,0,L|352:284,1,43.75,0|0,0:0|0:0,0:0:0:0:
380,144,45877,6,0,P|377:74|372:12,1,131.25,12|8,0:1|0:1,0:0:0:0:
372,13,46509,1,8,0:0:0:0:
296,76,46667,2,0,P|264:32|196:36,1,109.375,8|0,0:1|0:0,0:0:0:0:
160,88,47140,5,10,0:0:0:0:
264,156,47298,1,8,0:1:0:0:
88,196,47456,1,10,0:0:0:0:
200,240,47614,1,0,0:0:0:0:
200,240,47693,1,8,0:0:0:0:
200,240,47772,5,10,0:0:0:0:
160,108,47930,1,8,0:0:0:0:
88,196,48088,1,8,0:3:0:0:
264,156,48246,1,8,0:3:0:0:
56,160,48404,6,0,L|68:228,1,65.6250025033952,12|0,0:1|0:0,0:0:0:0:
160,88,48719,1,0,0:0:0:0:
168,200,48877,1,0,0:0:0:0:
264,104,49035,2,0,P|304:88|348:92,1,65.6250025033952,2|0,0:0|0:0,0:0:0:0:
248,212,49351,2,0,P|192:204|168:188,1,65.6250025033952,0|0,0:0|0:0,0:0:0:0:
344,184,49667,6,0,L|332:272,1,65.6250025033952,2|0,0:0|0:0,0:0:0:0:
184,120,49982,2,0,L|172:48,1,65.6250025033952,2|0,0:0|0:0,0:0:0:0:
248,212,50298,2,0,P|238:243|226:274,1,65.6250025033952,2|0,0:0|0:0,0:0:0:0:
284,88,50614,2,0,P|324:72|360:72,1,65.6250025033952,2|8,0:0|0:1,0:0:0:0:
136,232,50930,6,0,P|80:228|48:216,1,65.6250025033952,10|0,0:1|0:0,0:0:0:0:
144,144,51246,1,0,0:0:0:0:
124,316,51404,1,0,0:0:0:0:
144,144,51561,2,0,P|146:103|152:56,1,65.6250025033952,2|0,0:0|0:0,0:0:0:0:
240,220,51877,2,0,P|236:177|232:132,1,65.6250025033952,0|0,0:0|0:0,0:0:0:0:
320,276,52193,6,0,P|272:252|196:276,1,131.25000500679,2|2,0:0|0:0,0:0:0:0:
200,272,52825,5,10,0:0:0:0:
208,233,52930,1,8,0:0:0:0:
202,194,53035,1,8,0:3:0:0:
180,162,53140,5,8,0:3:0:0:
177,124,53246,1,8,0:3:0:0:
192,88,53351,1,8,0:3:0:0:
224,65,53456,6,0,P|293:71|376:80,1,131.25000500679,12|0,0:1|0:0,0:0:0:0:
354,77,53930,1,10,0:1:0:0:
344,228,54088,1,10,0:0:0:0:
344,228,54561,1,2,0:0:0:0:
412,148,54719,5,10,0:1:0:0:
271,152,54877,2,0,P|236:206|243:270,1,131.25000500679,8|8,0:0|0:1,0:0:0:0:
352,320,55351,2,0,P|388:314|432:308,1,65.6250025033952,10|8,0:0|0:1,0:0:0:0:
240,288,55667,2,0,P|204:284|160:280,1,65.6250025033952,10|0,0:0|0:0,0:0:0:0:
344,228,55982,5,10,0:0:0:0:
240,240,56298,1,8,0:1:0:0:
136,248,56614,1,8,0:1:0:0:
68,328,56930,1,8,0:1:0:0:
112,132,57246,5,10,0:1:0:0:
152,236,57404,1,0,0:0:0:0:
264,252,57561,1,10,0:1:0:0:
344,172,57719,1,8,0:0:0:0:
208,48,57877,5,10,0:0:0:0:
196,160,58035,1,8,0:0:0:0:
180,276,58193,1,10,0:0:0:0:
252,372,58351,1,8,0:0:0:0:
248,216,59298,6,0,P|313:212|379:212,1,131.25000500679,2|2,0:0|0:0,0:0:0:0:
324,292,59772,1,0,0:0:0:0:
316,131,59930,2,0,P|382:128|448:128,1,131.25000500679,2|2,0:0|0:0,0:0:0:0:
448,128,60561,5,2,0:0:0:0:
400,220,60719,1,10,0:0:0:0:
400,220,60798,1,8,0:0:0:0:
400,220,60877,2,0,L|416:284,1,43.75,10|0,0:3|0:0,0:0:0:0:
448,128,61035,5,12,0:0:0:0:
296,180,61193,1,10,0:1:0:0:
488,216,61351,1,8,0:1:0:0:
252,272,61509,1,10,0:0:0:0:
252,272,61825,5,10,0:0:0:0:
376,232,61982,1,2,0:0:0:0:
288,60,62140,1,14,0:0:0:0:
288,60,62614,5,8,0:0:0:0:
344,324,62772,1,8,0:0:0:0:
288,60,62930,1,8,0:0:0:0:
284,176,63561,6,0,P|234:170|96:160,1,175,12|8,0:1|0:0,0:0:0:0:
284,80,64035,1,2,0:0:0:0:
336,272,64193,2,0,P|264:268|228:272,1,87.5,10|8,0:1|0:1,0:0:0:0:
376,196,64509,1,8,0:0:0:0:
424,328,64667,1,2,0:0:0:0:
476,156,64825,6,0,P|484:112|472:52,1,87.5,10|8,0:1|0:1,0:0:0:0:
376,196,65140,1,10,0:0:0:0:
300,96,65298,2,0,P|249:99|204:100,1,87.5,2|8,0:0|0:1,0:0:0:0:
320,224,65614,2,0,P|370:220|416:220,1,87.5,10|8,0:1|0:0,0:0:0:0:
228,188,65930,1,2,0:0:0:0:
392,100,66088,6,0,P|353:25|270:13,1,175,12|8,0:1|0:0,0:0:0:0:
392,100,66561,1,2,0:0:0:0:
264,108,66719,2,0,P|192:104|144:104,1,87.5,10|8,0:1|0:1,0:0:0:0:
292,228,67035,2,0,P|334:222|388:212,1,87.5,8|2,0:0|0:0,0:0:0:0:
196,184,67351,5,10,0:1:0:0:
328,316,67509,1,8,0:1:0:0:
364,172,67667,1,10,0:0:0:0:
264,248,67825,2,0,P|220:261|176:280,1,87.5,2|8,0:0|0:1,0:0:0:0:
368,216,68140,2,0,P|353:259|340:312,1,87.5,10|8,0:1|0:0,0:0:0:0:
448,160,68456,1,2,0:0:0:0:
480,284,68614,6,0,P|477:198|480:104,2,175,12|10|10,0:1|0:0|0:1,0:0:0:0:
316,196,69404,1,8,0:1:0:0:
368,288,69561,2,0,P|325:293|292:321,1,87.5,10|0,0:0|0:0,0:0:0:0:
456,356,69877,5,10,0:1:0:0:
432,184,70035,1,8,0:1:0:0:
368,288,70193,1,10,0:0:0:0:
512,264,70351,1,0,0:0:0:0:
328,188,70509,5,10,0:1:0:0:
484,268,70667,1,8,0:1:0:0:
328,304,70825,1,10,0:0:0:0:
448,140,70982,6,0,P|360:132|256:128,1,175,12|10,0:1|0:1,0:0:0:0:
180,244,71456,2,0,P|168:202|160:144,1,87.5,10|0,0:0|0:0,0:0:0:0:
284,316,71772,2,0,P|285:270|292:216,1,87.5,10|8,0:0|0:1,0:0:0:0:
364,176,72009,1,0,0:0:0:0:
364,176,72088,2,0,L|424:180,1,43.75,8|8,0:0|0:0,0:0:0:0:
296,112,72246,6,0,P|213:120|116:120,1,175,12|10,0:0|0:1,0:0:0:0:
192,272,72719,1,10,0:0:0:0:
232,148,72877,1,10,0:1:0:0:
84,264,73035,1,8,0:0:0:0:
288,300,73193,5,2,0:0:0:0:
188,244,73351,2,0,L|168:200,1,43.75,10|8,0:0|0:0,0:0:0:0:
200,332,73509,2,0,L|190:374,1,43.75,10|8,0:0|0:0,0:0:0:0:
288,300,73667,6,0,P|352:284|392:292,1,87.5,12|0,0:1|0:0,0:0:0:0:
268,128,73982,1,8,0:0:0:0:
188,224,74140,1,2,0:0:0:0:
359,204,74298,2,0,P|402:194|445:185,1,87.5,10|8,0:1|0:1,0:0:0:0:
268,128,74614,1,8,0:0:0:0:
228,240,74772,1,2,0:0:0:0:
372,100,74930,6,0,P|371:50|368:8,1,87.5,10|8,0:1|0:1,0:0:0:0:
276,152,75246,1,10,0:0:0:0:
204,56,75404,2,0,P|164:72|140:108,1,87.5,2|8,0:0|0:1,0:0:0:0:
56,112,75640,1,2,0:0:0:0:
56,112,75719,2,0,P|66:157|76:220,1,87.5,10|8,0:1|0:0,0:0:0:0:
216,136,76035,1,2,0:0:0:0:
152,248,76193,6,0,P|148:316|240:356,1,175,12|8,0:1|0:0,0:0:0:0:
152,248,76667,1,2,0:0:0:0:
292,260,76825,2,0,P|340:249|384:244,1,87.5,10|8,0:1|0:1,0:0:0:0:
204,160,77140,1,8,0:0:0:0:
324,164,77298,1,2,0:0:0:0:
156,68,77456,6,0,P|104:74|56:76,1,87.5,10|8,0:1|0:1,0:0:0:0:
176,172,77772,1,10,0:0:0:0:
284,84,77930,2,0,P|306:47|308:4,1,87.5,2|8,0:0|0:1,0:0:0:0:
256,192,78246,2,0,P|307:185|356:184,1,87.5,10|8,0:1|0:0,0:0:0:0:
420,96,78561,1,2,0:0:0:0:
372,280,78719,5,12,0:1:0:0:
340,164,78877,1,0,0:0:0:0:
256,296,79035,1,10,0:0:0:0:
284,84,79193,1,0,0:0:0:0:
408,216,79351,2,0,P|328:208|292:208,1,87.5,10|8,0:1|0:1,0:0:0:0:
420,308,79667,1,10,0:0:0:0:
496,208,79825,1,0,0:0:0:0:
320,108,79982,6,0,P|240:100|204:100,1,87.5,10|8,0:1|0:1,0:0:0:0:
288,188,80298,1,10,0:0:0:0:
292,16,80456,1,2,0:0:0:0:
288,188,80614,2,0,P|257:242|194:249,1,131.25,10|0,0:3|0:0,0:0:0:0:
132,192,80930,2,0,L|132:144,1,43.75,10|8,0:0|0:0,0:0:0:0:
88,280,81088,6,0,P|164:276|280:292,1,175,12|10,0:1|0:1,0:0:0:0:
400,236,81561,2,0,P|411:189|420:148,1,87.5,10|0,0:0|0:0,0:0:0:0:
296,164,81877,2,0,P|280:123|260:80,1,87.5,10|8,0:1|0:1,0:0:0:0:
168,184,82193,2,0,P|123:177|72:172,1,87.5,8|0,0:0|0:0,0:0:0:0:
192,292,82509,5,10,0:1:0:0:
248,192,82667,1,8,0:1:0:0:
328,272,82825,5,10,0:0:0:0:
312,132,82982,1,0,0:0:0:0:
428,208,83140,5,10,0:1:0:0:
344,56,83298,1,0,0:0:0:0:
344,56,83377,1,8,0:0:0:0:
344,56,83456,2,0,B|338:96|338:96|340:153,1,87.5,10|0,0:0|0:0,0:0:0:0:
168,284,83772,6,0,P|176:236|176:184,1,87.5,14|0,0:0|0:0,0:0:0:0:
328,236,84088,2,0,P|344:300|368:336,1,87.5,10|0,0:0|0:0,0:0:0:0:
256,172,84404,2,0,P|256:112|248:68,1,87.5,10|8,0:0|0:1,0:0:0:0:
204,260,84719,2,0,P|148:272|100:260,1,87.5,8|0,0:0|0:0,0:0:0:0:
328,236,85035,6,0,P|369:245|424:264,1,87.5,10|0,0:0|0:0,0:0:0:0:
224,136,85351,2,0,P|183:146|124:156,1,87.5,10|0,0:0|0:0,0:0:0:0:
332,144,85667,2,0,P|328:100|308:60,1,87.5,10|8,0:0|0:1,0:0:0:0:
232,228,85982,2,0,P|236:272|256:312,1,87.5,10|8,0:0|0:1,0:0:0:0:
224,136,86298,6,0,P|182:127|136:112,1,87.5,10|0,0:0|0:0,0:0:0:0:
304,228,86614,2,0,P|255:240|216:256,1,87.5,10|0,0:0|0:0,0:0:0:0:
384,132,86930,2,0,P|344:124|296:112,1,87.5,10|8,0:0|0:1,0:0:0:0:
428,240,87246,1,10,0:0:0:0:
240,188,87404,6,0,P|140:192|56:200,1,175,12|10,0:1|0:1,0:0:0:0:
208,272,87877,1,10,0:0:0:0:
116,332,88035,1,2,0:0:0:0:
292,320,88193,5,8,0:3:0:0:
309,318,88272,1,0,0:0:0:0:
326,316,88351,1,0,0:0:0:0:
344,316,88430,1,8,0:3:0:0:
372,328,88509,5,8,0:0:0:0:
356,301,88588,1,8,0:0:0:0:
352,271,88667,1,10,0:0:0:0:
357,241,88746,1,8,0:0:0:0:
373,215,88825,6,0,L|440:204,1,43.75,10|8,0:0|0:0,0:0:0:0:
292,160,88982,2,0,L|244:156,1,43.75,8|8,0:0|0:0,0:0:0:0:
364,112,89140,1,10,0:0:0:0:
248,248,89298,5,12,0:1:0:0:
364,112,89614,1,12,0:1:0:0:
440,276,89930,1,12,0:0:0:0:
328,192,91351,6,0,P|245:194|144:200,1,175,12|10,0:0|0:1,0:0:0:0:
56,128,91825,2,0,P|53:177|52:232,1,87.5,10|10,0:1|0:0,0:0:0:0:
112,328,92140,2,0,P|172:284|280:320,1,175,10|10,0:1|0:1,0:0:0:0:
360,232,92614,5,10,0:0:0:0:
196,248,92772,2,0,B|176:188|176:188|201:138|244:72,1,175,10|10,0:1|0:1,0:0:0:0:
300,180,93246,2,0,L|316:132,1,43.75,8|8,0:0|0:0,0:0:0:0:
360,232,93404,2,0,P|305:222|180:228,1,175,12|10,0:1|0:1,0:0:0:0:
128,280,93798,1,8,0:1:0:0:
128,280,93877,6,0,P|148:352|248:344,1,175,10|10,0:0|0:1,0:0:0:0:
208,236,94351,1,2,0:0:0:0:
332,280,94509,2,0,P|378:277|424:272,1,87.5,10|2,0:1|0:0,0:0:0:0:
280,152,94825,2,0,P|233:145|176:140,1,87.5,10|2,0:1|0:0,0:0:0:0:
324,56,95140,6,0,B|304:124|320:164|320:164|348:175|376:184,1,164.0625,10|0,0:1|0:0,0:0:0:0:
432,136,95456,6,0,P|376:204|404:284,1,164.0625,10|0,0:1|0:0,0:0:0:0:
436,336,95772,6,0,B|404:292|404:292|337:284|284:288,1,164.0625,10|8,0:1|0:0,0:0:0:0:
296,360,96088,6,0,B|288:316|272:280|272:280|224:276|180:288,1,164.0625,10|8,0:1|0:0,0:0:0:0:
136,340,96404,5,12,0:1:0:0:
120,232,105877,6,0,B|176:244|176:244|216:240,1,87.5,0|0,0:0|0:0,0:0:0:0:
264,160,106193,2,0,B|324:152|324:152|364:168,1,87.5,0|0,0:0|0:0,0:0:0:0:
432,256,106509,6,0,P|436:179|448:80,1,175,12|8,0:1|0:1,0:0:0:0:
320,128,106982,2,0,P|325:168|332:220,1,87.5,8|8,0:1|0:0,0:0:0:0:
220,140,107298,2,0,B|168:104|100:120|100:120|75:162,1,175,10|8,0:1|0:1,0:0:0:0:
156,256,107772,5,8,0:0:0:0:
292,232,107930,2,0,P|304:156|304:56,1,175,10|8,0:1|0:1,0:0:0:0:
156,88,108404,1,8,0:0:0:0:
208,200,108561,2,0,P|188:260|84:264,1,175,10|0,0:1|0:0,0:0:0:0:
136,116,109035,6,0,P|180:108|236:104,1,87.5,12|0,0:0|0:0,0:0:0:0:
308,168,109351,2,0,P|356:120|388:96,1,87.5,8|8,0:1|0:1,0:0:0:0:
488,112,109667,1,8,0:0:0:0:
408,216,109825,2,0,P|313:206|220:208,1,175,10|0,0:1|0:0,0:0:0:0:
108,304,110298,5,10,0:0:0:0:
272,292,110456,1,8,0:1:0:0:
184,220,110614,1,2,0:0:0:0:
228,368,110772,1,8,0:1:0:0:
228,368,110851,1,8,0:1:0:0:
228,368,110930,1,10,0:0:0:0:
348,336,111088,1,8,0:0:0:0:
188,296,111246,1,2,0:3:0:0:
376,244,111404,1,10,0:0:0:0:
152,156,111561,6,0,P|145:243|136:344,1,175,12|8,0:0|0:1,0:0:0:0:
248,208,112035,2,0,P|284:168|324:160,1,87.5,8|8,0:1|0:0,0:0:0:0:
292,296,112351,2,0,P|217:287|100:276,1,175,10|8,0:1|0:1,0:0:0:0:
92,140,112825,5,8,0:0:0:0:
204,196,112982,2,0,P|129:187|12:176,1,175,10|8,0:1|0:1,0:0:0:0:
200,112,113456,2,0,P|212:72|224:28,1,87.5,8|10,0:0|0:1,0:0:0:0:
308,80,113772,1,8,0:0:0:0:
124,44,113930,1,0,0:0:0:0:
300,172,114088,6,0,P|303:222|308:268,1,87.5,10|0,0:1|0:0,0:0:0:0:
212,268,114404,2,0,P|215:318|220:364,1,87.5,10|0,0:1|0:0,0:0:0:0:
116,228,114719,2,0,P|113:178|108:132,1,87.5,10|0,0:1|0:0,0:0:0:0:
208,172,115035,1,10,0:1:0:0:
44,288,115193,1,0,0:0:0:0:
216,300,115351,6,0,P|276:284|304:252,1,87.5,10|10,0:0|0:0,0:0:0:0:
124,248,115667,2,0,P|118:285|112:340,1,87.5,10|0,0:1|0:0,0:0:0:0:
220,208,115982,5,8,0:0:0:0:
207,185,116061,1,8,0:0:0:0:
189,165,116140,1,8,0:0:0:0:
167,151,116219,1,8,0:0:0:0:
142,143,116298,2,0,L|96:148,1,43.75,8|8,0:0|0:0,0:0:0:0:
180,72,116456,6,0,P|268:72|356:76,1,175,12|8,0:1|0:1,0:0:0:0:
464,160,116930,2,0,P|461:110|456:64,1,87.5,10|0,0:1|0:0,0:0:0:0:
376,232,117246,2,0,P|344:196|308:164,1,87.5,10|0,0:1|0:0,0:0:0:0:
192,296,117561,5,10,0:0:0:0:
300,272,117719,1,0,0:0:0:0:
216,192,117877,5,10,0:1:0:0:
272,368,118035,1,0,0:0:0:0:
84,328,118193,1,10,0:0:0:0:
192,296,118351,1,0,0:0:0:0:
100,184,118509,2,0,P|101:141|104:92,1,87.5,10|2,0:1|0:0,0:0:0:0:
200,232,118825,2,0,P|198:274|196:324,1,87.5,8|0,0:0|0:0,0:0:0:0:
252,152,119140,6,0,P|293:141|356:164,1,87.5,10|0,0:1|0:0,0:0:0:0:
168,232,119456,1,10,0:0:0:0:
252,152,119614,1,0,0:0:0:0:
168,72,119772,2,0,P|125:69|76:64,1,87.5,10|0,0:1|0:0,0:0:0:0:
264,44,120088,1,10,0:0:0:0:
164,152,120246,1,0,0:0:0:0:
268,252,120404,6,0,L|260:302|252:352,1,87.5,10|0,0:1|0:0,0:0:0:0:
172,272,120719,1,10,0:0:0:0:
348,308,120877,1,0,0:0:0:0:
172,272,121035,1,10,0:0:0:0:
392,176,121193,5,8,0:0:0:0:
361,175,121272,1,8,0:0:0:0:
330,174,121351,1,8,0:0:0:0:
300,173,121430,1,8,0:0:0:0:
269,172,121509,1,12,0:1:0:0:
196,144,121825,5,0,0:0:0:0:
160,268,121982,1,10,0:0:0:0:
108,96,122140,1,2,0:0:0:0:
88,300,122298,6,0,P|173:289|254:321,1,175,10|8,0:1|0:0,0:0:0:0:
164,184,122772,1,2,0:0:0:0:
284,228,122930,6,0,P|344:216|392:104,1,175,10|8,0:1|0:0,0:0:0:0:
164,184,123404,1,2,0:0:0:0:
360,304,123561,2,0,P|405:313|448:328,1,87.5,10|0,0:1|0:0,0:0:0:0:
448,228,123877,1,12,0:0:0:0:
240,320,124035,1,2,0:0:0:0:
336,208,124193,6,0,P|341:164|348:108,1,87.5,10|0,0:1|0:0,0:0:0:0:
252,152,124509,2,0,L|234:116|212:72,1,87.5,10|0,0:0|0:0,0:0:0:0:
152,164,124825,2,0,P|106:151|60:140,1,87.5,10|0,0:1|0:0,0:0:0:0:
84,240,125140,2,0,P|43:255|2:272,1,87.5,10|0,0:0|0:0,0:0:0:0:
180,276,125456,5,8,0:1:0:0:
197,262,125535,1,8,0:1:0:0:
216,252,125614,1,8,0:1:0:0:
237,247,125693,1,8,0:1:0:0:
264,252,125772,5,8,0:1:0:0:
283,269,125851,1,8,0:3:0:0:
307,280,125930,1,8,0:3:0:0:
332,285,126009,1,8,0:3:0:0:
364,284,126088,5,8,0:0:0:0:
391,271,126167,1,8,0:0:0:0:
412,249,126246,1,8,0:0:0:0:
423,221,126325,1,8,0:0:0:0:
428,188,126404,5,8,0:0:0:0:
403,163,126482,1,8,0:0:0:0:
391,131,126561,1,8,0:0:0:0:
394,96,126640,1,8,0:0:0:0:
412,68,126719,5,12,0:1:0:0:
476,120,127193,6,0,B|456:108|436:104|436:104|399:107|376:116|348:116|348:116|300:128,1,175,2|0,0:0|0:0,0:0:0:0:
224,96,127982,6,0,B|256:108|292:112|292:112|308:124|308:124|300:148|292:164|292:164|236:168|208:176|208:176|160:160|112:164,1,306.25,2|0,0:0|0:0,0:0:0:0:
44,120,129246,6,0,B|72:128|72:128|96:132|120:160|120:160|100:200|100:200|96:232|108:256|108:256|112:292,1,218.75,2|0,0:0|0:0,0:0:0:0:
184,336,130193,6,0,P|224:328|264:324,1,65.6250025033952,2|2,0:0|0:0,0:0:0:0:
320,344,130430,2,0,P|338:347|364:352,2,32.8125012516976,2|2|2,0:0|0:0|0:0,0:0:0:0:
276,144,130825,5,8,0:0:0:0:
352,232,130982,1,10,0:3:0:0:
352,232,131061,1,8,0:3:0:0:
352,232,131140,1,8,0:3:0:0:
232,276,131298,1,8,0:1:0:0:
456,256,131456,6,0,L|448:132,1,98.4375037550928,8|0,0:0|0:0,0:0:0:0:
384,100,131772,6,0,P|372:148|364:192,1,87.5,10|0,0:0|0:0,0:0:0:0:
288,72,132088,2,0,P|258:37|228:8,1,87.5,10|0,0:0|0:0,0:0:0:0:
232,148,132404,2,0,P|190:170|152:188,1,87.5,10|0,0:1|0:0,0:0:0:0:
140,84,132719,2,0,P|87:76|44:72,1,87.5,10|2,0:1|0:0,0:0:0:0:
8,140,132956,1,8,0:0:0:0:
8,140,133035,6,0,P|4:184|36:232,1,87.5,10|0,0:0|0:0,0:0:0:0:
100,268,133272,1,8,0:0:0:0:
100,268,133351,2,0,P|144:272|192:240,1,87.5,10|0,0:1|0:0,0:0:0:0:
236,184,133588,1,8,0:0:0:0:
236,184,133667,2,0,P|241:141|221:102,1,87.5,10|0,0:1|0:0,0:0:0:0:
292,252,133904,1,8,0:0:0:0:
292,252,133982,2,0,P|330:271|373:267,1,87.5,10|8,0:1|0:0,0:0:0:0:
440,208,134219,1,8,0:0:0:0:
440,208,134298,6,0,P|434:132|432:28,1,175,10|10,0:0|0:1,0:0:0:0:
348,176,134772,1,0,0:0:0:0:
320,64,134930,2,0,P|260:44|216:52,1,87.5,10|0,0:1|0:0,0:0:0:0:
348,176,135246,1,10,0:0:0:0:
320,64,135404,1,10,0:0:0:0:
240,256,135561,5,10,0:0:0:0:
432,200,135719,1,10,0:0:0:0:
300,152,135877,1,10,0:0:0:0:
440,72,136035,1,10,0:0:0:0:
348,224,136193,5,10,0:3:0:0:
320,64,136351,1,10,0:3:0:0:
176,128,136509,1,10,0:3:0:0:
300,152,136667,1,10,0:3:0:0:
152,246,136825,6,0,B|154:213|136:193|136:193|126:177|128:144|128:144|140:135|158:110|149:78|149:78|135:57|108:44|77:51,2,262.500010013581,12|0|0,0:1|0:0|0:0,0:0:0:0:
88,208,140772,6,0,L|168:200,1,65.6250025033952,8|8,0:1|0:3,0:0:0:0:
153,201,141246,5,12,0:1:0:0:
224,276,141561,1,8,0:1:0:0:
328,256,141877,5,8,0:1:0:0:
360,156,142193,1,8,0:1:0:0:
292,76,142509,1,8,0:1:0:0:
188,96,142825,1,8,0:1:0:0:
180,240,143140,5,8,0:1:0:0:
284,220,143456,1,8,0:1:0:0:
388,196,143772,1,8,0:1:0:0:
476,256,144088,1,8,0:1:0:0:
439,116,144404,6,0,P|392:157|328:150,1,131.25,8|8,0:0|0:0,0:0:0:0:
288,88,144719,2,0,P|292:148|300:228,1,131.25,8|8,0:0|0:0,0:0:0:0:
328,288,145035,5,8,0:0:0:0:
310,274,145114,1,8,0:0:0:0:
290,266,145193,1,8,0:0:0:0:
268,263,145272,1,8,0:0:0:0:
240,268,145351,5,8,0:3:0:0:
223,293,145430,1,8,0:3:0:0:
199,312,145509,1,8,0:3:0:0:
170,321,145588,1,8,0:3:0:0:
139,321,145667,6,0,P|134:273|133:233,1,87.5,12|0,0:1|0:0,0:0:0:0:
36,248,145982,2,0,P|23:203|16:162,1,87.5,8|0,0:2|0:0,0:0:0:0:
136,136,146298,2,0,P|150:95|160:48,1,87.5,8|8,0:1|0:1,0:0:0:0:
232,112,146614,1,8,0:2:0:0:
68,72,146772,1,0,0:2:0:0:
172,236,146930,5,8,0:1:0:0:
136,136,147088,1,8,0:1:0:0:
24,200,147246,1,8,0:2:0:0:
252,200,147404,1,8,0:1:0:0:
120,220,147561,2,0,P|92:244|80:304,1,87.5,8|0,0:2|0:2,0:0:0:0:
216,184,147877,6,0,P|128:178|36:176,1,175,8|8,0:1|0:2,0:0:0:0:
48,32,148350,1,0,0:2:0:0:
152,88,148508,2,0,P|202:78|248:76,1,87.5,8|8,0:1|0:1,0:0:0:0:
328,192,148824,6,0,L|332:252,1,43.75,8|0,0:2|0:2,0:0:0:0:
272,296,148982,1,0,0:2:0:0:
272,296,149061,1,0,0:0:0:0:
272,296,149140,6,0,L|224:276,1,43.75,8|0,0:1|0:2,0:0:0:0:
200,352,149298,2,0,L|152:332,1,43.75,0|0,0:2|0:2,0:0:0:0:
64,280,149455,6,0,L|80:228,1,43.75,8|0,0:1|0:2,0:0:0:0:
156,256,149613,2,0,L|172:204,1,43.75,0|8,0:2|0:2,0:0:0:0:
140,148,149771,5,8,0:2:0:0:
162,168,149850,1,8,0:2:0:0:
189,182,149929,1,8,0:2:0:0:
219,187,150008,1,8,0:2:0:0:
250,184,150087,6,0,P|288:152|368:160,1,131.25,12|0,0:1|0:2,0:0:0:0:
408,224,150402,6,0,L|400:268,1,43.75,8|0,0:2|0:2,0:0:0:0:
324,236,150560,2,0,L|316:280,1,43.75,0|0,0:2|0:2,0:0:0:0:
248,360,150718,6,0,L|240:316,1,43.75,8|0,0:1|0:2,0:0:0:0:
164,348,150876,2,0,L|156:304,1,43.75,8|0,0:1|0:2,0:0:0:0:
184,220,151034,6,0,L|244:212,1,43.75,8|0,0:2|0:2,0:0:0:0:
204,136,151192,2,0,L|264:128,1,43.75,0|0,0:2|0:2,0:0:0:0:
360,164,151350,6,0,L|300:156,1,43.75,8|0,0:1|0:2,0:0:0:0:
340,80,151508,2,0,L|280:72,1,43.75,8|0,0:2|0:2,0:0:0:0:
222,41,151665,5,8,0:2:0:0:
197,23,151744,1,0,0:2:0:0:
168,16,151823,1,0,0:2:0:0:
137,20,151902,1,0,0:2:0:0:
111,36,151981,5,8,0:2:0:0:
106,66,152060,1,0,0:2:0:0:
88,90,152139,1,0,0:2:0:0:
62,104,152218,1,0,0:2:0:0:
31,104,152297,6,0,L|20:48,1,43.75,8|0,0:2|0:2,0:0:0:0:
80,184,152455,2,0,L|68:244,1,43.75,8|0,0:2|0:2,0:0:0:0:
152,136,152613,5,8,0:1:0:0:
176,128,152692,1,8,0:1:0:0:
204,128,152771,1,8,0:2:0:0:
228,136,152850,1,8,0:2:0:0:
248,152,152929,5,8,0:2:0:0:
249,173,153008,1,8,0:2:0:0:
258,193,153087,1,8,0:1:0:0:
274,208,153165,1,8,0:1:0:0:
294,217,153244,5,8,0:2:0:0:
311,217,153323,1,8,0:2:0:0:
328,213,153402,1,8,0:1:0:0:
343,203,153481,1,8,0:1:0:0:
354,190,153560,6,0,L|348:128,1,43.75,8|0,0:2|0:2,0:0:0:0:
468,276,153732,2,0,L|448:328,1,43.75,8|0,0:2|0:2,0:0:0:0:
448,172,153905,2,0,L|500:140,1,43.75,8|0,0:2|0:2,0:0:0:0:
381,257,154078,6,0,B|353:249|353:249|345:245|319:245|297:241|297:241|289:230|281:221|281:221|267:210|257:201|257:201|217:192|177:193|145:209|145:209|161:229|184:240,1,306.25
183,239,155460,6,0,P|137:230|83:227,1,87.5,12|0,0:1|0:0,0:0:0:0:
292,212,155775,2,0,P|284:280|284:324,1,87.5,10|0,0:1|0:0,0:0:0:0:
196,144,156091,2,0,P|191:97|184:56,1,87.5,10|0,0:1|0:0,0:0:0:0:
308,124,156407,2,0,P|364:120|400:88,1,87.5,10|0,0:1|0:0,0:0:0:0:
292,212,156723,6,0,P|242:201|184:196,1,87.5,10|0,0:1|0:0,0:0:0:0:
392,248,157038,2,0,P|439:228|480:216,1,87.5,10|0,0:1|0:0,0:0:0:0:
288,312,157354,2,0,P|240:331|200:344,1,87.5,10|0,0:1|0:0,0:0:0:0:
384,348,157670,2,0,P|433:358|492:364,1,87.5,10|0,0:1|0:0,0:0:0:0:
344,224,157986,6,0,P|350:177|364:124,1,87.5,12|0,0:1|0:0,0:0:0:0:
248,172,158302,2,0,P|223:132|204:96,1,87.5,10|0,0:1|0:0,0:0:0:0:
148,208,158617,2,0,P|106:208|44:204,1,87.5,10|0,0:1|0:0,0:0:0:0:
200,308,158933,2,0,P|248:292|292:304,1,87.5,10|0,0:1|0:0,0:0:0:0:
104,340,159249,6,0,P|56:336|24:312,1,87.5,10|0,0:1|0:0,0:0:0:0:
192,208,159565,2,0,P|204:136|200:100,1,87.5,10|0,0:1|0:0,0:0:0:0:
72,236,159881,5,10,0:1:0:0:
312,248,160038,1,8,0:1:0:0:
124,76,160196,2,0,L|64:80,1,43.75,8|8,0:0|0:0,0:0:0:0:
244,148,160512,6,0,P|268:200|192:288,1,175,12|0,0:1|0:0,0:0:0:0:
244,148,160986,1,10,0:1:0:0:
384,204,161144,2,0,P|379:295|376:380,1,175,10|0,0:0|0:0,0:0:0:0:
472,256,161617,1,2,0:0:0:0:
296,280,161775,5,10,0:1:0:0:
420,328,161933,1,8,0:0:0:0:
432,136,162091,2,0,P|360:124|304:172,1,131.25,10|8,0:1|0:0,0:0:0:0:
332,232,162407,5,10,0:0:0:0:
288,72,162565,1,8,0:3:0:0:
216,220,162723,1,10,0:3:0:0:
208,100,162881,1,8,0:1:0:0:
312,260,163038,5,10,0:0:0:0:
335,139,163354,1,8,0:1:0:0:
228,80,163670,1,8,3:1:0:0:
138,163,163986,1,8,0:1:0:0:
190,274,164302,5,10,0:0:0:0:
264,200,164460,1,8,0:0:0:0:
256,356,164617,1,10,0:0:0:0:
112,196,164775,1,8,0:0:0:0:
352,272,164933,5,10,0:0:0:0:
188,248,165091,1,8,0:0:0:0:
380,168,165249,1,10,0:0:0:0:
128,332,165407,1,8,0:0:0:0:
432,232,166354,6,0,P|360:224|301:227,1,131.25000500679,2|2,0:0|0:0,0:0:0:0:
208,256,166828,1,0,0:0:0:0:
376,324,166986,2,0,P|308:316|264:372,1,131.25000500679,2|2,0:0|0:0,0:0:0:0:
376,324,167617,5,10,0:3:0:0:
336,236,167775,1,10,0:0:0:0:
336,236,167854,1,8,0:0:0:0:
336,236,167933,2,0,L|348:184,1,43.75,10|0,0:1|0:0,0:0:0:0:
376,324,168091,5,12,0:1:0:0:
240,232,168249,1,8,0:1:0:0:
460,224,168407,1,10,0:1:0:0:
172,312,168565,2,0,P|116:296|64:296,1,87.5,10|0,0:0|0:0,0:0:0:0:
271,277,168881,5,10,0:0:0:0:
280,248,168960,1,8,0:0:0:0:
278,217,169038,1,8,0:0:0:0:
267,189,169117,1,8,0:0:0:0:
248,165,169196,1,8,0:0:0:0:
221,150,169275,1,8,0:0:0:0:
191,144,169354,5,12,0:1:0:0:
368,64,169512,1,10,0:0:0:0:
364,94,169591,1,8,0:0:0:0:
362,124,169670,1,10,0:0:0:0:
359,155,169749,1,0,0:0:0:0:
357,186,169828,2,0,P|404:228|476:208,1,131.25,10|10,0:1|0:0,0:0:0:0:
504,140,170144,5,10,0:0:0:0:
416,312,170302,1,8,0:0:0:0:
184,240,170460,1,12,0:1:0:0:
184,240,170788,5,8,0:0:0:0:
357,186,170945,1,8,0:0:0:0:
120,360,171102,1,12,0:1:0:0:
280,308,171418,5,8,0:0:0:0:
279,277,171497,1,8,0:0:0:0:
278,246,171576,1,8,0:0:0:0:
277,216,171655,1,8,0:0:0:0:
276,185,171734,1,12,0:1:0:0:
224,96,172070,5,8,0:0:0:0:
136,208,172227,1,8,0:1:0:0:
368,148,172384,1,8,0:0:0:0:
204,196,172542,6,0,P|164:178|120:175,1,87.5,10|2,0:1|0:0,0:0:0:0:
40,256,172873,2,0,P|48:304|60:336,1,65.6250025033952,2|2,0:0|0:0,0:0:0:0:
172,292,173205,6,0,P|235:288|316:284,1,131.25000500679,10|0,0:1|0:0,0:0:0:0:
303,284,173671,1,2,0:0:0:0:
372,168,173826,2,0,P|336:196|248:168,1,131.25000500679,2|0,0:0|0:0,0:0:0:0:
228,72,174293,1,2,0:0:0:0:
148,164,174448,6,0,P|152:212|172:300,1,131.25000500679,2|2,0:0|0:0,0:0:0:0:
272,236,174914,2,0,P|316:252|348:328,2,131.25000500679,2|2|0,0:0|0:0|0:0,0:0:0:0:
188,304,175692,6,0,P|130:295|44:288,1,131.25000500679,2|0,0:0|0:0,0:0:0:0:
128,128,176158,1,2,0:0:0:0:
208,200,176313,2,0,P|273:191|338:185,1,131.25000500679,2|0,0:0|0:0,0:0:0:0:
432,224,176780,1,2,0:0:0:0:
360,328,176935,6,0,P|317:280|253:274,1,131.25000500679,2|2,0:0|0:0,0:0:0:0:
176,344,177408,2,0,P|166:279|160:213,2,131.25000500679,2|2|2,0:0|0:0|0:0,0:0:0:0:
52,304,178198,6,0,L|54:271|56:238,1,65.6250025033952,0|0,0:0|0:0,0:0:0:0:
76,132,178518,2,0,P|132:128|184:184,2,131.25000500679,2|2|2,0:0|0:0|0:0,0:0:0:0:
248,104,179481,6,0,P|340:104|388:96,2,131.25000500679,2|2|2,0:0|0:0|0:0,0:0:0:0:
308,208,180270,2,0,P|360:196|400:192,1,65.6250025033952,0|2,0:0|0:0,0:0:0:0:
452,296,180586,2,0,P|404:288|376:280,1,65.6250025033952,2|0,0:0|0:0,0:0:0:0:
272,336,180899,5,2,0:0:0:0:
180,300,181054,1,2,0:0:0:0:
160,204,181210,1,2,0:0:0:0:
208,120,181365,1,2,0:0:0:0:
304,108,181521,1,2,0:0:0:0:
376,176,181676,1,2,0:0:0:0:
316,272,181832,5,2,0:0:0:0:
204,280,181987,1,2,0:0:0:0:
148,184,182144,1,2,0:0:0:0:
176,76,182302,1,2,0:0:0:0:
276,28,182460,1,2,0:0:0:0:
376,72,182618,1,2,0:0:0:0:
400,180,182776,1,2,0:0:0:0:
247,203,182934,6,0,P|199:199|150:202,1,98.4375037550928,4|0,0:0|0:0,0:0:0:0:
88,260,183258,6,0,P|93:303|101:346,1,87.5,12|0,0:1|0:0,0:0:0:0:
188,280,183573,1,8,0:1:0:0:
8,320,183731,1,2,0:0:0:0:
188,280,183889,2,0,P|229:265|273:265,1,87.5,10|0,0:1|0:0,0:0:0:0:
396,247,184205,2,0,P|388:291|388:340,1,87.5,8|2,0:1|0:0,0:0:0:0:
308,176,184512,6,0,P|305:130|304:80,1,87.5,10|0,0:1|0:0,0:0:0:0:
212,240,184832,1,10,0:1:0:0:
132,152,184992,2,0,P|84:156|40:184,1,87.5,2|8,0:0|0:1,0:0:0:0:
212,240,185312,1,2,0:0:0:0:
223,72,185473,2,0,P|289:76|354:72,1,131.25,8|8,0:1|0:0,0:0:0:0:
424,128,185793,6,0,P|419:172|408:220,1,87.5,8|0,0:0|0:0,0:0:0:0:
268,160,186108,2,0,P|273:201|288:264,1,87.5,8|2,0:1|0:0,0:0:0:0:
380,336,186424,2,0,P|436:344|468:340,1,87.5,10|0,0:1|0:0,0:0:0:0:
272,334,186740,2,0,P|211:357|150:338,1,131.25,8|8,0:1|0:0,0:0:0:0:
128,256,187039,6,0,P|125:215|120:164,1,87.5,10|0,0:0|0:0,0:0:0:0:
236,184,187359,2,0,P|233:143|228:92,1,87.5,10|2,0:0|0:0,0:0:0:0:
324,136,187679,1,10,0:1:0:0:
140,156,187834,1,10,0:0:0:0:
272,256,187990,1,10,0:0:0:0:
24,180,188146,5,12,0:1:0:0:
144,76,192091,6,0,P|152:160|88:216,1,175,12|8,0:1|0:0,0:0:0:0:
16,172,192486,1,8,0:0:0:0:
16,172,192565,1,8,0:1:0:0:
224,212,192723,2,0,P|284:204|360:212,1,131.25,10|8,0:0|0:0,0:0:0:0:
428,120,193038,2,0,P|376:128|328:108,1,87.5,12|8,0:1|0:0,0:0:0:0:
280,48,193275,1,8,0:0:0:0:
280,48,193354,6,0,P|224:64|196:96,1,87.5,10|0,0:0|0:0,0:0:0:0:
112,68,193591,1,8,0:0:0:0:
112,68,193670,2,0,P|120:112|128:168,1,87.5,10|10,0:0|0:0,0:0:0:0:
248,144,193986,5,8,0:0:0:0:
227,166,194065,1,8,0:0:0:0:
213,193,194144,1,10,0:0:0:0:
208,223,194223,1,8,0:0:0:0:
210,254,194302,5,8,0:3:0:0:
226,269,194380,1,8,0:3:0:0:
244,280,194459,1,10,0:3:0:0:
265,288,194538,1,8,0:3:0:0:
287,290,194617,6,0,P|356:264|472:264,1,175,12|8,0:1|0:0,0:0:0:0:
344,360,195091,1,2,0:0:0:0:
332,176,195249,2,0,P|356:128|368:84,1,87.5,10|8,0:1|0:1,0:0:0:0:
196,40,195565,2,0,P|203:83|224:136,1,87.5,8|2,0:0|0:0,0:0:0:0:
280,0,195880,5,10,0:1:0:0:
104,56,196038,1,8,0:1:0:0:
300,136,196196,1,10,0:0:0:0:
176,128,196354,2,0,P|144:176|124:212,1,87.5,2|8,0:0|0:1,0:0:0:0:
300,136,196670,2,0,P|287:93|272:52,1,87.5,10|8,0:1|0:0,0:0:0:0:
232,224,196986,1,2,0:0:0:0:
392,144,197144,6,0,P|378:239|376:332,2,175,12|10|10,0:1|0:0|0:1,0:0:0:0:
276,256,197933,1,8,0:1:0:0:
260,120,198091,2,0,P|208:108|160:132,1,87.5,10|0,0:0|0:0,0:0:0:0:
360,184,198407,6,0,P|405:180|448:176,1,87.5,10|8,0:1|0:1,0:0:0:0:
276,256,198723,2,0,P|230:259|188:264,1,87.5,10|0,0:0|0:0,0:0:0:0:
264,164,199038,1,10,0:1:0:0:
384,300,199196,1,10,0:1:0:0:
244,332,199354,1,10,0:0:0:0:
356,120,199512,6,0,P|277:122|160:128,1,175,14|10,0:1|0:1,0:0:0:0:
112,260,199986,2,0,P|84:224|76:176,1,87.5,10|0,0:0|0:0,0:0:0:0:
224,252,200302,2,0,P|270:245|324:240,1,87.5,10|0,0:0|0:0,0:0:0:0:
452,168,200617,1,10,0:0:0:0:
452,168,200696,1,8,0:0:0:0:
452,168,200775,6,0,P|460:232|380:300,1,175,12|10,0:1|0:1,0:0:0:0:
452,168,201249,1,10,0:0:0:0:
296,192,201407,2,0,P|256:186|208:176,1,87.5,10|8,0:1|0:0,0:0:0:0:
392,96,201723,6,0,P|391:143|396:192,1,87.5,10|10,0:0|0:0,0:0:0:0:
412,208,201959,1,8,0:0:0:0:
414,233,202038,1,10,0:0:0:0:
406,258,202117,1,8,0:0:0:0:
389,278,202196,6,0,P|320:272|284:272,1,87.5,12|0,0:1|0:0,0:0:0:0:
444,352,202512,1,8,0:0:0:0:
340,180,202670,1,2,0:0:0:0:
272,352,202828,2,0,P|202:345|166:345,1,87.5,10|8,0:1|0:1,0:0:0:0:
48,240,203144,2,0,P|96:248|148:228,1,87.5,8|2,0:0|0:0,0:0:0:0:
192,100,203459,5,10,0:1:0:0:
212,224,203617,1,8,0:1:0:0:
292,40,203775,1,10,0:0:0:0:
292,204,203933,2,0,P|320:260|324:300,1,87.5,2|8,0:0|0:1,0:0:0:0:
400,212,204170,1,0,0:0:0:0:
400,212,204249,2,0,P|402:161|408:108,1,87.5,10|12,0:1|0:0,0:0:0:0:
456,288,204565,1,2,0:0:0:0:
232,280,204723,5,8,0:1:0:0:
352,256,204880,1,8,0:1:0:0:
468,224,205038,1,12,0:0:0:0:
256,180,205196,1,2,0:0:0:0:
304,340,205354,2,0,P|372:336|408:344,1,87.5,10|8,0:1|0:1,0:0:0:0:
328,248,205670,1,12,0:0:0:0:
188,312,205828,1,2,0:0:0:0:
236,168,205986,6,0,P|234:116|232:60,1,87.5,10|8,0:1|0:1,0:0:0:0:
140,224,206302,1,10,0:0:0:0:
340,116,206459,2,0,P|384:108|440:112,1,87.5,2|8,0:0|0:1,0:0:0:0:
308,220,206775,2,0,P|372:240|404:264,1,87.5,10|8,0:1|0:0,0:0:0:0:
216,276,207091,1,2,0:0:0:0:
432,184,207249,5,12,0:1:0:0:
300,128,207407,1,2,0:0:0:0:
340,256,207565,1,10,0:0:0:0:
172,200,207723,1,2,0:0:0:0:
348,152,207880,5,10,0:1:0:0:
228,128,208038,1,8,0:1:0:0:
108,96,208196,1,10,0:0:0:0:
272,224,208354,1,2,0:0:0:0:
176,36,208512,5,10,0:1:0:0:
144,184,208670,1,10,0:1:0:0:
292,72,208828,1,10,0:0:0:0:
200,296,208986,1,2,0:0:0:0:
256,200,209144,2,0,P|304:184|352:192,1,87.5,8|2,0:3|0:0,0:0:0:0:
136,232,209459,2,0,L|80:224,1,43.75,10|8,0:0|0:0,0:0:0:0:
200,296,209617,6,0,P|276:308|344:376,1,175,14|10,0:1|0:1,0:0:0:0:
360,228,210091,2,0,P|379:184|404:136,1,87.5,10|0,0:0|0:0,0:0:0:0:
280,148,210407,2,0,P|270:109|260:60,1,87.5,10|8,0:1|0:1,0:0:0:0:
196,212,210723,2,0,P|163:188|124:156,1,87.5,10|0,0:0|0:0,0:0:0:0:
328,264,211038,6,0,P|374:254|416:252,1,87.5,10|8,0:1|0:1,0:0:0:0:
228,320,211354,2,0,P|168:308|132:284,1,87.5,10|0,0:0|0:0,0:0:0:0:
272,192,211670,2,0,P|276:132|256:60,1,131.25,10|8,0:1|0:0,0:0:0:0:
180,36,211986,2,0,P|130:42|80:52,1,87.5,10|0,0:0|0:0,0:0:0:0:
352,88,212302,6,0,P|412:96|452:96,1,87.5,12|0,0:0|0:0,0:0:0:0:
224,124,212617,2,0,P|180:148|124:156,1,87.5,10|0,0:0|0:0,0:0:0:0:
364,176,212933,2,0,P|400:224|436:256,1,87.5,10|8,0:0|0:1,0:0:0:0:
264,236,213249,2,0,P|256:282|244:324,1,87.5,8|8,0:0|0:1,0:0:0:0:
144,180,213565,6,0,P|117:145|88:108,1,87.5,10|0,0:1|0:0,0:0:0:0:
216,104,213880,2,0,P|214:61|212:16,1,87.5,10|0,0:0|0:0,0:0:0:0:
316,156,214196,2,0,P|363:147|416:140,1,87.5,10|8,0:0|0:1,0:0:0:0:
364,248,214512,2,0,P|400:276|440:308,1,87.5,10|8,0:0|0:1,0:0:0:0:
212,276,214828,6,0,P|171:274|116:276,1,87.5,10|0,0:1|0:0,0:0:0:0:
288,184,215144,2,0,P|247:182|192:184,1,87.5,10|0,0:0|0:0,0:0:0:0:
56,100,215459,2,0,P|99:98|143:100,1,87.5,10|8,0:0|0:1,0:0:0:0:
56,200,215775,1,8,0:0:0:0:
228,124,215933,6,0,P|288:104|372:176,1,175,12|10,0:1|0:1,0:0:0:0:
228,124,216407,1,10,0:0:0:0:
308,256,216565,1,2,0:0:0:0:
216,208,216723,6,0,P|151:195|88:210,1,131.25,8|8,0:1|0:0,0:0:0:0:
52,280,217038,1,8,0:0:0:0:
54,297,217117,1,8,0:0:0:0:
56,314,217196,1,10,0:0:0:0:
59,332,217275,1,8,0:0:0:0:
61,349,217354,6,0,L|120:332,1,43.75,10|8,0:0|0:0,0:0:0:0:
220,264,217512,2,0,L|212:328,1,43.75,8|8,0:0|0:0,0:0:0:0:
120,208,217670,1,10,0:0:0:0:
140,356,217828,5,12,0:1:0:0:
220,264,218144,1,12,0:1:0:0:
120,208,218459,1,12,0:0:0:0:
120,208,218775,6,0,P|103:159|84:124,1,87.5,8|8,0:1|0:0,0:0:0:0:
256,52,219091,2,0,P|236:112|232:156,1,87.5,8|8,0:1|0:0,0:0:0:0:
136,60,219407,1,8,0:1:0:0:
160,172,219565,1,8,0:0:0:0:
158,202,219644,1,8,0:0:0:0:
156,233,219723,1,8,0:0:0:0:
154,263,219802,1,8,0:0:0:0:
153,294,219880,6,0,P|200:312|276:228,1,175,12|10,0:1|0:0,0:0:0:0:
424,184,220354,2,0,P|408:268|408:296,1,87.5,8|10,0:1|0:0,0:0:0:0:
272,128,220670,2,0,P|296:196|300:236,1,87.5,8|10,0:1|0:0,0:0:0:0:
480,80,220986,6,0,P|428:92|388:108,1,87.5,8|10,0:1|0:0,0:0:0:0:
224,28,221302,2,0,P|280:40|332:64,1,87.5,8|10,0:1|0:0,0:0:0:0:
176,144,221617,2,0,P|120:160|72:164,1,87.5,8|10,0:1|0:0,0:0:0:0:
300,196,221933,2,0,P|356:208|396:212,1,87.5,8|10,0:1|0:0,0:0:0:0:
208,264,222249,1,0,0:0:0:0:
336,288,222407,5,10,0:1:0:0:
360,269,222486,1,0,0:0:0:0:
389,260,222565,1,8,0:3:0:0:
420,260,222644,1,8,0:3:0:0:
448,270,222723,2,0,P|459:298|464:324,1,43.75,8|8,0:3|0:1,0:0:0:0:
473,194,222880,5,10,0:0:0:0:
462,165,222959,1,8,0:3:0:0:
456,136,223038,1,8,0:3:0:0:
453,105,223117,1,8,0:3:0:0:
454,74,223196,2,0,P|480:58|504:52,1,43.75,8|8,0:3|0:1,0:0:0:0:
368,48,223354,6,0,L|312:36,1,43.75,8|8,0:0|0:0,0:0:0:0:
280,156,223512,2,0,L|344:148,1,43.75,10|8,0:0|0:0,0:0:0:0:
224,76,223670,1,12,0:0:0:0:
256,192,224933,5,12,0:1:0:0:
256,192,225012,12,0,227460,0:0:0:0:
264,44,229986,5,12,0:1:0:0:
228,144,230302,1,8,0:1:0:0:
184,240,230617,1,10,0:1:0:0:
236,332,230933,1,8,0:1:0:0:
324,148,231249,5,10,0:1:0:0:
224,116,231565,1,8,0:1:0:0:
128,164,231880,1,10,0:1:0:0:
120,268,232196,1,8,0:1:0:0:
272,236,232433,5,0,0:0:0:0:
272,236,232512,2,0,P|348:240|396:272,1,131.25,10|0,0:1|0:0,0:0:0:0:
432,192,232828,2,0,P|452:144|416:72,1,131.25,8|0,0:1|0:0,0:0:0:0:
344,112,233144,2,0,P|274:94|212:88,1,131.25,10|0,0:1|0:0,0:0:0:0:
184,160,233459,2,0,P|114:142|52:136,1,131.25,8|0,0:1|0:0,0:0:0:0:
12,204,233775,6,0,L|12:252,3,43.75,10|8|8|8,0:1|0:1|0:1|0:1,0:0:0:0:
88,280,234091,5,8,0:0:0:0:
104,305,234170,1,8,0:0:0:0:
129,322,234249,1,8,0:0:0:0:
159,329,234328,1,0,0:0:0:0:
188,324,234407,2,0,P|211:305|229:287,1,43.75,8|0,0:0|0:0,0:0:0:0:
300,92,235038,6,0,P|300:164|296:276,1,175,12|10,0:1|0:0,0:0:0:0:
164,136,235512,1,0,0:0:0:0:
208,244,235670,2,0,P|176:292|136:308,1,87.5,10|0,0:1|0:0,0:0:0:0:
164,136,235986,1,10,0:0:0:0:
288,196,236144,6,0,P|348:188|396:188,1,87.5,2|8,0:0|0:1,0:0:0:0:
440,312,236459,1,0,0:0:0:0:
284,288,236617,1,10,0:0:0:0:
376,232,236775,1,0,0:0:0:0:
192,232,236933,2,0,P|176:191|168:148,1,87.5,10|0,0:1|0:0,0:0:0:0:
304,276,237249,2,0,P|288:340|268:388,1,87.5,10|0,0:0|0:0,0:0:0:0:
276,176,237565,6,0,P|348:180|456:192,1,175,10|10,0:1|0:0,0:0:0:0:
512,92,238038,1,0,0:0:0:0:
356,140,238196,2,0,P|344:97|342:54,1,87.5,10|0,0:1|0:0,0:0:0:0:
424,260,238512,5,10,0:0:0:0:
184,160,238670,2,0,P|138:171|88:188,1,87.5,10|8,0:0|0:1,0:0:0:0:
264,252,238986,5,2,0:0:0:0:
344,184,239144,1,10,0:0:0:0:
316,84,239302,1,2,0:0:0:0:
212,64,239459,5,10,0:1:0:0:
384,28,239617,2,0,L|432:28,1,43.75,10|0,0:0|0:0,0:0:0:0:
316,84,239775,2,0,P|268:100|216:96,1,87.5,10|2,0:0|0:0,0:0:0:0:
152,80,240012,1,0,0:0:0:0:
157,105,240091,5,10,0:0:0:0:
162,131,240170,1,8,0:0:0:0:
166,157,240249,1,8,0:0:0:0:
170,183,240328,1,0,0:0:0:0:
173,209,240407,2,0,P|128:224|80:232,1,87.5,12|0,0:1|0:0,0:0:0:0:
264,280,240723,2,0,P|332:280|372:284,1,87.5,10|0,0:1|0:0,0:0:0:0:
164,320,241038,1,10,0:1:0:0:
324,176,241196,6,0,P|324:132|316:80,1,87.5,12|8,0:0|0:1,0:0:0:0:
224,144,241512,1,0,0:0:0:0:
428,128,241670,1,10,0:0:0:0:
328,208,241828,1,0,0:0:0:0:
328,40,241986,1,10,0:3:0:0:
384,128,242144,1,0,0:0:0:0:
384,128,242223,1,8,0:0:0:0:
384,128,242302,1,10,0:0:0:0:
200,56,242459,1,10,0:1:0:0:
252,256,242617,6,0,P|250:312|248:352,1,87.5,12|8,0:0|0:1,0:0:0:0:
164,196,242933,2,0,P|162:252|160:292,1,87.5,10|10,0:0|0:1,0:0:0:0:
344,152,243249,2,0,P|342:208|340:248,1,87.5,10|10,0:0|0:1,0:0:0:0:
252,72,243565,1,10,0:0:0:0:
236,280,243723,2,0,P|180:296|140:284,1,87.5,12|2,0:1|0:0,0:0:0:0:
264,176,244038,5,2,0:0:0:0:
348,236,244196,1,10,0:0:0:0:
444,200,244354,1,10,0:0:0:0:
436,56,244512,5,10,0:0:0:0:
416,168,244670,1,10,0:0:0:0:
384,276,244828,1,10,0:0:0:0:
436,376,244986,1,10,0:0:0:0:
