osu file format v13

[General]
AudioFilename: 01. Rising Hope.mp3
AudioLeadIn: 1000
PreviewTime: 63088
Countdown: 0
SampleSet: Soft
StackLeniency: 0.7
Mode: 0
LetterboxInBreaks: 0
WidescreenStoryboard: 0

[Editor]
Bookmarks: 38298,106509
DistanceSpacing: 1.1
BeatDivisor: 4
GridSize: 4
TimelineZoom: 2

[Metadata]
Title:Rising Hope
TitleUnicode:Rising Hope
Artist:LiSA
ArtistUnicode:LiSA
Creator:Kibbleru
Version:Normal
Source:魔法科高校の劣等生
Tags:Mahouka Koukou no Rettousei The Irregular at Magic High School Frostings pkk Garven
BeatmapID:519868
BeatmapSetID:183876

[Difficulty]
HPDrainRate:3
CircleSize:3
OverallDifficulty:4
ApproachRate:5
SliderMultiplier:1.1
SliderTickRate:2

[Events]
//Background and Video events
0,0,"kibbleru inc bg2.jpg",0,0
//Break Periods
2,8182,9309
2,96604,105309
2,138288,139572
2,188345,190891
2,227660,228786
//Storyboard Layer 0 (Background)
//Storyboard Layer 1 (Fail)
//Storyboard Layer 2 (Pass)
//Storyboard Layer 3 (Foreground)
//Storyboard Sound Samples
//Background Colour Transformations
3,100,163,162,255

[TimingPoints]
404,315.789473684211,4,2,1,30,1,0
404,-133.333333333333,4,2,1,30,0,0
4035,-133.333333333333,4,2,1,30,0,0
4509,-100,4,2,1,20,0,0
4667,-100,4,2,1,25,0,0
4825,-100,4,2,1,30,0,0
4982,-100,4,2,1,35,0,0
5140,-100,4,2,1,40,0,0
5456,-100,4,2,1,50,0,0
7982,-100,4,2,1,40,0,0
12404,-100,4,2,1,60,0,0
18088,-133.333333333333,4,2,1,40,0,0
22667,-100,4,2,1,40,0,0
23140,-100,4,2,1,55,0,0
28035,-100,4,2,1,55,0,0
38298,-133.333333333333,4,2,1,60,0,0
48404,-133.333333333333,4,2,1,40,0,0
53456,-133.333333333333,4,2,1,60,0,0
57877,-133.333333333333,4,2,1,55,0,0
59298,-133.333333333333,4,2,1,45,0,0
60719,-100,4,2,1,55,0,0
62614,-100,4,2,1,60,0,0
63088,-133.333333333333,4,2,1,30,0,0
63561,-100,4,2,1,60,0,1
73193,-100,4,2,1,45,0,0
73667,-100,4,2,1,60,0,1
82509,-100,4,2,1,60,0,0
88509,-100,4,2,1,40,0,0
88825,-100,4,2,1,60,0,0
90877,-133.333333333333,4,2,1,40,0,0
91351,-100,4,2,1,50,0,0
106509,-100,4,2,1,60,0,0
127193,-133.333333333333,4,2,1,40,0,0
131772,-100,4,2,1,55,0,0
141246,-100,4,2,1,50,0,0
145667,-100,4,1,1,40,0,0
147877,315.789473684211,4,1,1,40,1,0
150087,315.789473684211,4,1,1,40,1,0
153560,345.622119815668,4,1,1,40,1,8
154078,345.622119815668,4,2,1,30,1,0
155460,315.789473684211,4,2,1,45,1,0
160512,-100,4,2,1,60,0,0
166354,-133.333333333333,4,2,1,55,0,0
167775,-100,4,2,1,55,0,0
168091,-100,4,2,1,60,0,0
170617,342.857142857143,4,2,1,60,1,0
170788,315.789473684211,4,2,1,60,1,8
170945,315.789473684211,4,2,1,60,1,8
171893,355.029585798817,4,2,1,60,1,0
172070,315.789473684211,4,2,1,60,1,8
172227,315.789473684211,4,2,1,60,1,8
172542,331.491712707182,4,2,1,60,1,8
173205,310.880829015544,4,2,1,60,1,0
173205,-133.333333333333,4,2,1,40,0,0
176935,315.789473684211,4,2,1,40,1,0
176935,-133.333333333333,4,2,1,40,0,0
178198,320.855614973262,4,2,1,40,1,0
178198,-133.333333333333,4,2,1,40,0,0
179481,315.789473684211,4,2,1,40,1,0
179481,-133.333333333333,4,2,1,40,0,0
180744,310.880829015544,4,2,1,40,1,0
180744,-133.333333333333,4,2,1,40,0,0
181987,315.789473684211,4,2,1,40,1,0
181987,-133.333333333333,4,2,1,40,0,0
182934,324.324324324324,4,2,1,40,1,8
183258,315.789473684211,4,2,1,40,1,0
183258,-100,4,2,1,50,0,0
184205,307.692307692308,4,2,1,50,1,8
184512,320.341697810998,4,2,1,50,1,0
185793,315.789473684211,4,2,1,50,1,0
186740,299.25187032419,4,2,1,50,1,8
187039,320.341697810998,4,2,1,50,1,0
187679,311.364815775817,4,2,1,50,1,8
188302,315.789473684211,4,2,1,50,1,0
188302,-133.333333333333,4,2,1,40,0,0
192091,-100,4,2,1,60,0,1
201723,-100,4,2,1,50,0,0
202196,-100,4,2,1,60,0,1
211038,-100,4,2,1,60,0,0
217038,-100,4,2,1,40,0,0
217354,-100,4,2,1,60,0,0
224933,-100,4,2,1,40,0,0
235038,-100,4,2,1,60,0,0

[Colours]
Combo1 : 151,216,251
Combo2 : 41,55,182
Combo3 : 62,167,244

[HitObjects]
136,96,404,6,0,P|192:52|252:56,2,123.750004720688,2|2|2,0:0|0:0|0:0,0:0:0:0:
164,184,1667,1,2,0:0:0:0:
164,184,1825,2,0,L|296:192,1,123.750004720688,2|2,0:0|0:0,0:0:0:0:
344,120,2614,1,2,0:0:0:0:
408,184,2930,6,0,P|403:249|396:308,1,123.750004720688,2|2,0:0|0:0,0:0:0:0:
408,352,3561,2,0,L|354:343|312:336,1,82.5000031471254,2|2,0:0|0:0,0:0:0:0:
300,300,4035,2,0,B|276:264|276:264|248:252|208:268|208:268|160:308|104:272|104:272|100:228|80:200,1,288.750011014939,2|0,0:0|0:0,0:0:0:0:
116,116,5456,6,0,P|172:96|224:108,1,110,12|8,0:1|0:0,0:0:0:0:
260,80,5930,2,0,P|258:141|256:196,2,110,12|12|12,0:1|0:1|0:0,0:0:0:0:
252,208,7982,5,12,0:1:0:0:
368,216,10509,5,10,0:1:0:0:
444,120,12404,6,0,B|388:104|388:104|328:120,1,110,2|8,0:0|0:0,0:0:0:0:
244,88,13035,6,0,P|243:144|240:216,1,110,12|10,0:1|0:0,0:0:0:0:
144,172,13667,2,0,P|143:228|140:300,1,110,10|10,0:1|0:0,0:0:0:0:
184,304,14140,2,0,P|276:320|328:276,1,165,2|10,0:0|0:0,0:0:0:0:
304,180,14930,1,10,0:1:0:0:
364,100,15246,1,10,0:0:0:0:
272,60,15561,6,0,P|218:63|156:68,1,110,10|10,0:1|0:0,0:0:0:0:
72,108,16193,2,0,P|120:108|168:156,1,110,10|10,0:1|0:0,0:0:0:0:
152,196,16667,2,0,P|157:258|164:320,1,110,2|2,0:0|0:0,0:0:0:0:
200,340,17140,1,10,0:0:0:0:
272,272,17456,2,0,P|333:274|400:280,1,110,10|10,0:1|0:0,0:0:0:0:
456,224,18088,6,0,P|444:152|356:112,1,165.000006294251,4|2,0:0|0:0,0:0:0:0:
288,156,19035,1,0,0:0:0:0:
228,88,19351,2,0,P|186:92|104:104,1,123.750004720688,2|2,0:0|0:0,0:0:0:0:
96,196,20140,2,0,P|152:208|176:240,1,82.5000031471254,2|10,0:0|0:1,0:0:0:0:
172,272,20614,6,0,L|308:264,1,123.750004720688,10|2,0:1|0:0,0:0:0:0:
376,224,21404,1,2,0:0:0:0:
324,148,21719,1,2,0:0:0:0:
392,88,22035,2,0,P|376:40|344:12,1,82.5000031471254,2|2,0:0|0:0,0:0:0:0:
260,44,22667,6,0,L|200:40,1,55,8|8,0:1|0:3,0:0:0:0:
152,124,23140,6,0,P|218:128|276:136,1,110,12|10,0:1|0:1,0:0:0:0:
220,224,23772,2,0,P|286:228|344:236,1,110,10|10,0:1|0:1,0:0:0:0:
412,180,24404,2,0,P|420:124|400:68,1,110,10|10,0:1|0:1,0:0:0:0:
304,80,25035,2,0,P|250:82|192:88,1,110,10|10,0:1|0:1,0:0:0:0:
148,176,25667,6,0,P|212:178|268:184,1,110,10|10,0:1|0:1,0:0:0:0:
328,252,26298,2,0,P|340:312|436:336,1,165,10|12,0:1|0:1,0:0:0:0:
440,148,27719,6,0,L|364:144,1,55,8|8,0:1|0:0,0:0:0:0:
348,112,28035,6,0,P|289:118|224:124,1,110,12|8,0:1|0:1,0:0:0:0:
192,104,28509,1,8,0:0:0:0:
128,180,28825,2,0,P|128:240|152:284,1,110,10|8,0:1|0:0,0:0:0:0:
248,260,29456,2,0,P|328:264|372:276,1,110,10|10,0:1|0:0,0:0:0:0:
400,296,29930,2,0,P|409:233|416:180,1,110,2|10,0:0|0:1,0:0:0:0:
352,112,30561,1,2,0:0:0:0:
352,112,30719,6,0,P|288:104|232:128,1,110,10|8,0:1|0:0,0:0:0:0:
228,164,31193,2,0,P|178:160|100:160,2,110,2|10|2,0:0|0:1|0:0,0:0:0:0:
255,204,31982,2,0,P|310:208|365:211,1,110,8|8,0:1|0:0,0:0:0:0:
460,184,32614,2,0,P|480:124|464:64,1,110,8|8,0:1|0:0,0:0:0:0:
376,52,33246,6,0,P|322:46|264:40,1,110,12|10,0:1|0:0,0:0:0:0:
232,132,33877,2,0,P|254:181|277:234,1,110,10|10,0:1|0:0,0:0:0:0:
375,223,34509,2,0,P|407:179|438:133,1,110,10|8,0:1|0:0,0:0:0:0:
472,40,35140,2,0,P|420:8|352:16,1,110,10|8,0:1|0:0,0:0:0:0:
284,56,35772,6,0,P|228:64|168:32,2,110,10|10|10,0:1|0:1|0:1,0:0:0:0:
340,136,36719,2,0,L|332:212,1,55,10|0,0:1|0:0,0:0:0:0:
304,232,37035,2,0,L|308:292,2,55,10|10|10,0:3|0:3|0:0,0:0:0:0:
216,188,37667,2,0,B|160:200|160:200|108:188,1,110,2|2,0:0|0:0,0:0:0:0:
60,112,38298,6,0,P|56:204|52:280,1,165.000006294251,12|8,0:1|0:0,0:0:0:0:
80,316,39088,2,0,P|144:324|192:280,1,123.750004720688,8|8,0:1|0:1,0:0:0:0:
232,280,39719,2,0,P|224:204|220:144,1,123.750004720688,8|8,0:0|0:0,0:0:0:0:
240,116,40351,2,0,P|300:108|336:108,1,82.5000031471254,8|0,0:1|0:0,0:0:0:0:
364,124,40825,6,0,P|316:196|348:280,1,165.000006294251,12|8,0:1|0:0,0:0:0:0:
372,296,41614,2,0,P|284:292|236:292,1,123.750004720688,8|8,0:1|0:1,0:0:0:0:
164,332,42404,1,8,0:1:0:0:
96,272,42719,1,8,0:0:0:0:
132,188,43035,1,8,0:0:0:0:
220,204,43351,6,0,P|276:188|300:80,1,165.000006294251,4|8,0:0|0:0,0:0:0:0:
276,60,44140,2,0,P|332:56|412:52,1,123.750004720688,8|8,0:1|0:1,0:0:0:0:
424,92,44772,2,0,P|419:154|416:220,1,123.750004720688,8|8,0:0|0:0,0:0:0:0:
360,288,45561,1,0,0:0:0:0:
292,228,45877,6,0,L|168:240,1,123.750004720688,12|8,0:1|0:1,0:0:0:0:
132,212,46509,2,0,L|128:152,1,41.2500015735627,8|8,0:0|0:1,0:0:0:0:
224,72,47140,2,0,P|271:77|320:84,2,82.5000031471254,10|10|10,0:0|0:0|0:0,0:0:0:0:
148,20,48088,1,8,0:3:0:0:
100,96,48404,6,0,P|109:177|116:264,1,165.000006294251,12|2,0:1|0:0,0:0:0:0:
272,172,49667,2,0,P|257:260|244:344,1,165.000006294251,2|2,0:0|0:0,0:0:0:0:
140,252,50772,1,8,0:1:0:0:
140,252,50930,6,0,P|136:168|128:88,1,165.000006294251,10|2,0:1|0:0,0:0:0:0:
308,120,52193,2,0,P|302:161|296:216,1,82.5000031471254,2|2,0:0|0:0,0:0:0:0:
348,276,52825,2,0,B|368:275|388:272|388:272|412:276|432:276,1,82.5000031471254,10|8,0:0|0:3,0:0:0:0:
472,196,53456,6,0,P|440:144|412:80,1,123.750004720688,12|10,0:1|0:1,0:0:0:0:
412,40,54088,1,10,0:0:0:0:
268,148,54719,1,10,0:1:0:0:
268,148,54877,2,0,P|208:128|132:108,1,123.750004720688,8|10,0:0|0:0,0:0:0:0:
76,168,55667,1,10,0:0:0:0:
120,248,55982,6,0,P|161:242|204:236,1,82.5000031471254,10|8,0:0|0:1,0:0:0:0:
232,320,56614,2,0,P|273:314|316:308,1,82.5000031471254,8|8,0:1|0:1,0:0:0:0:
380,248,57246,2,0,P|384:204|368:164,1,82.5000031471254,10|10,0:1|0:1,0:0:0:0:
288,132,57877,2,0,P|296:84|320:52,1,82.5000031471254,10|10,0:0|0:0,0:0:0:0:
72,112,59298,6,0,L|60:160,2,41.2500015735627,2|0|2,0:0|0:0|0:0,0:0:0:0:
148,164,59930,2,0,L|136:212,2,41.2500015735627,2|0|2,0:0|0:0|0:0,0:0:0:0:
204,92,60561,1,2,0:0:0:0:
204,92,60719,6,0,P|248:93|276:96,1,55,10|10,0:0|0:3,0:0:0:0:
304,72,61035,6,0,P|294:127|284:196,1,110,12|8,0:0|0:1,0:0:0:0:
336,188,61509,2,0,P|345:243|356:320,1,110,10|10,0:0|0:0,0:0:0:0:
316,328,61982,1,2,0:0:0:0:
316,328,62140,2,0,P|244:352|168:304,1,165,14|8,0:0|0:0,0:0:0:0:
156,260,62772,1,8,0:0:0:0:
156,260,62930,1,8,0:0:0:0:
268,96,63561,6,0,P|262:160|256:220,1,110,12|8,0:1|0:0,0:0:0:0:
280,248,64035,1,2,0:0:0:0:
280,248,64193,2,0,P|372:236|412:236,1,110,10|8,0:1|0:0,0:0:0:0:
484,204,64825,2,0,P|476:140|444:104,1,110,10|10,0:1|0:0,0:0:0:0:
400,100,65298,2,0,P|409:46|439:0,2,110,2|10|2,0:0|0:1|0:0,0:0:0:0:
352,112,66088,6,0,P|300:105|232:100,1,110,12|8,0:1|0:0,0:0:0:0:
200,124,66561,1,2,0:0:0:0:
200,124,66719,2,0,P|240:156|244:228,1,110,10|8,0:1|0:0,0:0:0:0:
188,288,67351,2,0,P|131:285|68:280,1,110,10|10,0:1|0:0,0:0:0:0:
40,252,67825,2,0,P|5:294|1:348,2,110,2|10|2,0:0|0:1|0:0,0:0:0:0:
48,204,68614,6,0,P|112:192|168:184,1,110,12|10,0:1|0:0,0:0:0:0:
252,216,69246,1,10,0:1:0:0:
316,140,69561,1,10,0:0:0:0:
408,180,69877,2,0,P|403:236|396:296,1,110,10|10,0:1|0:0,0:0:0:0:
308,248,70509,2,0,P|303:304|296:364,1,110,10|10,0:1|0:0,0:0:0:0:
252,380,70982,6,0,P|188:360|168:300,1,110,12|10,0:1|0:1,0:0:0:0:
188,280,71456,1,10,0:0:0:0:
92,264,71772,2,0,P|91:203|92:144,1,110,10|8,0:0|0:0,0:0:0:0:
84,104,72246,2,0,P|140:80|200:88,1,110,12|10,0:0|0:1,0:0:0:0:
224,116,72719,1,10,0:0:0:0:
312,72,73035,1,8,0:0:0:0:
384,140,73351,1,10,0:0:0:0:
328,224,73667,6,0,P|280:220|208:216,1,110,12|8,0:1|0:0,0:0:0:0:
172,196,74140,1,2,0:0:0:0:
172,196,74298,2,0,P|120:224|96:280,1,110,10|8,0:1|0:0,0:0:0:0:
36,192,74930,2,0,P|36:137|35:82,1,110,10|10,0:1|0:0,0:0:0:0:
84,68,75404,2,0,P|145:78|196:88,1,110,2|10,0:0|0:1,0:0:0:0:
236,64,75877,1,8,0:0:0:0:
332,88,76193,6,0,P|386:77|440:68,1,110,12|8,0:1|0:0,0:0:0:0:
472,104,76667,1,2,0:0:0:0:
472,104,76825,2,0,P|468:167|460:228,1,110,10|8,0:1|0:0,0:0:0:0:
364,232,77456,2,0,P|316:192|260:192,1,110,10|10,0:1|0:0,0:0:0:0:
224,204,77930,2,0,P|187:243|181:297,1,110,2|10,0:0|0:1,0:0:0:0:
212,336,78404,1,8,0:0:0:0:
312,332,78719,6,0,P|372:330|436:324,2,110,12|10|10,0:1|0:0|0:1,0:0:0:0:
260,248,79667,1,10,0:0:0:0:
356,220,79982,2,0,P|376:156|364:108,1,110,10|10,0:1|0:0,0:0:0:0:
272,88,80614,2,0,P|215:90|144:96,1,110,10|10,0:3|0:0,0:0:0:0:
128,128,81088,6,0,P|140:208|176:228,1,110,12|10,0:1|0:1,0:0:0:0:
208,220,81561,1,10,0:0:0:0:
300,260,81877,1,10,0:1:0:0:
372,192,82193,1,8,0:0:0:0:
320,108,82509,2,0,P|265:103|204:100,1,110,10|10,0:1|0:0,0:0:0:0:
236,196,83140,2,0,P|181:191|120:188,1,110,10|10,0:1|0:0,0:0:0:0:
56,260,83772,5,14,0:0:0:0:
124,332,84088,1,10,0:0:0:0:
224,320,84404,1,10,0:0:0:0:
264,228,84719,1,8,0:0:0:0:
204,148,85035,2,0,P|143:142|88:140,1,110,10|10,0:0|0:0,0:0:0:0:
136,52,85667,2,0,P|196:57|252:60,1,110,10|10,0:0|0:0,0:0:0:0:
340,36,86298,5,10,0:0:0:0:
396,120,86614,1,10,0:0:0:0:
316,180,86930,2,0,P|276:228|280:280,1,110,10|10,0:0|0:0,0:0:0:0:
320,300,87404,2,0,P|268:295|204:292,1,110,12|10,0:1|0:1,0:0:0:0:
168,264,87877,2,0,L|112:276,1,55,10|2,0:0|0:0,0:0:0:0:
68,256,88193,2,0,P|69:197|76:144,1,110,8|8,0:3|0:0,0:0:0:0:
148,76,88825,6,0,P|216:92|248:140,1,110,10|10,0:0|0:0,0:0:0:0:
236,172,89298,1,12,0:1:0:0:
328,136,89614,1,12,0:1:0:0:
404,200,89930,1,12,0:0:0:0:
224,224,91351,6,0,P|220:169|216:112,2,110,12|10|10,0:0|0:1|0:0,0:0:0:0:
256,260,92140,2,0,P|324:256|356:168,1,165,10|10,0:1|0:0,0:0:0:0:
336,128,92772,2,0,P|397:122|456:120,1,110,10|10,0:1|0:1,0:0:0:0:
484,152,93246,2,0,P|480:183|476:208,1,55,8|12,0:0|0:1,0:0:0:0:
336,260,93877,6,0,P|281:257|216:256,1,110,10|10,0:0|0:1,0:0:0:0:
196,160,94509,2,0,P|250:162|316:164,1,110,10|10,0:1|0:1,0:0:0:0:
380,100,95140,1,10,0:1:0:0:
468,148,95456,1,10,0:1:0:0:
428,240,95772,2,0,P|424:296|384:340,1,110,10|10,0:1|0:1,0:0:0:0:
296,304,96404,5,12,0:1:0:0:
144,136,106509,6,0,P|137:200|128:264,2,110,12|8|8,0:1|0:1|0:0,0:0:0:0:
184,104,107298,2,0,P|260:104|296:128,1,110,10|8,0:1|0:1,0:0:0:0:
312,164,107772,2,0,L|304:196|296:228,1,55,8|10,0:0|0:1,0:0:0:0:
384,272,108246,2,0,P|391:239|400:208,1,55,8|8,0:1|0:0,0:0:0:0:
428,180,108561,2,0,P|435:123|444:68,1,110,10|0,0:1|0:0,0:0:0:0:
416,28,109035,6,0,P|360:16|312:56,1,110,12|8,0:0|0:1,0:0:0:0:
220,52,109667,1,8,0:0:0:0:
220,52,109825,2,0,P|226:118|232:180,1,110,10|0,0:1|0:0,0:0:0:0:
196,196,110298,2,0,P|204:232|264:272,1,110,10|2,0:0|0:0,0:0:0:0:
356,244,110930,1,10,0:0:0:0:
412,160,111246,1,2,0:3:0:0:
460,248,111561,6,0,P|457:303|452:368,2,110,12|8|8,0:0|0:1|0:0,0:0:0:0:
432,208,112351,2,0,P|424:152|496:80,1,165,10|8,0:1|0:0,0:0:0:0:
456,52,112982,2,0,P|403:49|340:44,1,110,10|8,0:1|0:1,0:0:0:0:
300,60,113456,2,0,P|243:55|172:52,1,110,8|8,0:0|0:0,0:0:0:0:
120,120,114088,5,10,0:1:0:0:
156,212,114404,1,10,0:1:0:0:
256,224,114719,1,10,0:1:0:0:
324,152,115035,1,10,0:1:0:0:
276,68,115351,2,0,P|229:68|152:72,1,110,10|10,0:0|0:1,0:0:0:0:
120,160,115982,2,0,B|145:164|177:166|177:166|207:172|240:176,1,110,8|8,0:0|0:0,0:0:0:0:
252,216,116456,6,0,P|344:216|384:156,1,165,12|10,0:1|0:1,0:0:0:0:
440,244,117246,2,0,P|432:306|428:360,1,110,10|10,0:1|0:0,0:0:0:0:
340,308,117877,2,0,P|304:360|252:376,1,110,10|10,0:1|0:0,0:0:0:0:
168,344,118509,2,0,P|140:286|153:233,1,110,10|8,0:1|0:0,0:0:0:0:
224,180,119140,6,0,P|287:185|326:222,1,110,10|10,0:1|0:0,0:0:0:0:
396,148,119772,2,0,P|459:142|508:136,1,110,10|10,0:1|0:0,0:0:0:0:
476,232,120404,2,0,P|449:290|430:334,1,110,10|10,0:1|0:0,0:0:0:0:
364,260,121035,2,0,P|327:207|260:120,1,165,10|12,0:0|0:1,0:0:0:0:
120,144,121982,6,0,P|144:200|196:220,1,110,10|10,0:0|0:1,0:0:0:0:
168,316,122614,2,0,P|227:308|284:304,1,110,8|10,0:0|0:1,0:0:0:0:
356,244,123246,2,0,P|344:188|336:128,1,110,8|10,0:0|0:1,0:0:0:0:
252,84,123877,2,0,P|245:118|240:152,1,55,12|2,0:0|0:0,0:0:0:0:
204,172,124193,6,0,P|168:144|96:136,1,110,10|10,0:1|0:0,0:0:0:0:
32,200,124825,1,10,0:1:0:0:
76,288,125140,1,10,0:0:0:0:
172,272,125456,2,0,P|226:273|284:276,1,110,8|8,0:1|0:3,0:0:0:0:
356,208,126088,2,0,P|304:124|184:144,1,220,8|12,0:0|0:1,0:0:0:0:
60,256,127351,6,0,L|192:248,1,123.750004720688,0|0,0:0|0:0,0:0:0:0:
220,220,127982,2,0,B|240:248|252:296|252:296|292:288|292:288|332:296|373:296|373:296|388:272|424:260|448:272,1,288.750011014939,2|0,0:0|0:0,0:0:0:0:
484,296,129246,6,0,B|498:248|500:216|500:216|492:192|476:180|476:180|492:140|488:92,1,206.250007867813,2|0,0:0|0:0,0:0:0:0:
408,56,130351,2,0,P|376:44|312:56,2,82.5000031471254,2|0|10,0:0|0:0|0:3,0:0:0:0:
360,132,131298,2,0,L|352:188,1,41.2500015735627,8|8,0:1|0:0,0:0:0:0:
292,252,131772,6,0,P|244:228|168:236,1,110,10|10,0:0|0:0,0:0:0:0:
96,260,132404,2,0,P|105:200|116:148,1,110,10|10,0:1|0:1,0:0:0:0:
116,52,133035,2,0,P|164:76|240:68,1,110,10|10,0:0|0:1,0:0:0:0:
312,44,133667,2,0,P|302:104|292:156,1,110,10|10,0:1|0:1,0:0:0:0:
388,176,134298,6,0,P|436:196|476:260,1,110,10|10,0:0|0:1,0:0:0:0:
452,340,134930,2,0,P|410:371|335:374,1,110,10|10,0:1|0:0,0:0:0:0:
268,332,135561,6,0,P|255:268|244:200,1,110,10|10,0:0|0:0,0:0:0:0:
164,172,136193,2,0,P|156:226|146:280,1,110,10|10,0:3|0:3,0:0:0:0:
60,328,136825,2,0,B|54:229|48:160|48:160|6:129,2,220,12|0|0,0:1|0:0|0:0,0:0:0:0:
256,128,140772,6,0,L|252:200,1,55,8|8,0:1|0:3,0:0:0:0:
296,272,141246,6,0,P|360:267|432:264,1,110,12|8,0:1|0:1,0:0:0:0:
420,168,141877,2,0,P|371:143|348:95,1,110,8|8,0:1|0:1,0:0:0:0:
256,60,142509,2,0,P|258:125|260:176,1,110,8|8,0:1|0:1,0:0:0:0:
196,244,143140,5,8,0:1:0:0:
104,204,143456,1,8,0:1:0:0:
36,276,143772,1,8,0:1:0:0:
88,360,144088,1,8,0:1:0:0:
184,344,144404,2,0,P|241:343|300:344,1,110,8|8,0:0|0:0,0:0:0:0:
368,280,145035,2,0,B|374:253|374:253|376:220,1,55,8|8,0:0|0:0,0:0:0:0:
340,188,145351,2,0,B|335:161|335:161|336:132,1,55,8|8,0:3|0:3,0:0:0:0:
296,104,145667,6,0,P|242:107|168:116,1,110,12|8,0:1|0:2,0:0:0:0:
88,108,146298,2,0,L|68:56,2,55,8|8|8,0:1|0:1|0:2,0:0:0:0:
56,200,146930,2,0,P|84:252|144:268,1,110,8|8,0:1|0:2,0:0:0:0:
176,252,147404,1,8,0:1:0:0:
176,252,147561,1,8,0:2:0:0:
272,272,147877,6,0,P|274:212|276:156,1,110,8|8,0:1|0:2,0:0:0:0:
304,124,148350,1,0,0:2:0:0:
304,124,148508,2,0,P|332:127|359:132,2,55,8|8|8,0:1|0:1|0:2,0:0:0:0:
220,71,149140,2,0,P|169:92|116:84,2,110,8|8|8,0:1|0:1|0:2,0:0:0:0:
308,24,150087,5,12,0:1:0:0:
372,96,150402,2,0,B|370:126|372:152|372:152|363:185|360:216,1,110,8|8,0:2|0:1,0:0:0:0:
324,240,150876,2,0,P|323:273|324:308,1,55,8|8,0:1|0:2,0:0:0:0:
408,348,151350,2,0,P|468:332|488:288,2,110,8|8|8,0:1|0:2|0:2,0:0:0:0:
312,328,152297,1,8,0:2:0:0:
312,328,152455,1,8,0:2:0:0:
228,276,152771,6,0,L|168:288,1,55,8|8,0:2|0:2,0:0:0:0:
108,212,153244,1,8,0:2:0:0:
184,152,153560,2,0,P|226:153|264:160,1,55,8|8,0:2|0:2,0:0:0:0:
280,180,153905,1,8,0:2:0:0:
280,180,154078,5,12,0:2:0:0:
104,100,155460,6,0,P|110:161|116:212,1,110,12|10,0:1|0:1,0:0:0:0:
204,164,156091,2,0,P|210:225|216:276,1,110,10|10,0:1|0:1,0:0:0:0:
300,220,156723,2,0,P|368:228|400:268,1,110,10|10,0:1|0:1,0:0:0:0:
364,352,157354,2,0,P|428:348|488:344,1,110,10|10,0:1|0:1,0:0:0:0:
508,252,157986,6,0,P|504:200|500:140,1,110,12|10,0:1|0:1,0:0:0:0:
451,56,158617,2,0,P|411:92|400:145,1,110,10|10,0:1|0:1,0:0:0:0:
316,96,159249,2,0,P|264:88|188:80,1,110,10|10,0:1|0:1,0:0:0:0:
164,172,159881,2,0,P|137:176|104:184,2,55,10|8|8,0:1|0:1|0:0,0:0:0:0:
260,200,160512,6,0,P|272:272|200:336,1,165,12|10,0:1|0:1,0:0:0:0:
164,328,161144,1,10,0:0:0:0:
359,311,161775,2,0,P|387:314|414:317,1,55,10|8,0:1|0:0,0:0:0:0:
456,340,162091,2,0,P|458:295|464:224,1,110,10|10,0:1|0:0,0:0:0:0:
480,184,162565,1,8,0:3:0:0:
480,184,162723,1,10,0:3:0:0:
408,116,163038,6,0,P|355:119|296:124,1,110,10|8,0:0|0:1,0:0:0:0:
316,28,163670,2,0,P|263:31|204:36,1,110,8|8,3:1|0:1,0:0:0:0:
188,132,164302,2,0,P|143:159|96:192,1,110,10|10,0:0|0:0,0:0:0:0:
75,96,164933,2,0,P|41:53|8:9,2,110,10|10|0,0:0|0:0|0:0,0:0:0:0:
208,224,166354,6,0,L|200:272,2,41.2500015735627,2|0|2,0:0|0:0|0:0,0:0:0:0:
292,188,166986,2,0,L|300:244,2,41.2500015735627,2|0|2,0:0|0:0|0:0,0:0:0:0:
256,104,167617,1,10,0:3:0:0:
256,104,167775,6,0,P|225:101|176:100,1,55,10|10,0:0|0:1,0:0:0:0:
160,72,168091,6,0,P|88:56|40:88,1,110,12|10,0:1|0:1,0:0:0:0:
32,112,168565,2,0,P|37:174|44:240,1,110,10|10,0:0|0:0,0:0:0:0:
72,260,169038,1,8,0:0:0:0:
164,220,169354,2,0,P|166:192|168:160,2,55,12|10|10,0:1|0:0|0:0,0:0:0:0:
204,252,169828,2,0,P|292:244|324:216,1,110,10|10,0:1|0:0,0:0:0:0:
328,188,170302,1,8,0:0:0:0:
328,188,170460,1,12,0:1:0:0:
412,244,170788,6,0,L|415:298,2,55,8|8|12,0:0|0:0|0:1,0:0:0:0:
468,160,171418,2,0,L|476:92,2,55,8|8|12,0:0|0:0|0:1,0:0:0:0:
368,156,172070,2,0,B|340:168|312:168|312:168|288:152|264:144|264:144|208:152,1,165,8|10,0:0|0:1,0:0:0:0:
108,284,173205,6,0,P|200:288|248:232,1,165.000006294251,10|2,0:1|0:0,0:0:0:0:
108,120,174448,2,0,P|153:121|200:124,1,82.5000031471254,2|2,0:0|0:0,0:0:0:0:
208,80,174914,2,0,P|258:76|304:72,1,82.5000031471254,2|2,0:0|0:0,0:0:0:0:
368,124,175536,6,0,P|370:221|281:260,1,206.250007867813,0|2,0:0|0:0,0:0:0:0:
152,184,176935,2,0,P|212:171|288:160,1,123.750004720688,2|2,0:0|0:0,0:0:0:0:
292,72,177724,2,0,L|251:72|200:72,1,82.5000031471254,2|2,0:0|0:0,0:0:0:0:
80,120,178518,6,0,P|56:84|52:40,2,82.5000031471254,2|2|2,0:0|0:0|0:0,0:0:0:0:
136,192,179481,2,0,P|127:237|116:284,2,82.5000031471254,2|2|2,0:0|0:0|0:0,0:0:0:0:
200,124,180428,2,0,L|248:112,1,41.2500015735627
332,100,180899,1,0,0:0:0:0:
332,100,181054,6,0,B|352:108|364:136|364:136|356:160|340:172|340:172|336:192|324:212|324:212|332:244|332:244|344:264|343:278,1,206.250007867813,2|2,0:0|0:0,0:0:0:0:
364,316,181987,2,0,B|347:306|324:300|324:300|306:307|288:308|288:308|262:303|248:300|248:300|225:309|208:312|208:312|183:307|168:308|168:308|144:316|124:312|124:312,1,247.500009441376,2|4,0:0|0:0,0:0:0:0:
60,236,183258,6,0,P|108:212|162:219,1,110,12|8,0:1|0:1,0:0:0:0:
220,140,183889,2,0,P|282:136|336:132,1,110,10|8,0:1|0:1,0:0:0:0:
284,48,184512,2,0,P|346:44|400:40,1,110,10|10,0:1|0:1,0:0:0:0:
452,120,185152,2,0,P|452:180|420:224,1,110,8|8,0:1|0:1,0:0:0:0:
336,268,185793,6,0,P|281:262|220:260,1,110,8|8,0:0|0:1,0:0:0:0:
204,164,186424,2,0,P|159:199|116:236,1,110,10|8,0:1|0:1,0:0:0:0:
32,184,187039,2,0,P|27:242|24:304,1,110,10|10,0:0|0:0,0:0:0:0:
104,352,187679,2,0,P|135:347|168:340,1,55,10|10,0:1|0:0,0:0:0:0:
196,312,187990,2,0,P|231:318|260:328,1,55,10|12,0:0|0:1,0:0:0:0:
204,136,192091,6,0,P|207:184|216:256,1,110,12|8,0:1|0:0,0:0:0:0:
248,280,192565,2,0,P|328:280|360:256,1,110,8|0,0:1|0:0,0:0:0:0:
368,216,193038,2,0,P|407:220|440:228,1,55,12|8,0:1|0:0,0:0:0:0:
464,252,193354,2,0,P|460:192|460:136,1,110,10|10,0:0|0:0,0:0:0:0:
460,92,193828,2,0,P|392:116|344:104,1,110,10|10,0:0|0:0,0:0:0:0:
324,72,194302,1,8,0:3:0:0:
240,124,194617,6,0,P|276:168|276:240,1,110,12|8,0:1|0:0,0:0:0:0:
264,268,195091,1,2,0:0:0:0:
264,268,195249,2,0,P|209:270|154:271,1,110,10|8,0:1|0:0,0:0:0:0:
60,308,195880,2,0,P|57:257|56:196,1,110,10|10,0:1|0:0,0:0:0:0:
80,156,196354,2,0,P|128:124|192:124,2,110,2|10|2,0:0|0:1|0:0,0:0:0:0:
44,120,197144,6,0,P|33:66|28:11,1,110,12|10,0:1|0:0,0:0:0:0:
124,28,197775,2,0,P|181:27|248:28,1,110,10|10,0:1|0:0,0:0:0:0:
324,68,198407,1,10,0:1:0:0:
268,148,198723,1,10,0:0:0:0:
324,228,199038,2,0,L|320:292,2,55,10|10|10,0:1|0:1|0:0,0:0:0:0:
360,192,199512,6,0,P|420:204|460:260,1,110,14|10,0:1|0:1,0:0:0:0:
464,288,199986,1,10,0:0:0:0:
408,368,200302,1,10,0:0:0:0:
312,336,200617,1,10,0:0:0:0:
312,336,200775,2,0,P|265:340|184:344,1,110,12|10,0:1|0:1,0:0:0:0:
176,300,201249,2,0,P|140:340|76:340,1,110,10|8,0:0|0:0,0:0:0:0:
36,260,201880,1,10,0:0:0:0:
108,192,202196,6,0,P|167:197|220:204,1,110,12|8,0:1|0:0,0:0:0:0:
260,228,202670,1,2,0:0:0:0:
260,228,202828,2,0,P|308:180|368:176,1,110,10|8,0:1|0:0,0:0:0:0:
428,232,203459,2,0,P|427:283|424:348,1,110,10|10,0:1|0:0,0:0:0:0:
384,372,203933,2,0,P|320:376|264:352,1,110,2|10,0:0|0:1,0:0:0:0:
248,320,204407,1,12,0:0:0:0:
152,344,204723,6,0,P|147:294|144:232,1,110,8|8,0:1|0:0,0:0:0:0:
180,204,205196,1,2,0:0:0:0:
180,204,205354,2,0,P|185:142|188:80,1,110,10|12,0:1|0:0,0:0:0:0:
276,136,205986,2,0,P|304:192|368:208,1,110,10|10,0:1|0:0,0:0:0:0:
392,188,206459,2,0,P|382:254|372:304,2,110,2|10|2,0:0|0:1|0:0,0:0:0:0:
420,148,207249,6,0,P|448:149|476:148,1,55,12|2,0:1|0:0,0:0:0:0:
508,112,207565,2,0,P|510:84|510:57,1,55,10|2,0:0|0:0,0:0:0:0:
472,28,207880,1,10,0:1:0:0:
376,52,208196,2,0,P|341:45|308:40,1,55,10|2,0:0|0:0,0:0:0:0:
280,68,208512,2,0,P|223:79|164:80,1,110,10|10,0:1|0:0,0:0:0:0:
124,60,208986,1,2,0:0:0:0:
124,60,209144,2,0,P|92:116|100:168,1,110,8|10,0:3|0:0,0:0:0:0:
132,192,209617,6,0,P|182:187|248:184,1,110,14|10,0:1|0:1,0:0:0:0:
284,212,210091,1,10,0:0:0:0:
340,296,210407,1,10,0:1:0:0:
268,364,210723,1,10,0:0:0:0:
184,316,211038,2,0,P|124:324|84:368,1,110,10|10,0:1|0:0,0:0:0:0:
32,276,211670,2,0,P|30:220|28:160,1,110,10|10,0:1|0:0,0:0:0:0:
72,76,212302,5,12,0:0:0:0:
168,60,212617,1,10,0:0:0:0:
244,124,212933,1,10,0:0:0:0:
216,220,213249,1,8,0:0:0:0:
120,240,213565,2,0,P|115:184|112:128,1,110,10|10,0:1|0:0,0:0:0:0:
212,132,214196,2,0,P|207:77|204:22,1,110,10|10,0:0|0:0,0:0:0:0:
296,56,214828,6,0,P|347:50|416:44,1,110,10|10,0:1|0:0,0:0:0:0:
432,140,215459,2,0,P|464:144|492:148,2,55,10|8|8,0:0|0:1|0:0,0:0:0:0:
388,164,215933,2,0,P|372:204|300:228,1,110,12|10,0:1|0:1,0:0:0:0:
272,200,216407,2,0,P|275:263|276:316,1,110,10|8,0:0|0:1,0:0:0:0:
192,364,217038,1,8,0:0:0:0:
96,332,217354,6,0,P|96:280|144:228,1,110,10|10,0:0|0:0,0:0:0:0:
180,228,217828,1,12,0:1:0:0:
216,136,218144,1,12,0:1:0:0:
136,76,218459,2,0,P|84:73|20:72,1,110,12|8,0:0|0:1,0:0:0:0:
8,116,218933,2,0,P|11:147|16:176,1,55,8|8,0:0|0:1,0:0:0:0:
48,208,219249,2,0,P|42:262|36:320,1,110,8|8,0:0|0:0,0:0:0:0:
132,288,219880,6,0,P|192:288|236:336,1,110,12|10,0:1|0:0,0:0:0:0:
240,368,220354,1,8,0:1:0:0:
240,368,220512,2,0,P|276:368|360:364,1,110,10|10,0:0|0:0,0:0:0:0:
436,320,221144,2,0,P|408:256|420:200,1,110,10|10,0:0|0:0,0:0:0:0:
320,184,221775,2,0,P|348:144|344:64,1,110,10|10,0:0|0:0,0:0:0:0:
256,108,222407,6,0,B|212:103|212:103|175:111|156:99|140:79|140:79|135:54|129:41,2,165,10|10|8,0:1|0:0|0:0,0:0:0:0:
296,80,223512,2,0,B|297:51|297:51|292:8,1,55,10|12,0:0|0:0,0:0:0:0:
256,192,224933,5,12,0:1:0:0:
256,192,225091,12,0,227460,0:0:0:0:
256,192,229986,5,12,0:1:0:0:
256,192,230144,12,0,234407,0:0:0:0:
152,136,235038,6,0,P|147:195|144:256,1,110,12|10,0:1|0:0,0:0:0:0:
224,308,235670,2,0,P|272:296|308:240,1,110,10|10,0:1|0:0,0:0:0:0:
292,200,236144,2,0,P|388:204|456:208,1,165,2|10,0:0|0:0,0:0:0:0:
504,120,236933,1,10,0:1:0:0:
432,52,237249,1,10,0:0:0:0:
344,96,237565,6,0,P|276:84|248:32,1,110,10|10,0:1|0:0,0:0:0:0:
168,104,238196,2,0,P|166:166|164:224,1,110,10|10,0:1|0:0,0:0:0:0:
148,260,238670,2,0,P|208:232|264:240,1,110,10|2,0:0|0:0,0:0:0:0:
288,268,239144,2,0,B|315:275|340:288|340:288|370:277|400:272,2,110,10|10|10,0:0|0:1|0:0,0:0:0:0:
344,188,240091,6,0,L|340:133|336:78,1,110,10|12,0:0|0:1,0:0:0:0:
252,28,240723,2,0,P|246:92|240:144,1,110,10|10,0:1|0:1,0:0:0:0:
216,180,241196,2,0,P|100:148|40:160,1,165,12|10,0:0|0:0,0:0:0:0:
16,244,241986,1,10,0:3:0:0:
76,324,242302,1,10,0:0:0:0:
168,284,242617,6,0,P|218:288|280:296,1,110,12|10,0:0|0:0,0:0:0:0:
356,236,243249,2,0,P|309:209|295:157,1,110,10|10,0:0|0:0,0:0:0:0:
324,116,243723,2,0,P|265:112|200:112,1,110,12|2,0:1|0:0,0:0:0:0:
172,136,244196,2,0,B|159:112|144:88|144:88|148:55|148:28,2,110,10|10|10,0:0|0:0|0:0,0:0:0:0:
160,184,244986,1,10,0:0:0:0:
