osu file format v14

[General]
AudioFilename: Rally Go Around by LiSA (Anime Version).mp3
AudioLeadIn: 0
PreviewTime: 51888
Countdown: 0
SampleSet: Soft
StackLeniency: 0.7
Mode: 3
LetterboxInBreaks: 0
SpecialStyle: 0
WidescreenStoryboard: 0

[Editor]
DistanceSpacing: 0.8
BeatDivisor: 4
GridSize: 8
TimelineZoom: 2.5

[Metadata]
Title:Rally Go Round -TV ver.-
TitleUnicode:Rally Go Round -TV ver.-
Artist:LiSA
ArtistUnicode:LiSA
Creator:Verniy_Chan
Version:5K HD
Source:ニセコイ:
Tags:Nisekoi: Nisekoi 2nd Season Opening Risa Oribe Shin Furuya Jin Reyzra Gomuryuu Muu-chan Kyousuke-
BeatmapID:679357
BeatmapSetID:302252

[Difficulty]
HPDrainRate:7.5
CircleSize:5
OverallDifficulty:7
ApproachRate:5
SliderMultiplier:1.4
SliderTickRate:1

[Events]
//Background and Video events
0,0,"Background.jpg",0,0
Video,0,"Video.flv"
//Break Periods
//Storyboard Layer 0 (Background)
//Storyboard Layer 1 (Fail)
//Storyboard Layer 2 (Pass)
//Storyboard Layer 3 (Foreground)
//Storyboard Sound Samples

[TimingPoints]
257,315.789473684211,4,2,1,40,1,0
52046,-100,4,2,1,40,0,1
72257,-100,4,2,1,40,0,0
83625,-100,4,2,1,40,0,1
89309,-100,4,2,1,40,0,0

[HitObjects]
256,192,257,5,8,0:0:0:0:
51,192,257,1,0,0:0:0:0:
460,192,257,1,0,0:0:0:0:
51,192,414,1,8,0:0:0:0:
256,192,414,1,0,0:0:0:0:
460,192,414,1,0,0:0:0:0:
153,192,730,1,0,0:0:0:0:
256,192,888,1,0,0:0:0:0:
153,192,1204,1,0,0:0:0:0:
358,192,1204,1,0,0:0:0:0:
256,192,1362,1,0,0:0:0:0:
460,192,1520,1,0,0:0:0:0:
358,192,1678,1,0,0:0:0:0:
51,192,1835,1,2,0:0:0:0:
153,192,1993,1,8,2:0:0:0:
256,192,1993,1,4,0:0:0:0:
460,192,1993,1,0,0:0:0:0:
358,192,2309,1,0,0:0:0:0:
51,192,2309,1,0,0:0:0:0:
256,192,2467,1,0,0:0:0:0:
153,192,2625,1,0,0:0:0:0:
460,192,2783,1,8,0:0:0:0:
256,192,2783,1,0,0:0:0:0:
51,192,2783,1,0,0:0:0:0:
256,192,2941,1,8,0:0:0:0:
460,192,2941,1,0,0:0:0:0:
51,192,2941,1,0,0:0:0:0:
358,192,3257,1,0,0:0:0:0:
256,192,3414,1,0,0:0:0:0:
153,192,3730,1,0,0:0:0:0:
358,192,3730,1,0,0:0:0:0:
256,192,3888,1,0,0:0:0:0:
51,192,4046,1,4,0:0:0:0:
460,192,4046,1,0,0:0:0:0:
358,192,4204,1,0,0:0:0:0:
256,192,4362,1,4,0:0:0:0:
460,192,4362,1,0,0:0:0:0:
153,192,4678,1,2,0:0:0:0:
256,192,4757,1,2,0:0:0:0:
358,192,4835,1,2,0:0:0:0:
460,192,4914,1,2,0:0:0:0:
153,192,4993,1,4,0:0:0:0:
51,192,4993,1,8,0:0:0:0:
256,192,4993,1,0,0:0:0:0:
358,192,5309,1,2,0:0:0:0:
460,192,5309,1,4,0:0:0:0:
256,192,5309,1,0,0:0:0:0:
192,192,5467,1,2,0:0:0:0:
448,192,5625,1,8,0:0:0:0:
256,192,5625,1,0,0:0:0:0:
358,192,5783,1,0,0:0:0:0:
256,192,5862,1,2,0:0:0:0:
153,192,5941,1,2,0:0:0:0:
51,192,6099,1,2,0:0:0:0:
358,192,6257,1,8,0:0:0:0:
153,192,6257,1,0,0:0:0:0:
256,192,6414,1,0,0:0:0:0:
460,192,6572,1,2,0:0:0:0:
358,192,6730,1,2,0:0:0:0:
256,192,6888,1,8,0:0:0:0:
51,192,6888,1,0,0:0:0:0:
358,192,7046,1,0,0:0:0:0:
256,192,7125,1,2,0:0:0:0:
153,192,7204,1,2,0:0:0:0:
51,192,7362,1,2,0:0:0:0:
358,192,7362,1,0,0:0:0:0:
460,192,7520,1,8,0:0:0:0:
256,192,7520,1,0,0:0:0:0:
51,192,7678,1,0,0:0:0:0:
153,192,7678,1,0,0:0:0:0:
448,192,7835,1,4,0:0:0:0:
256,192,7835,1,2,0:0:0:0:
358,192,7835,1,0,0:0:0:0:
51,192,7993,1,2,0:0:0:0:
153,192,8151,1,8,0:0:0:0:
256,192,8151,1,0,0:0:0:0:
460,192,8309,1,0,0:0:0:0:
358,192,8388,1,2,0:0:0:0:
192,192,8467,1,2,0:0:0:0:
256,192,8625,1,2,0:0:0:0:
448,192,8783,1,8,0:0:0:0:
358,192,8783,1,0,0:0:0:0:
51,192,8941,1,2,0:0:0:0:
256,192,8941,1,4,0:0:0:0:
153,192,8941,1,0,0:0:0:0:
358,192,9257,1,2,0:0:0:0:
153,192,9257,1,0,0:0:0:0:
51,192,9414,1,8,0:0:0:0:
460,192,9414,1,0,0:0:0:0:
358,192,9572,1,2,0:0:0:0:
256,192,9572,1,4,0:0:0:0:
153,192,9572,1,0,0:0:0:0:
51,192,9888,1,2,0:0:0:0:
460,192,9888,1,8,0:0:0:0:
358,192,9967,1,8,0:0:0:0:
256,192,10046,1,8,0:0:0:0:
153,192,10125,1,8,0:0:0:0:
256,192,10204,1,2,0:0:0:0:
358,192,10204,1,4,0:0:0:0:
460,192,10204,1,0,0:0:0:0:
192,192,10678,1,2,0:0:0:0:
358,192,10678,1,0,0:0:0:0:
460,192,10993,1,2,0:0:0:0:
64,192,11309,1,2,0:0:0:0:
256,192,11309,1,0,0:0:0:0:
192,192,11625,1,2,0:0:0:0:
448,192,11941,1,2,0:0:0:0:
256,192,11941,1,0,0:0:0:0:
358,192,12257,1,2,0:0:0:0:
51,192,12572,1,2,0:0:0:0:
153,192,12730,1,8,0:0:0:0:
358,192,12730,1,4,0:0:0:0:
460,192,12888,1,2,0:0:0:0:
51,192,13204,1,2,0:0:0:0:
256,192,13204,1,0,0:0:0:0:
460,192,13520,1,2,0:0:0:0:
153,192,13835,1,2,0:0:0:0:
358,192,13835,1,0,0:0:0:0:
51,192,14151,1,2,0:0:0:0:
256,192,14467,1,2,0:0:0:0:
460,192,14467,1,0,0:0:0:0:
358,192,14783,1,2,0:0:0:0:
51,192,14941,1,8,0:0:0:0:
153,192,14941,1,4,0:0:0:0:
460,192,14941,1,0,0:0:0:0:
256,192,15099,1,2,0:0:0:0:
358,192,15257,1,8,0:0:0:0:
460,192,15257,1,4,0:0:0:0:
51,192,15257,1,0,0:0:0:0:
153,192,15414,1,2,0:0:0:0:
51,192,15730,1,2,0:0:0:0:
256,192,15730,1,0,0:0:0:0:
320,192,16046,1,2,0:0:0:0:
460,192,16362,1,2,0:0:0:0:
256,192,16362,1,0,0:0:0:0:
64,192,16678,1,2,0:0:0:0:
192,192,16993,1,2,0:0:0:0:
358,192,16993,1,0,0:0:0:0:
256,192,17309,1,2,0:0:0:0:
460,192,17625,1,2,0:0:0:0:
153,192,17783,1,8,0:0:0:0:
358,192,17783,1,4,0:0:0:0:
256,192,17783,1,0,0:0:0:0:
51,192,17941,1,2,0:0:0:0:
460,192,18099,1,4,0:0:0:0:
256,192,18099,1,8,0:0:0:0:
358,192,18099,1,0,0:0:0:0:
153,192,18257,1,4,0:0:0:0:
51,192,18257,1,8,0:0:0:0:
256,192,18257,1,0,0:0:0:0:
460,192,18572,1,8,0:0:0:0:
153,192,18572,1,0,0:0:0:0:
358,192,18730,1,0,0:0:0:0:
51,192,18809,1,2,0:0:0:0:
153,192,18888,1,2,0:0:0:0:
256,192,18941,1,8,0:0:0:0:
64,192,19046,128,2,19993:0:0:0:0:
460,192,19046,128,0,19993:0:0:0:0:
320,192,19993,1,8,0:0:0:0:
256,192,19993,1,0,0:0:0:0:
192,192,20151,1,8,0:0:0:0:
256,192,20151,1,0,0:0:0:0:
448,192,20309,1,4,0:0:0:0:
358,192,20309,1,2,0:0:0:0:
51,192,20309,1,0,0:0:0:0:
153,192,20625,1,2,0:0:0:0:
448,192,20783,1,8,0:0:0:0:
256,192,20783,1,0,0:0:0:0:
51,192,20941,1,0,0:0:0:0:
320,192,21099,1,2,0:0:0:0:
256,192,21257,1,2,0:0:0:0:
51,192,21414,1,8,0:0:0:0:
153,192,21414,1,0,0:0:0:0:
358,192,21730,1,2,0:0:0:0:
460,192,21888,1,2,0:0:0:0:
153,192,22046,1,8,0:0:0:0:
256,192,22046,1,0,0:0:0:0:
64,192,22362,1,2,0:0:0:0:
192,192,22520,1,2,0:0:0:0:
320,192,22678,1,8,0:0:0:0:
256,192,22678,1,0,0:0:0:0:
153,192,22835,1,2,0:0:0:0:
460,192,22835,1,0,0:0:0:0:
51,192,23151,1,2,0:0:0:0:
320,192,23309,1,8,0:0:0:0:
153,192,23309,1,0,0:0:0:0:
256,192,23467,1,0,0:0:0:0:
460,192,23625,1,2,0:0:0:0:
256,192,23783,1,2,0:0:0:0:
153,192,23941,1,8,0:0:0:0:
358,192,23941,1,0,0:0:0:0:
256,192,24257,1,2,0:0:0:0:
358,192,24414,1,2,0:0:0:0:
64,192,24572,1,8,0:0:0:0:
153,192,24572,1,0,0:0:0:0:
192,192,24888,1,2,0:0:0:0:
460,192,24888,1,0,0:0:0:0:
320,192,25046,1,2,0:0:0:0:
51,192,25046,1,0,0:0:0:0:
192,192,25204,1,8,0:0:0:0:
256,192,25204,1,0,0:0:0:0:
320,192,25362,1,4,0:0:0:0:
51,192,25362,1,2,0:0:0:0:
460,192,25362,1,0,0:0:0:0:
256,192,25678,1,2,0:0:0:0:
320,192,25835,1,8,0:0:0:0:
51,192,25835,1,0,0:0:0:0:
448,192,26151,1,2,0:0:0:0:
320,192,26309,1,2,0:0:0:0:
256,192,26467,1,8,0:0:0:0:
51,192,26467,1,0,0:0:0:0:
153,192,26783,1,2,0:0:0:0:
256,192,26941,1,2,0:0:0:0:
64,192,27099,1,8,0:0:0:0:
460,192,27099,1,0,0:0:0:0:
358,192,27414,1,2,0:0:0:0:
256,192,27572,1,2,0:0:0:0:
51,192,27730,1,8,0:0:0:0:
448,192,27730,1,0,0:0:0:0:
320,192,27888,1,2,0:0:0:0:
153,192,27888,1,0,0:0:0:0:
256,192,28204,1,2,0:0:0:0:
153,192,28362,1,8,0:0:0:0:
460,192,28362,1,0,0:0:0:0:
358,192,28678,1,2,0:0:0:0:
256,192,28835,1,2,0:0:0:0:
192,192,28993,1,8,0:0:0:0:
51,192,28993,1,0,0:0:0:0:
256,192,29309,1,2,0:0:0:0:
358,192,29467,1,2,0:0:0:0:
256,192,29625,1,8,0:0:0:0:
460,192,29625,1,0,0:0:0:0:
51,192,29783,1,8,0:0:0:0:
153,192,29862,1,8,0:0:0:0:
358,192,29941,1,2,0:0:0:0:
256,192,29941,1,8,0:0:0:0:
51,192,30099,1,8,0:0:0:0:
153,192,30178,1,8,0:0:0:0:
358,192,30257,1,2,0:0:0:0:
256,192,30257,1,8,0:0:0:0:
460,192,30335,1,8,0:0:0:0:
358,192,30414,1,8,0:0:0:0:
256,192,30467,1,8,0:0:0:0:
153,192,30572,1,2,0:0:0:0:
460,192,30572,1,4,0:0:0:0:
51,192,30572,1,0,0:0:0:0:
358,192,31046,1,2,0:0:0:0:
256,192,31125,1,2,0:0:0:0:
51,192,31204,1,8,0:0:0:0:
153,192,31204,1,0,0:0:0:0:
64,192,31520,1,2,0:0:0:0:
460,192,31520,1,0,0:0:0:0:
192,192,31678,1,2,0:0:0:0:
358,192,31678,1,0,0:0:0:0:
64,192,31993,1,8,0:0:0:0:
256,192,31993,1,0,0:0:0:0:
460,192,32309,1,2,0:0:0:0:
192,192,32467,1,8,0:0:0:0:
358,192,32467,1,0,0:0:0:0:
256,192,32625,1,2,0:0:0:0:
64,192,32783,1,8,0:0:0:0:
192,192,32783,1,0,0:0:0:0:
256,192,32941,1,4,0:0:0:0:
358,192,32941,1,2,0:0:0:0:
460,192,32941,1,0,0:0:0:0:
153,192,33257,1,2,0:0:0:0:
64,192,33414,1,8,0:0:0:0:
256,192,33414,1,0,0:0:0:0:
256,192,33572,1,8,0:0:0:0:
51,192,33572,1,0,0:0:0:0:
460,192,33730,1,2,0:0:0:0:
320,192,33888,1,2,0:0:0:0:
51,192,34046,1,8,0:0:0:0:
256,192,34046,1,0,0:0:0:0:
153,192,34204,1,2,0:0:0:0:
460,192,34204,1,0,0:0:0:0:
358,192,34520,1,2,0:0:0:0:
256,192,34678,1,8,0:0:0:0:
460,192,34678,1,0,0:0:0:0:
460,192,34835,1,8,0:0:0:0:
256,192,34835,1,0,0:0:0:0:
51,192,34993,1,2,0:0:0:0:
192,192,35151,1,2,0:0:0:0:
256,192,35309,1,8,0:0:0:0:
460,192,35309,1,0,0:0:0:0:
51,192,35467,1,2,0:0:0:0:
153,192,35467,1,4,0:0:0:0:
358,192,35467,1,0,0:0:0:0:
256,192,35783,1,2,0:0:0:0:
51,192,35941,1,0,0:0:0:0:
153,192,36099,1,2,0:0:0:0:
256,192,36178,1,2,0:0:0:0:
358,192,36257,1,8,0:0:0:0:
448,192,36257,1,4,0:0:0:0:
64,192,36572,1,2,0:0:0:0:
256,192,36572,1,4,0:0:0:0:
153,192,36730,1,2,0:0:0:0:
358,192,36730,1,0,0:0:0:0:
448,192,37046,1,8,0:0:0:0:
256,192,37046,1,0,0:0:0:0:
320,192,37204,1,0,0:0:0:0:
192,192,37362,1,2,0:0:0:0:
64,192,37520,1,8,0:0:0:0:
256,192,37520,1,0,0:0:0:0:
460,192,37678,1,2,0:0:0:0:
320,192,37835,1,8,0:0:0:0:
153,192,37835,1,0,0:0:0:0:
448,192,37993,1,4,0:0:0:0:
51,192,37993,1,2,0:0:0:0:
256,192,37993,1,0,0:0:0:0:
358,192,38309,1,2,0:0:0:0:
256,192,38467,1,8,0:0:0:0:
51,192,38467,1,0,0:0:0:0:
51,192,38625,1,8,0:0:0:0:
256,192,38625,1,0,0:0:0:0:
153,192,38783,1,2,0:0:0:0:
256,192,38941,1,2,0:0:0:0:
64,192,39099,1,8,0:0:0:0:
320,192,39099,1,0,0:0:0:0:
153,192,39257,1,2,0:0:0:0:
256,192,39257,1,4,0:0:0:0:
460,192,39257,1,0,0:0:0:0:
358,192,39572,1,2,0:0:0:0:
51,192,39730,1,8,0:0:0:0:
256,192,39730,1,0,0:0:0:0:
448,192,39888,1,2,0:0:0:0:
358,192,40046,1,8,0:0:0:0:
153,192,40046,1,0,0:0:0:0:
51,192,40204,1,0,0:0:0:0:
153,192,40362,1,0,0:0:0:0:
256,192,40520,1,8,0:0:0:0:
358,192,40520,1,4,0:0:0:0:
460,192,40520,1,0,0:0:0:0:
153,192,40835,1,2,0:0:0:0:
64,192,40993,1,8,0:0:0:0:
256,192,40993,1,0,0:0:0:0:
460,192,41151,1,0,0:0:0:0:
358,192,41309,1,2,0:0:0:0:
256,192,41467,1,2,0:0:0:0:
448,192,41625,1,8,0:0:0:0:
51,192,41625,1,0,0:0:0:0:
358,192,41783,1,2,0:0:0:0:
153,192,41783,1,0,0:0:0:0:
256,192,41941,1,0,0:0:0:0:
51,192,42099,1,2,0:0:0:0:
358,192,42257,1,8,0:0:0:0:
460,192,42257,1,0,0:0:0:0:
256,192,42414,1,0,0:0:0:0:
192,192,42572,1,2,0:0:0:0:
51,192,42730,1,2,0:0:0:0:
358,192,42888,1,8,0:0:0:0:
256,192,42888,1,0,0:0:0:0:
153,192,43046,1,2,0:0:0:0:
460,192,43046,1,0,0:0:0:0:
358,192,43204,1,0,0:0:0:0:
256,192,43362,1,2,0:0:0:0:
51,192,43520,1,8,0:0:0:0:
153,192,43520,1,0,0:0:0:0:
256,192,43678,1,0,0:0:0:0:
358,192,43835,1,2,0:0:0:0:
460,192,43993,1,2,0:0:0:0:
153,192,44151,1,8,0:0:0:0:
256,192,44151,1,0,0:0:0:0:
320,192,44309,1,4,0:0:0:0:
51,192,44309,1,2,0:0:0:0:
460,192,44309,1,0,0:0:0:0:
256,192,44625,1,2,0:0:0:0:
358,192,44783,1,8,0:0:0:0:
460,192,44783,1,0,0:0:0:0:
51,192,44941,1,2,0:0:0:0:
256,192,44941,1,4,0:0:0:0:
153,192,44941,1,0,0:0:0:0:
256,192,45257,1,2,0:0:0:0:
51,192,45414,1,8,0:0:0:0:
153,192,45414,1,0,0:0:0:0:
448,192,45572,1,4,0:0:0:0:
256,192,45572,1,2,0:0:0:0:
358,192,45572,1,0,0:0:0:0:
153,192,45888,1,2,0:0:0:0:
51,192,46046,1,8,0:0:0:0:
256,192,46046,1,0,0:0:0:0:
358,192,46204,1,8,0:0:0:0:
460,192,46362,1,2,0:0:0:0:
256,192,46520,1,2,0:0:0:0:
358,192,46678,1,8,0:0:0:0:
153,192,46678,1,0,0:0:0:0:
448,192,46835,1,4,0:0:0:0:
256,192,46835,1,2,0:0:0:0:
51,192,46835,1,0,0:0:0:0:
153,192,47151,1,2,0:0:0:0:
358,192,47309,1,8,0:0:0:0:
256,192,47309,1,0,0:0:0:0:
460,192,47467,1,8,0:0:0:0:
358,192,47625,1,2,0:0:0:0:
256,192,47783,1,2,0:0:0:0:
51,192,47941,1,8,0:0:0:0:
448,192,47941,1,0,0:0:0:0:
153,192,48099,1,4,0:0:0:0:
320,192,48099,1,2,0:0:0:0:
256,192,48099,1,0,0:0:0:0:
51,192,48414,1,2,0:0:0:0:
320,192,48572,1,8,0:0:0:0:
256,192,48572,1,0,0:0:0:0:
460,192,48730,1,2,0:0:0:0:
256,192,48888,1,8,0:0:0:0:
153,192,48888,1,0,0:0:0:0:
51,192,49046,1,2,0:0:0:0:
448,192,49204,1,8,0:0:0:0:
358,192,49204,1,0,0:0:0:0:
192,192,49362,1,4,0:0:0:0:
51,192,49362,1,2,0:0:0:0:
256,192,49362,1,0,0:0:0:0:
448,192,49678,1,8,0:0:0:0:
153,192,49678,1,0,0:0:0:0:
448,192,49835,1,8,0:0:0:0:
153,192,49835,1,0,0:0:0:0:
256,192,49993,1,2,0:0:0:0:
51,192,50151,1,8,0:0:0:0:
460,192,50151,1,0,0:0:0:0:
153,192,50230,1,8,0:0:0:0:
256,192,50309,1,8,0:0:0:0:
358,192,50388,1,8,0:0:0:0:
460,192,50467,1,8,0:0:0:0:
153,192,50625,1,4,0:0:0:0:
256,192,50625,1,2,0:0:0:0:
51,192,50625,1,0,0:0:0:0:
358,192,51257,1,0,0:0:0:0:
256,192,51414,1,8,0:0:0:0:
51,192,51572,1,2,0:0:0:0:
153,192,51651,1,2,0:0:0:0:
320,192,51730,1,4,0:0:0:0:
256,192,51730,1,8,0:0:0:0:
460,192,51730,1,0,0:0:0:0:
64,192,52046,1,2,0:0:0:0:
448,192,52046,1,4,0:0:0:0:
256,192,52046,1,0,0:0:0:0:
192,192,52362,1,8,0:0:0:0:
358,192,52362,1,0,0:0:0:0:
256,192,52678,1,2,0:0:0:0:
153,192,52835,1,2,0:0:0:0:
51,192,52993,1,8,0:0:0:0:
358,192,52993,1,0,0:0:0:0:
256,192,53309,1,2,0:0:0:0:
358,192,53467,1,2,0:0:0:0:
460,192,53625,1,8,0:0:0:0:
153,192,53625,1,0,0:0:0:0:
256,192,53941,1,2,0:0:0:0:
153,192,54099,1,2,0:0:0:0:
51,192,54257,1,8,0:0:0:0:
460,192,54257,1,0,0:0:0:0:
256,192,54414,1,4,0:0:0:0:
153,192,54414,1,2,0:0:0:0:
358,192,54414,1,0,0:0:0:0:
256,192,54730,1,2,0:0:0:0:
192,192,54888,1,8,0:0:0:0:
358,192,54888,1,0,0:0:0:0:
448,192,55204,1,2,0:0:0:0:
358,192,55362,1,2,0:0:0:0:
64,192,55520,1,8,0:0:0:0:
256,192,55520,1,0,0:0:0:0:
358,192,55835,1,2,0:0:0:0:
153,192,55993,1,2,0:0:0:0:
448,192,56151,1,8,0:0:0:0:
256,192,56151,1,0,0:0:0:0:
320,192,56467,1,2,0:0:0:0:
256,192,56625,1,2,0:0:0:0:
448,192,56783,1,8,0:0:0:0:
51,192,56783,1,0,0:0:0:0:
320,192,56941,1,2,0:0:0:0:
153,192,56941,1,4,0:0:0:0:
256,192,56941,1,0,0:0:0:0:
153,192,57257,1,2,0:0:0:0:
51,192,57414,1,8,0:0:0:0:
358,192,57414,1,0,0:0:0:0:
460,192,57730,1,2,0:0:0:0:
358,192,57888,1,2,0:0:0:0:
256,192,58046,1,8,0:0:0:0:
51,192,58046,1,0,0:0:0:0:
358,192,58204,1,2,0:0:0:0:
460,192,58204,1,0,0:0:0:0:
153,192,58204,1,0,0:0:0:0:
256,192,58520,1,2,0:0:0:0:
192,192,58678,1,8,0:0:0:0:
358,192,58678,1,0,0:0:0:0:
51,192,58993,1,2,0:0:0:0:
256,192,58993,1,0,0:0:0:0:
153,192,59151,1,2,0:0:0:0:
448,192,59309,1,8,0:0:0:0:
256,192,59309,1,0,0:0:0:0:
64,192,59467,1,2,0:0:0:0:
153,192,59467,1,0,0:0:0:0:
358,192,59625,1,0,0:0:0:0:
256,192,59783,1,2,0:0:0:0:
51,192,59941,1,8,0:0:0:0:
358,192,59941,1,4,0:0:0:0:
460,192,60099,1,0,0:0:0:0:
256,192,60257,1,2,0:0:0:0:
320,192,60414,1,2,0:0:0:0:
460,192,60572,1,8,0:0:0:0:
153,192,60572,1,4,0:0:0:0:
256,192,60888,1,2,0:0:0:0:
192,192,61046,1,2,0:0:0:0:
51,192,61204,1,8,0:0:0:0:
256,192,61204,1,0,0:0:0:0:
460,192,61362,1,8,0:0:0:0:
358,192,61441,1,8,0:0:0:0:
256,192,61520,1,2,0:0:0:0:
153,192,61520,1,8,0:0:0:0:
51,192,61678,1,8,0:0:0:0:
153,192,61757,1,8,0:0:0:0:
256,192,61835,1,2,0:0:0:0:
358,192,61835,1,8,0:0:0:0:
460,192,61914,1,8,0:0:0:0:
358,192,61993,1,8,0:0:0:0:
256,192,62046,1,8,0:0:0:0:
460,192,62151,1,4,0:0:0:0:
51,192,62151,1,2,0:0:0:0:
358,192,62151,1,0,0:0:0:0:
153,192,62309,1,0,0:0:0:0:
64,192,62467,1,8,0:0:0:0:
320,192,62467,1,4,0:0:0:0:
256,192,62467,1,0,0:0:0:0:
192,192,62783,1,2,0:0:0:0:
448,192,62783,1,0,0:0:0:0:
256,192,62941,1,2,0:0:0:0:
51,192,63099,1,8,0:0:0:0:
460,192,63099,1,0,0:0:0:0:
153,192,63414,1,2,0:0:0:0:
358,192,63414,1,0,0:0:0:0:
256,192,63572,1,2,0:0:0:0:
51,192,63730,1,8,0:0:0:0:
358,192,63730,1,0,0:0:0:0:
460,192,64046,1,2,0:0:0:0:
256,192,64046,1,0,0:0:0:0:
358,192,64204,1,2,0:0:0:0:
64,192,64362,1,8,0:0:0:0:
256,192,64362,1,0,0:0:0:0:
192,192,64520,1,2,0:0:0:0:
448,192,64520,1,4,0:0:0:0:
358,192,64520,1,0,0:0:0:0:
256,192,64835,1,2,0:0:0:0:
192,192,64993,1,8,0:0:0:0:
358,192,64993,1,0,0:0:0:0:
460,192,65309,1,2,0:0:0:0:
358,192,65467,1,2,0:0:0:0:
256,192,65625,1,8,0:0:0:0:
192,192,65625,1,0,0:0:0:0:
460,192,65783,1,2,0:0:0:0:
51,192,65783,1,0,0:0:0:0:
192,192,66099,1,2,0:0:0:0:
64,192,66257,1,8,0:0:0:0:
256,192,66257,1,0,0:0:0:0:
153,192,66572,1,2,0:0:0:0:
256,192,66730,1,2,0:0:0:0:
448,192,66888,1,8,0:0:0:0:
320,192,66888,1,0,0:0:0:0:
192,192,67046,1,4,0:0:0:0:
64,192,67046,1,2,0:0:0:0:
256,192,67046,1,0,0:0:0:0:
320,192,67362,1,2,0:0:0:0:
153,192,67520,1,8,0:0:0:0:
448,192,67520,1,0,0:0:0:0:
51,192,67835,1,2,0:0:0:0:
358,192,67993,1,2,0:0:0:0:
256,192,68151,1,8,0:0:0:0:
153,192,68151,1,0,0:0:0:0:
448,192,68309,1,2,0:0:0:0:
51,192,68309,1,0,0:0:0:0:
256,192,68625,1,2,0:0:0:0:
192,192,68783,1,8,0:0:0:0:
358,192,68783,1,0,0:0:0:0:
448,192,69099,1,2,0:0:0:0:
358,192,69257,1,2,0:0:0:0:
64,192,69414,1,8,0:0:0:0:
256,192,69414,1,0,0:0:0:0:
358,192,69572,1,2,0:0:0:0:
460,192,69572,1,0,0:0:0:0:
256,192,69888,1,2,0:0:0:0:
153,192,70046,1,8,0:0:0:0:
358,192,70046,1,0,0:0:0:0:
460,192,70204,1,0,0:0:0:0:
51,192,70362,1,2,0:0:0:0:
256,192,70520,1,2,0:0:0:0:
192,192,70678,1,8,0:0:0:0:
320,192,70678,1,0,0:0:0:0:
448,192,70835,1,2,0:0:0:0:
51,192,70835,1,0,0:0:0:0:
192,192,71151,1,2,0:0:0:0:
64,192,71309,1,4,0:0:0:0:
460,192,71309,1,8,0:0:0:0:
256,192,71309,1,0,0:0:0:0:
358,192,71467,1,2,0:0:0:0:
51,192,71625,1,2,0:0:0:0:
153,192,71862,1,8,0:0:0:0:
256,192,71941,1,8,0:0:0:0:
460,192,72020,1,8,0:0:0:0:
358,192,72099,1,8,0:0:0:0:
256,192,72151,1,8,0:0:0:0:
51,192,72257,1,2,0:0:0:0:
460,192,72257,1,4,0:0:0:0:
153,192,72257,1,0,0:0:0:0:
153,192,72414,1,2,0:0:0:0:
460,192,72414,1,0,0:0:0:0:
256,192,72572,1,8,0:0:0:0:
358,192,72572,1,0,0:0:0:0:
460,192,72730,1,2,0:0:0:0:
51,192,72730,1,0,0:0:0:0:
153,192,72730,1,0,0:0:0:0:
256,192,73046,1,2,0:0:0:0:
192,192,73204,1,8,0:0:0:0:
320,192,73204,1,0,0:0:0:0:
51,192,73362,1,2,0:0:0:0:
256,192,73362,1,4,0:0:0:0:
460,192,73362,1,0,0:0:0:0:
358,192,73678,1,2,0:0:0:0:
448,192,73835,1,8,0:0:0:0:
256,192,73835,1,4,0:0:0:0:
153,192,73993,1,2,0:0:0:0:
51,192,74151,1,8,0:0:0:0:
256,192,74151,1,0,0:0:0:0:
358,192,74309,1,2,0:0:0:0:
192,192,74467,1,8,0:0:0:0:
448,192,74467,1,0,0:0:0:0:
358,192,74783,1,4,0:0:0:0:
51,192,74783,1,2,0:0:0:0:
256,192,74783,1,0,0:0:0:0:
153,192,74941,1,2,0:0:0:0:
460,192,74941,1,0,0:0:0:0:
256,192,75099,1,8,0:0:0:0:
358,192,75099,1,0,0:0:0:0:
51,192,75257,1,6,0:0:0:0:
460,192,75257,1,4,0:0:0:0:
153,192,75572,1,2,0:0:0:0:
256,192,75730,1,8,0:0:0:0:
358,192,75730,1,0,0:0:0:0:
448,192,75888,1,4,0:0:0:0:
51,192,75888,1,2,0:0:0:0:
153,192,75888,1,0,0:0:0:0:
358,192,76046,1,0,0:0:0:0:
153,192,76204,1,2,0:0:0:0:
64,192,76362,1,8,0:0:0:0:
256,192,76362,1,0,0:0:0:0:
460,192,76520,1,0,0:0:0:0:
358,192,76678,1,2,0:0:0:0:
51,192,76835,1,8,0:0:0:0:
153,192,76914,1,8,0:0:0:0:
256,192,76993,1,8,0:0:0:0:
358,192,77072,1,0,0:0:0:0:
460,192,77151,1,0,0:0:0:0:
358,192,77309,1,4,0:0:0:0:
51,192,77309,1,2,0:0:0:0:
153,192,77309,1,0,0:0:0:0:
358,192,77467,1,2,0:0:0:0:
153,192,77467,1,0,0:0:0:0:
256,192,77625,1,8,0:0:0:0:
460,192,77625,1,0,0:0:0:0:
64,192,77783,1,2,0:0:0:0:
192,192,77783,1,0,0:0:0:0:
358,192,77783,1,0,0:0:0:0:
256,192,78099,1,2,0:0:0:0:
460,192,78099,1,0,0:0:0:0:
358,192,78257,1,8,0:0:0:0:
153,192,78257,1,0,0:0:0:0:
448,192,78414,1,4,0:0:0:0:
51,192,78414,1,2,0:0:0:0:
256,192,78414,1,0,0:0:0:0:
153,192,78730,1,2,0:0:0:0:
64,192,78888,1,8,0:0:0:0:
256,192,78888,1,0,0:0:0:0:
320,192,79046,1,2,0:0:0:0:
448,192,79204,1,8,0:0:0:0:
256,192,79204,1,0,0:0:0:0:
192,192,79362,1,2,0:0:0:0:
64,192,79520,1,8,0:0:0:0:
256,192,79520,1,0,0:0:0:0:
358,192,79678,1,8,0:0:0:0:
256,192,79835,1,4,0:0:0:0:
153,192,79835,1,2,0:0:0:0:
460,192,79835,1,0,0:0:0:0:
358,192,79993,1,2,0:0:0:0:
256,192,80151,1,8,0:0:0:0:
51,192,80151,1,0,0:0:0:0:
192,192,80309,1,2,0:0:0:0:
358,192,80309,1,4,0:0:0:0:
460,192,80309,1,0,0:0:0:0:
256,192,80625,1,2,0:0:0:0:
358,192,80783,1,8,0:0:0:0:
153,192,80783,1,0,0:0:0:0:
256,192,80941,1,4,0:0:0:0:
51,192,80941,1,2,0:0:0:0:
460,192,80941,1,0,0:0:0:0:
358,192,81257,1,8,0:0:0:0:
153,192,81414,1,8,0:0:0:0:
358,192,81572,1,8,0:0:0:0:
460,192,81572,1,0,0:0:0:0:
153,192,81730,1,2,0:0:0:0:
51,192,81730,1,8,0:0:0:0:
358,192,81888,1,8,0:0:0:0:
460,192,81888,1,0,0:0:0:0:
153,192,82046,1,8,0:0:0:0:
51,192,82046,1,0,0:0:0:0:
358,192,82204,1,8,0:0:0:0:
153,192,82204,1,0,0:0:0:0:
51,192,82362,128,2,82520:0:0:0:0:
256,192,82362,128,4,82678:0:0:0:0:
460,192,82362,128,0,82835:0:0:0:0:
64,192,83625,1,2,0:0:0:0:
448,192,83625,1,4,0:0:0:0:
358,192,83625,1,0,0:0:0:0:
256,192,83783,1,2,0:0:0:0:
192,192,83941,1,8,0:0:0:0:
358,192,83941,1,0,0:0:0:0:
51,192,84099,1,0,0:0:0:0:
192,192,84178,1,2,0:0:0:0:
256,192,84257,1,2,0:0:0:0:
460,192,84257,1,0,0:0:0:0:
358,192,84414,1,2,0:0:0:0:
51,192,84572,1,8,0:0:0:0:
256,192,84572,1,0,0:0:0:0:
358,192,84730,1,0,0:0:0:0:
192,192,84888,1,2,0:0:0:0:
460,192,84888,1,0,0:0:0:0:
64,192,85046,1,2,0:0:0:0:
320,192,85046,1,0,0:0:0:0:
192,192,85204,1,8,0:0:0:0:
448,192,85204,1,0,0:0:0:0:
64,192,85362,1,0,0:0:0:0:
256,192,85362,1,0,0:0:0:0:
460,192,85520,1,2,0:0:0:0:
256,192,85678,1,8,0:0:0:0:
358,192,85678,1,0,0:0:0:0:
448,192,85835,1,8,0:0:0:0:
153,192,85835,1,0,0:0:0:0:
64,192,85993,1,8,0:0:0:0:
358,192,85993,1,0,0:0:0:0:
192,192,86151,1,2,0:0:0:0:
448,192,86151,1,4,0:0:0:0:
256,192,86151,1,0,0:0:0:0:
358,192,86309,1,2,0:0:0:0:
64,192,86467,1,8,0:0:0:0:
256,192,86467,1,0,0:0:0:0:
153,192,86625,1,0,0:0:0:0:
256,192,86704,1,2,0:0:0:0:
460,192,86783,1,2,0:0:0:0:
51,192,86783,1,0,0:0:0:0:
320,192,86941,1,2,0:0:0:0:
153,192,87099,1,8,0:0:0:0:
256,192,87099,1,0,0:0:0:0:
358,192,87257,1,2,0:0:0:0:
460,192,87257,1,4,0:0:0:0:
51,192,87257,1,0,0:0:0:0:
153,192,87572,1,2,0:0:0:0:
358,192,87572,1,0,0:0:0:0:
460,192,87730,1,8,0:0:0:0:
256,192,87730,1,0,0:0:0:0:
358,192,87888,1,2,0:0:0:0:
153,192,87888,1,4,0:0:0:0:
51,192,87888,1,0,0:0:0:0:
51,192,88204,1,8,0:0:0:0:
460,192,88204,1,0,0:0:0:0:
358,192,88362,1,8,0:0:0:0:
153,192,88362,1,0,0:0:0:0:
460,192,88520,128,2,89309:0:0:0:0:
256,192,88520,128,4,89151:0:0:0:0:
51,192,88520,128,0,88993:0:0:0:0:
