osu file format v14

[General]
AudioFilename: Rally Go Round.mp3
AudioLeadIn: 500
PreviewTime: 52106
Countdown: 0
SampleSet: Soft
StackLeniency: 0.7
Mode: 0
LetterboxInBreaks: 0
WidescreenStoryboard: 0

[Editor]
Bookmarks: 18931,30142,71826
DistanceSpacing: 1.8
BeatDivisor: 4
GridSize: 4
TimelineZoom: 1.1

[Metadata]
Title:Rally Go Round -TV ver.-
TitleUnicode:Rally Go Round -TV ver.-
Artist:LiSA
ArtistUnicode:LiSA
Creator:Kawaiwkyik
Version:Light Insane
Source:Nisekoi:
Tags:ニセコイ: opening season 2 fake love じん Jin KantoKun
BeatmapID:677687
BeatmapSetID:301001

[Difficulty]
HPDrainRate:6
CircleSize:4
OverallDifficulty:7
ApproachRate:8.5
SliderMultiplier:1.7
SliderTickRate:1

[Events]
//Background and Video events
0,0,"bg.jpg",0,0
Video,967,"video.avi"
//Break Periods
//Storyboard Layer 0 (Background)
//Storyboard Layer 1 (Fail)
//Storyboard Layer 2 (Pass)
//Storyboard Layer 3 (Foreground)
//Storyboard Sound Samples

[TimingPoints]
1264,315.789473684211,4,2,1,40,1,0
1579,-166.666666666667,4,3,1,30,0,0
3000,-100,4,2,1,60,0,0
4106,-166.666666666667,4,3,1,30,0,0
5053,-133.333333333333,4,2,1,60,0,0
5685,-133.333333333333,4,2,1,60,0,0
6316,-111.111111111111,4,2,1,60,0,0
8842,-100,4,2,1,60,0,0
9316,-111.111111111111,4,2,1,60,0,0
9948,-100,4,2,1,60,0,0
11685,-133.333333333333,4,2,1,40,0,0
21316,-100,4,2,1,60,0,0
31579,-133.333333333333,4,2,1,60,0,0
33948,-100,4,2,1,60,0,0
36474,-133.333333333333,4,2,1,60,0,0
39000,-100,4,2,1,60,0,0
53053,-100,4,2,1,70,0,1
82264,-100,4,2,1,50,0,1
82737,-100,4,2,1,60,0,1
83053,-100,4,2,1,70,0,1
83369,-100,4,2,1,70,0,0
84632,-100,4,2,1,60,0,0

[Colours]
Combo1 : 0,128,255
Combo2 : 255,244,119
Combo3 : 255,128,0
Combo4 : 128,64,64

[HitObjects]
104,120,1264,5,8,0:0:0:0:
104,120,1421,1,8,0:0:0:0:
100,212,1579,2,0,P|125:211|148:201,1,50.9999984436036,0|0,0:0|0:0,0:0:0:0:
195,124,1895,2,0,P|239:98|290:96,1,101.999996887207,0|0,0:0|0:0,0:0:0:0:
376,132,2369,1,0,0:0:0:0:
448,72,2527,2,0,L|440:8,1,50.9999984436036,0|0,0:0|0:0,0:0:0:0:
376,132,2842,1,0,0:0:0:0:
464,164,3000,6,0,L|485:332,1,170,8|0,0:0|0:0,0:0:0:0:
312,368,3474,1,0,0:0:0:0:
392,320,3632,1,0,0:0:0:0:
312,272,3790,5,8,0:0:0:0:
312,272,3948,1,8,0:0:0:0:
232,316,4106,2,0,P|200:324|176:324,1,50.9999984436036,0|0,0:0|0:0,0:0:0:0:
64,368,4421,2,0,P|40:340|44:268,1,101.999996887207,0|0,0:0|0:0,0:0:0:0:
84,200,4895,1,0,0:0:0:0:
168,232,5053,6,0,L|300:220,2,127.500004863739,0|0|8,3:0|3:0|3:0,0:0:0:0:
160,80,5842,1,0,0:0:0:0:
160,80,5921,1,0,0:0:0:0:
160,80,6000,2,0,L|152:172,1,63.7500024318696,8|0,0:0|0:0,0:0:0:0:
240,180,6316,5,4,0:0:0:0:
316,136,6474,2,0,P|349:173|398:201,1,76.4999976654054,0|8,0:0|0:0,0:0:0:0:
420,32,6790,1,0,0:0:0:0:
420,32,6869,1,0,0:0:0:0:
420,32,6948,2,0,P|404:80|404:136,1,76.4999976654054
463,252,7264,2,0,P|477:216|482:178,1,76.4999976654054,8|0,0:0|0:0,0:0:0:0:
304,288,7579,5,0,0:0:0:0:
392,312,7737,1,0,0:0:0:0:
372,224,7895,1,8,0:0:0:0:
240,348,8053,1,0,0:0:0:0:
240,348,8132,1,0,0:0:0:0:
240,348,8211,2,0,P|184:328|140:328,1,76.4999976654054,0|0,0:0|0:0,0:0:0:0:
72,352,8527,1,8,0:0:0:0:
28,240,8685,1,0,0:0:0:0:
152,184,8842,6,0,P|148:136|140:100,1,85,4|0,0:0|0:0,0:0:0:0:
56,156,9158,1,8,0:0:0:0:
128,284,9316,1,0,0:0:0:0:
128,284,9395,1,0,0:0:0:0:
128,284,9474,2,0,L|240:268,1,76.4999976654054,0|0,0:0|0:0,0:0:0:0:
348,288,9790,1,8,0:0:0:0:
220,260,9948,6,0,P|188:224|232:120,1,170,4|0,0:0|0:0,0:0:0:0:
419,164,10421,1,8,0:0:0:0:
419,164,10579,2,0,P|347:205|264:196,1,170,4|8,0:0|0:0,0:0:0:0:
228,172,10974,1,0,0:0:0:0:
208,136,11053,2,0,L|216:72,2,42.5,8|0|4,0:0|0:0|0:0,0:0:0:0:
72,272,11685,6,0,P|116:264|156:264,1,63.7500024318696,0|0,0:0|0:0,0:0:0:0:
196,336,12000,2,0,L|280:320,1,63.7500024318696,0|0,0:0|0:0,0:0:0:0:
348,360,12316,1,0,0:0:0:0:
348,360,12474,1,0,0:0:0:0:
436,320,12632,2,0,L|424:248,1,63.7500024318696,0|0,0:0|0:0,0:0:0:0:
340,212,12948,2,0,L|352:140,1,63.7500024318696,0|0,0:0|0:0,0:0:0:0:
436,100,13264,1,0,0:0:0:0:
392,32,13421,2,0,P|428:20|468:28,1,63.7500024318696,0|0,0:0|0:0,0:0:0:0:
352,104,13737,6,0,P|312:112|224:56,1,127.500004863739,8|0,0:0|0:0,0:0:0:0:
84,56,14211,1,0,0:0:0:0:
156,96,14369,1,0,0:0:0:0:
108,164,14527,2,0,P|88:212|92:296,1,127.500004863739,0|0,0:0|0:0,0:0:0:0:
148,348,15000,2,0,L|292:336,1,127.500004863739,0|0,0:0|0:0,0:0:0:0:
428,299,15474,2,0,P|378:261|316:264,1,127.500004863739,0|0,0:0|0:0,0:0:0:0:
197,231,15948,6,0,P|227:222|256:208,1,63.7500024318696,8|0,0:0|0:0,0:0:0:0:
408,180,16264,2,0,P|377:170|349:156,1,63.7500024318696,8|0,0:0|0:0,0:0:0:0:
268,112,16579,1,0,0:0:0:0:
196,72,16737,2,0,P|188:116|196:160,1,63.7500024318696,0|0,0:0|0:0,0:0:0:0:
196,232,17053,2,0,P|152:216|56:220,1,127.500004863739,0|0,0:0|0:0,0:0:0:0:
36,296,17527,1,0,0:0:0:0:
100,356,17685,2,0,P|144:372|240:368,2,127.500004863739,0|0|0,0:0|0:0|0:0,0:0:0:0:
36,296,18474,1,0,0:0:0:0:
140,248,18632,1,0,0:0:0:0:
44,184,18790,6,0,P|36:144|40:48,1,127.500004863739,8|8,0:0|0:0,0:0:0:0:
144,8,19264,2,0,P|153:70|149:134,1,127.500004863739,8|8,0:0|0:0,0:0:0:0:
140,248,19737,1,0,0:0:0:0:
140,248,19816,1,0,0:0:0:0:
140,248,19895,2,0,L|196:240,2,31.8750012159348,0|8|4,0:0|0:0|0:0,0:0:0:0:
140,248,21000,1,8,0:0:0:0:
256,328,21158,1,8,0:0:0:0:
372,248,21316,6,0,P|392:192|352:92,1,170,4|0,0:0|0:0,0:0:0:0:
260,136,21790,2,0,P|216:136|168:108,1,85,8|0,0:0|0:0,0:0:0:0:
88,72,22106,2,0,L|96:164,1,85,0|0,0:0|0:0,0:0:0:0:
60,332,22421,1,8,0:0:0:0:
156,296,22579,1,0,0:0:0:0:
72,224,22737,5,0,0:0:0:0:
244,344,22895,2,0,L|328:332,2,85,0|8|0,0:0|0:0|0:0,0:0:0:0:
184,184,23369,1,0,0:0:0:0:
328,240,23527,1,0,0:0:0:0:
156,296,23685,1,8,0:0:0:0:
280,160,23842,6,0,P|320:144|420:208,1,170,0|0,0:0|0:0,0:0:0:0:
368,336,24316,2,0,P|353:296|354:254,1,85,8|0,0:0|0:0,0:0:0:0:
488,152,24632,2,0,P|502:191|501:233,1,85,0|0,0:0|0:0,0:0:0:0:
448,312,24948,1,8,0:0:0:0:
288,288,25106,6,0,P|256:276|136:344,1,170,0|0,0:0|0:0,0:0:0:0:
236,372,25579,1,8,0:0:0:0:
48,304,25737,2,0,L|72:120,1,170,0|0,0:0|0:0,0:0:0:0:
180,68,26211,1,8,0:0:0:0:
180,68,26369,1,4,0:0:0:0:
240,160,26527,6,0,P|200:176|144:172,1,85,0|0,0:0|0:0,0:0:0:0:
272,284,26842,2,0,P|320:264|444:268,1,170,8|0,0:0|0:0,0:0:0:0:
408,96,27316,1,0,0:0:0:0:
408,96,27395,1,0,0:0:0:0:
408,96,27474,2,0,L|400:196,1,85,8|0,0:0|0:0,0:0:0:0:
360,264,27790,5,0,0:0:0:0:
240,160,27948,1,0,0:0:0:0:
324,124,28106,2,0,L|312:316,2,170,8|0|8,0:0|0:0|0:0,0:0:0:0:
200,72,28895,6,0,B|156:60|156:60|92:96|28:64,1,170,0|0,0:0|0:0,0:0:0:0:
156,228,29369,2,0,P|168:184|156:136,1,85,8|0,0:0|0:0,0:0:0:0:
72,288,29685,2,0,P|108:320|224:304,1,170,0|8,0:0|0:0,0:0:0:0:
240,168,30158,2,0,P|204:136|88:152,1,170,0|0,0:0|0:0,0:0:0:0:
156,228,30632,5,8,0:0:0:0:
316,196,30790,1,8,0:0:0:0:
260,300,30948,1,0,0:0:0:0:
204,152,31106,2,0,L|192:96,2,42.5,0|0|8,0:0|0:0|0:0,0:0:0:0:
400,228,31421,1,0,0:0:0:0:
400,228,31500,1,0,0:0:0:0:
400,228,31579,6,0,P|392:296|388:372,1,127.500004863739,4|0,0:0|0:0,0:0:0:0:
316,196,32053,1,0,0:0:0:0:
316,196,32132,1,0,0:0:0:0:
316,196,32211,2,0,P|324:128|328:52,1,127.500004863739,4|0,0:0|0:0,0:0:0:0:
212,120,32685,6,0,P|160:128|84:64,1,127.500004863739,0|8,0:0|0:0,0:0:0:0:
20,200,33158,2,0,L|96:188,1,63.7500024318696,0|0,0:0|0:0,0:0:0:0:
172,304,33474,2,0,P|176:260|168:228,1,63.7500024318696,8|0,0:0|0:0,0:0:0:0:
88,268,33790,1,8,0:0:0:0:
256,356,33948,6,0,L|432:336,1,170,4|0,0:0|0:0,0:0:0:0:
476,228,34421,1,8,0:0:0:0:
476,228,34579,1,8,0:0:0:0:
376,164,34737,2,0,P|360:212|360:260,1,85,0|0,0:0|0:0,0:0:0:0:
476,228,35053,1,8,0:0:0:0:
496,112,35211,6,0,P|464:72|320:44,1,170,0|0,0:0|0:0,0:0:0:0:
268,120,35685,1,8,0:0:0:0:
268,120,35842,1,8,0:0:0:0:
188,168,36000,1,0,0:0:0:0:
356,164,36158,1,0,0:0:0:0:
268,28,36316,1,8,0:0:0:0:
272,220,36474,6,0,P|232:252|132:248,1,127.500004863739,4|0,0:0|0:0,0:0:0:0:
16,208,36948,2,0,L|80:196,1,63.7500024318696,0|0,0:0|0:0,0:0:0:0:
78,196,37185,1,0,0:0:0:0:
78,196,37264,2,0,P|67:251|63:347,1,127.500004863739,12|0,0:0|0:0,0:0:0:0:
188,268,37737,6,0,P|184:204|172:141,1,127.500004863739,0|8,0:0|0:0,0:0:0:0:
20,100,38211,2,0,P|56:104|92:96,1,63.7500024318696,8|0,0:0|0:0,0:0:0:0:
176,32,38527,2,0,P|207:38|235:52,1,63.7500024318696,8|0,0:0|0:0,0:0:0:0:
304,152,38842,1,8,0:0:0:0:
304,152,39000,6,0,P|348:172|448:92,1,170,4|0,0:0|0:0,0:0:0:0:
356,76,39474,1,8,0:0:0:0:
320,244,39632,1,0,0:0:0:0:
420,308,39790,2,0,L|512:300,1,85,0|0,0:0|0:0,0:0:0:0:
452,200,40106,1,8,0:0:0:0:
316,328,40264,6,0,P|264:308|248:196,1,170,4|0,0:0|0:0,0:0:0:0:
356,76,40737,1,8,0:0:0:0:
320,244,40895,1,0,0:0:0:0:
452,200,41053,1,0,0:0:0:0:
352,152,41211,1,0,0:0:0:0:
356,264,41369,1,0,0:0:0:0:
464,184,41527,6,0,L|440:8,1,170,4|0,0:0|0:0,0:0:0:0:
288,112,42000,2,0,P|240:128|144:68,1,170,8|0,0:0|0:0,0:0:0:0:
52,132,42474,2,0,P|68:188|68:240,1,85,0|8,0:0|0:0,0:0:0:0:
32,320,42790,6,0,P|88:304|208:304,1,170,0|0,0:0|0:0,0:0:0:0:
304,344,43264,1,8,0:0:0:0:
408,308,43421,2,0,L|420:208,1,85,0|0,0:0|0:0,0:0:0:0:
328,156,43737,1,0,0:0:0:0:
428,112,43895,1,8,0:0:0:0:
316,256,44053,6,0,P|256:276|160:204,1,170,0|0,0:0|0:0,0:0:0:0:
76,164,44527,2,0,P|60:224|68:268,1,85,8|0,0:0|0:0,0:0:0:0:
256,180,44842,1,0,0:0:0:0:
112,84,45000,1,0,0:0:0:0:
148,224,45158,1,8,0:0:0:0:
292,148,45316,6,0,L|108:128,1,170,4|0,0:0|0:0,0:0:0:0:
32,232,45790,1,8,0:0:0:0:
92,304,45948,2,0,P|140:320|244:252,1,170,4|0,0:0|0:0,0:0:0:0:
336,172,46421,1,8,0:0:0:0:
276,64,46579,6,0,P|232:84|228:208,1,170,4|0,0:0|0:0,0:0:0:0:
308,256,47053,2,0,L|396:244,1,85,8|0,0:0|0:0,0:0:0:0:
476,316,47369,1,0,0:0:0:0:
408,228,47527,1,0,0:0:0:0:
464,132,47685,1,8,0:0:0:0:
492,300,47842,6,0,L|308:280,1,170,4|0,0:0|0:0,0:0:0:0:
204,200,48316,1,8,0:0:0:0:
108,236,48474,1,0,0:0:0:0:
76,140,48632,1,0,0:0:0:0:
232,192,48790,2,0,L|224:292,1,85,0|8,0:0|0:0,0:0:0:0:
92,336,49106,6,0,P|80:248|60:152,1,170,4|0,0:0|0:0,0:0:0:0:
180,48,49579,2,0,L|164:160,1,85,8|0,0:0|0:0,0:0:0:0:
264,352,49895,2,0,L|251:267,1,85,8|0,0:0|0:0,0:0:0:0:
336,112,50211,1,8,0:0:0:0:
424,252,50369,6,0,P|388:288|268:276,1,170,4|8,0:0|0:0,0:0:0:0:
92,248,50842,2,0,L|204:232,1,85,8|0,0:0|0:0,0:0:0:0:
336,208,51158,1,8,0:0:0:0:
180,152,51316,1,8,0:0:0:0:
180,152,51395,1,8,0:0:0:0:
180,152,51474,1,8,0:0:0:0:
256,48,51632,1,4,0:0:0:0:
320,320,52421,5,0,0:0:0:0:
240,256,52579,1,0,0:0:0:0:
240,256,52658,1,0,0:0:0:0:
240,256,52737,2,0,P|220:304|220:336,1,85,8|0,0:0|0:0,0:0:0:0:
368,212,53053,6,0,L|180:188,1,170,4|8,0:0|0:0,0:0:0:0:
56,240,53527,1,0,0:0:0:0:
132,292,53685,2,0,L|120:380,1,85,0|0,0:0|0:0,0:0:0:0:
52,224,54000,2,0,L|40:139,1,85,8|0,0:0|0:0,0:0:0:0:
188,48,54316,5,0,0:0:0:0:
228,164,54474,1,0,0:0:0:0:
200,40,54632,2,0,P|244:36|296:36,1,85,8|0,0:0|0:0,0:0:0:0:
216,172,54948,2,0,P|172:176|120:176,1,85,0|0,0:0|0:0,0:0:0:0:
324,124,55264,1,8,0:0:0:0:
416,212,55421,6,0,P|412:272|376:380,1,170,4|0,0:0|0:0,0:0:0:0:
160,320,55895,2,0,P|188:288|312:304,1,170,8|0,0:0|0:0,0:0:0:0:
68,372,56369,1,0,0:0:0:0:
8,280,56527,1,8,0:0:0:0:
100,216,56685,6,0,P|93:173|88:112,1,85,0|0,0:0|0:0,0:0:0:0:
236,64,57000,2,0,P|231:106|225:148,1,85,0|8,0:0|0:0,0:0:0:0:
96,96,57316,1,0,0:0:0:0:
172,240,57474,2,0,P|228:256|328:184,1,170,0|8,0:0|0:0,0:0:0:0:
448,312,57948,6,0,L|252:284,1,170,4|0,0:0|0:0,0:0:0:0:
192,344,58421,1,8,0:0:0:0:
80,192,58579,2,0,P|145:141|227:154,1,170,0|0,0:0|0:0,0:0:0:0:
392,192,59053,1,8,0:0:0:0:
248,148,59211,6,0,P|240:204|240:256,2,85,4|0|0,0:0|0:0|0:0,0:0:0:0:
300,60,59685,1,8,0:0:0:0:
485,68,59842,2,0,P|443:65|404:79,1,85,0|0,0:0|0:0,0:0:0:0:
329,158,60158,2,0,P|286:162|247:147,1,85,0|8,0:0|0:0,0:0:0:0:
188,64,60474,1,4,0:0:0:0:
88,176,60632,6,0,L|108:364,1,170,0|8,0:0|0:0,0:0:0:0:
276,224,61106,1,0,0:0:0:0:
292,324,61264,1,0,0:0:0:0:
196,292,61421,1,0,0:0:0:0:
372,256,61579,2,0,L|360:152,1,85,8|0,0:0|0:0,0:0:0:0:
272,120,61895,6,0,P|316:80|428:88,1,170,4|8,0:0|0:0,0:0:0:0:
276,224,62369,1,0,0:0:0:0:
276,224,62448,1,8,0:0:0:0:
276,224,62527,2,0,L|180:208,1,85,0|0,0:0|0:0,0:0:0:0:
168,188,62764,1,0,0:0:0:0:
136,176,62842,2,0,L|88:168,1,42.5,8|0,0:0|0:0,0:0:0:0:
0,140,63000,2,0,L|8:188,1,42.5,8|8,0:0|0:0,0:0:0:0:
44,256,63158,6,0,L|56:344,1,85,4|0,0:0|0:0,0:0:0:0:
168,188,63474,2,0,L|179:103,1,85,8|0,0:0|0:0,0:0:0:0:
20,72,63790,1,0,0:0:0:0:
92,132,63948,1,0,0:0:0:0:
216,72,64106,2,0,L|308:60,1,85,8|0,0:0|0:0,0:0:0:0:
448,156,64421,5,0,0:0:0:0:
356,136,64579,1,0,0:0:0:0:
284,196,64737,2,0,L|296:296,1,85,8|0,0:0|0:0,0:0:0:0:
400,352,65053,2,0,P|412:296|428:252,1,85,0|0,0:0|0:0,0:0:0:0:
500,336,65369,1,8,0:0:0:0:
312,320,65527,6,0,P|252:344|160:272,1,170,4|0,0:0|0:0,0:0:0:0:
84,216,66000,1,8,0:0:0:0:
156,116,66158,1,0,0:0:0:0:
252,256,66316,1,0,0:0:0:0:
96,188,66474,2,0,L|80:100,1,85,0|8,0:0|0:0,0:0:0:0:
248,132,66790,6,0,B|308:116|308:116|356:128|356:128|432:104,1,170,4|0,0:0|0:0,0:0:0:0:
468,196,67264,2,0,L|456:296,1,85,8|0,0:0|0:0,0:0:0:0:
252,256,67579,1,0,0:0:0:0:
364,216,67737,1,0,0:0:0:0:
408,356,67895,1,8,0:0:0:0:
240,236,68053,6,0,P|248:180|280:56,1,170,4|0,0:0|0:0,0:0:0:0:
296,332,68527,2,0,P|252:348|212:344,1,85,8|0,0:0|0:0,0:0:0:0:
144,268,68842,6,0,P|100:252|8:320,1,170,0|8,0:0|0:0,0:0:0:0:
168,188,69316,2,0,L|148:16,1,170,4|0,0:0|0:0,0:0:0:0:
80,152,69790,1,8,0:0:0:0:
228,248,69948,2,0,P|272:264|364:196,1,170,0|0,0:0|0:0,0:0:0:0:
340,64,70421,1,8,0:0:0:0:
276,176,70579,1,4,0:0:0:0:
452,224,70737,6,0,P|445:182|436:140,1,85,0|0,0:0|0:0,0:0:0:0:
328,264,71053,2,0,P|319:305|312:347,1,85,8|0,0:0|0:0,0:0:0:0:
512,344,71369,2,0,P|470:335|428:328,1,85,0|0,0:0|0:0,0:0:0:0:
304,364,71685,1,8,0:0:0:0:
432,308,71842,6,0,P|424:252|392:144,1,170,0|0,0:0|0:0,0:0:0:0:
276,40,72316,2,0,P|236:92|244:188,1,127.5,12|0,0:0|0:0,0:0:0:0:
244,188,72632,1,0,0:0:0:0:
116,136,72790,1,0,0:0:0:0:
116,136,72869,1,8,0:0:0:0:
116,136,72948,2,0,L|104:192,3,42.5,8|8|8|8,0:0|0:0|0:0|0:0,0:0:0:0:
68,212,73264,6,0,P|80:260|80:312,1,85,4|0,0:0|0:0,0:0:0:0:
160,344,73579,1,8,0:0:0:0:
236,292,73737,2,0,P|292:308|416:328,1,170,0|0,0:0|0:0,0:0:0:0:
488,268,74211,1,8,0:0:0:0:
492,164,74369,6,0,P|408:176|325:198,1,170,4|0,0:0|0:0,0:0:0:0:
166,170,74842,2,0,P|154:129|160:88,1,85,8|0,0:0|0:0,0:0:0:0:
352,88,75158,2,0,P|357:129|345:170,1,85,8|0,0:0|0:0,0:0:0:0:
256,36,75474,1,8,0:0:0:0:
256,36,75790,6,0,B|240:88|240:88|268:148|268:148|255:195,1,170,4|8,0:0|0:0,0:0:0:0:
188,272,76264,2,0,P|140:288|100:288,1,85,4|0,0:0|0:0,0:0:0:0:
323,271,76579,2,0,P|363:286|406:288,1,85,0|8,0:0|0:0,0:0:0:0:
255,365,76895,6,0,L|255:173,1,170,4|0,0:0|0:0,0:0:0:0:
168,144,77369,2,0,L|156:48,1,85,8|0,0:0|0:0,0:0:0:0:
256,24,77685,1,0,0:0:0:0:
354,59,77842,1,0,0:0:0:0:
351,80,77920,1,0,0:0:0:0:
349,101,77999,1,8,0:0:0:0:
346,122,78078,1,0,0:0:0:0:
344,144,78157,1,0,0:0:0:0:
256,196,78316,5,4,0:0:0:0:
148,124,78474,1,0,0:0:0:0:
140,252,78632,1,8,0:0:0:0:
372,252,78790,2,0,L|384:352,1,85,4|0,0:0|0:0,0:0:0:0:
129,336,79106,2,0,L|140:252,1,85,0|8,0:0|0:0,0:0:0:0:
256,112,79421,6,0,L|256:308,1,170,4|0,0:0|0:0,0:0:0:0:
76,192,79895,1,8,0:0:0:0:
156,112,80053,1,0,0:0:0:0:
36,3,80211,2,0,P|40:46|48:87,1,85,8|0,0:0|0:0,0:0:0:0:
168,296,80527,2,0,P|175:254|179:211,1,85,8|0,0:0|0:0,0:0:0:0:
156,112,80842,5,4,0:0:0:0:
76,192,81000,1,0,0:0:0:0:
252,260,81158,1,8,0:0:0:0:
252,260,81316,2,0,L|436:244,1,170,4|0,0:0|0:0,0:0:0:0:
512,196,81790,1,8,0:0:0:0:
396,276,81948,6,0,P|368:236|392:116,1,170,4|8,0:0|0:0,0:0:0:0:
296,60,82421,2,0,L|196:72,1,85,8|8,0:0|0:0,0:0:0:0:
76,192,82737,2,0,L|176:180,1,85,8|8,0:0|0:0,0:0:0:0:
252,260,83053,1,8,0:0:0:0:
132,104,83211,1,0,0:0:0:0:
132,104,83290,1,0,0:0:0:0:
132,104,83369,1,6,0:0:0:0:
132,104,84632,6,0,P|188:128|328:140,1,170,4|8,0:0|0:0,0:0:0:0:
328,36,85106,1,0,0:0:0:0:
328,36,85185,1,0,0:0:0:0:
328,36,85264,2,0,P|276:44|220:60,1,85,0|0,0:0|0:0,0:0:0:0:
180,140,85579,2,0,P|232:148|288:164,1,85,8|0,0:0|0:0,0:0:0:0:
376,316,85895,5,0,0:0:0:0:
364,204,86053,1,0,0:0:0:0:
276,272,86211,1,8,0:0:0:0:
408,340,86369,2,0,P|344:324|220:304,1,170,0|0,0:0|0:0,0:0:0:0:
140,348,86842,2,0,P|132:296|116:248,1,85,8|0,0:0|0:0,0:0:0:0:
20,224,87158,5,4,0:0:0:0:
40,116,87316,1,0,0:0:0:0:
148,140,87474,1,8,0:0:0:0:
256,168,87632,1,0,0:0:0:0:
256,168,87711,1,0,0:0:0:0:
256,168,87790,2,0,L|352:156,1,85,0|0,0:0|0:0,0:0:0:0:
436,196,88106,1,8,0:0:0:0:
204,236,88264,6,0,P|176:192|228:92,1,170,4|0,0:0|0:0,0:0:0:0:
300,252,88737,1,8,0:0:0:0:
208,344,88895,2,0,L|32:320,1,170,4|8,0:0|0:0,0:0:0:0:
256,168,89369,1,8,0:0:0:0:
304,356,89527,1,4,0:0:0:0:
