osu file format v14

[General]
AudioFilename: Rally Go Round.mp3
AudioLeadIn: 2000
PreviewTime: 53053
Countdown: 0
SampleSet: Soft
StackLeniency: 0.7
Mode: 0
LetterboxInBreaks: 0
WidescreenStoryboard: 0

[Editor]
DistanceSpacing: 0.8
BeatDivisor: 4
GridSize: 4
TimelineZoom: 2.1

[Metadata]
Title:Rally Go Round -TV ver.-
TitleUnicode:Rally Go Round -TV ver.-
Artist:LiSA
ArtistUnicode:LiSA
Creator:Aerous
Version:Guy's Extra
Source:ニセコイ:
Tags:Nisekoi Season 2 Opening Rakuen Guy Kibbleru Ichijou Raku Kirisaki Chitoge Onodera Kosaki Haru Tachibana Marika Tsugumi Seishirou
BeatmapID:677751
BeatmapSetID:302343

[Difficulty]
HPDrainRate:7
CircleSize:4
OverallDifficulty:8
ApproachRate:9.2
SliderMultiplier:1.8
SliderTickRate:1

[Events]
//Background and Video events
0,0,"tsugumibest.jpg",0,0
Video,967,"video.avi"
//Break Periods
//Storyboard Layer 0 (Background)
//Storyboard Layer 1 (Fail)
//Storyboard Layer 2 (Pass)
//Storyboard Layer 3 (Foreground)
//Storyboard Sound Samples

[TimingPoints]
1264,315.789473684211,4,2,56,70,1,0
1421,-100,4,2,56,70,0,0
1579,-100,4,2,0,70,0,0
3000,-100,4,2,56,70,0,0
3316,-100,4,2,0,70,0,0
3790,-100,4,2,56,70,0,0
4264,-100,4,2,0,70,0,0
5685,-100,4,2,56,70,0,0
31579,-133.333333333333,4,2,56,60,0,0
33948,-100,4,2,56,70,0,0
51632,-133.333333333333,4,2,56,70,0,0
52264,-133.333333333333,4,2,0,70,0,0
52579,-79.9999999999999,4,2,56,70,0,0
53053,-100,4,2,56,80,0,1
73264,-100,4,2,56,70,0,0
75711,-100,4,2,56,20,0,0
75790,-100,4,2,56,70,0,0
77685,-100,4,2,56,50,0,0
78000,-100,4,2,56,70,0,0
82264,-100,4,2,56,50,0,0
82737,-100,4,2,56,60,0,0
83053,-100,4,2,56,70,0,0
89527,-133.333333333333,4,2,56,70,0,0
89842,-133.333333333333,4,2,56,30,0,0
90158,-133.333333333333,4,2,56,20,0,0

[Colours]
Combo1 : 255,192,0
Combo2 : 0,202,0
Combo3 : 18,124,255
Combo4 : 255,128,64

[HitObjects]
111,179,1264,6,0,L|223:193,1,90,8|8,0:0|0:0,0:0:0:0:
286,141,1579,1,2,0:0:0:0:
291,239,1737,1,0,0:0:0:0:
291,239,1895,2,0,B|351:242|403:213|403:213|436:190|453:227|419:239,1,180,2|2,0:0|0:0,0:0:0:0:
219,301,2369,1,0,0:0:0:0:
219,301,2527,6,0,P|203:240|200:210,1,90,2|0,0:0|0:0,0:0:0:0:
249,53,2842,1,2,0:0:0:0:
342,133,3000,2,0,B|311:149|311:149|165:123,1,180,8|8,0:0|0:3,0:0:0:0:
65,88,3474,1,2,0:0:0:0:
54,216,3632,1,0,0:0:0:0:
168,162,3790,5,8,0:0:0:0:
341,312,3948,2,0,L|333:218,1,90,8|0,0:0|0:0,0:0:0:0:
160,156,4264,1,0,0:0:0:0:
382,353,4421,2,0,L|365:174,1,180,2|2,0:0|0:0,0:0:0:0:
212,81,4895,1,0,0:0:0:0:
167,199,5053,6,2,L|280:186,1,90,4|0,0:0|0:0,0:0:0:0:
418,293,5369,2,0,L|328:282,1,90,4|0,0:0|0:0,0:0:0:0:
84,263,5685,1,4,0:3:0:0:
87,218,5764,1,0,0:0:0:0:
89,173,5842,1,0,0:0:0:0:
91,128,5921,1,0,0:0:0:0:
94,83,6000,1,8,0:0:0:0:
299,172,6158,2,0,L|252:196,1,45
129,260,6316,5,4,0:0:0:0:
190,141,6474,1,2,0:0:0:0:
252,310,6632,1,8,0:0:0:0:
415,233,6790,1,0,0:0:0:0:
415,233,6869,1,0,0:0:0:0:
415,233,6948,1,2,0:0:0:0:
235,318,7106,1,2,0:0:0:0:
277,164,7264,2,0,P|290:107|293:70,1,90,8|0,0:0|0:0,0:0:0:0:
87,185,7579,6,0,P|91:229|102:273,1,90,2|0,0:0|0:0,0:0:0:0:
290,350,7895,1,8,0:0:0:0:
198,247,8053,1,0,0:0:0:0:
191,211,8132,1,0,0:0:0:0:
188,175,8211,1,2,0:0:0:0:
320,254,8369,1,0,0:0:0:0:
168,332,8527,1,8,0:0:0:0:
337,243,8685,1,0,0:0:0:0:
174,146,8842,5,4,0:0:0:0:
239,263,9000,1,0,0:0:0:0:
342,72,9158,1,8,0:0:0:0:
357,319,9316,1,0,0:0:0:0:
357,319,9395,1,0,0:0:0:0:
357,319,9474,1,2,0:0:0:0:
162,226,9632,1,0,0:0:0:0:
384,162,9790,1,8,0:0:0:0:
227,344,9948,6,0,B|89:315|89:315|133:293,1,180,4|2,0:0|0:0,0:0:0:0:
260,189,10421,1,8,0:0:0:0:
104,119,10579,2,0,L|125:305,1,180,4|8,0:0|0:0,0:0:0:0:
140,265,10974,1,8,0:0:0:0:
153,231,11053,1,8,0:0:0:0:
168,198,11132,1,8,0:0:0:0:
182,165,11211,6,0,B|211:105|277:99|277:99|321:137,1,180,4|0,0:0|0:0,0:0:0:0:
471,255,11685,2,0,P|426:244|374:240,1,90,2|0,0:0|0:0,0:0:0:0:
196,315,12000,2,0,P|251:312|291:302,1,90,2|0,0:0|0:0,0:0:0:0:
438,158,12316,2,0,P|394:148|349:146,1,90,2|0,0:0|0:0,0:0:0:0:
156,103,12632,5,2,0:0:0:0:
181,208,12790,1,0,0:0:0:0:
261,136,12948,1,2,0:0:0:0:
142,87,13106,1,0,0:0:0:0:
174,225,13264,1,2,0:0:0:0:
279,131,13421,1,0,0:0:0:0:
124,217,13579,1,2,0:0:0:0:
272,316,13737,6,0,B|413:292|413:292|375:263,1,180,8|0,0:0|0:0,0:0:0:0:
201,195,14211,2,0,P|186:133|181:89,1,90,2|0,0:0|0:0,0:0:0:0:
329,220,14527,2,0,P|344:158|349:114,1,90,2|0,0:0|0:0,0:0:0:0:
136,267,14842,1,2,0:0:0:0:
136,267,15000,2,0,P|110:199|93:90,1,180
287,166,15474,2,0,P|277:230|264:272,1,90,2|0,0:0|0:0,0:0:0:0:
170,352,15790,5,2,0:0:0:0:
197,101,15948,1,4,0:0:0:0:
96,281,16106,5,2,0:0:0:0:
383,264,16264,2,0,L|364:80,1,180,4|0,0:0|0:0,0:0:0:0:
179,84,16737,1,2,0:0:0:0:
287,167,16895,1,0,0:0:0:0:
165,225,17053,2,0,P|113:218|76:211,1,90,2|0,0:0|0:0,0:0:0:0:
312,290,17369,2,0,P|267:298|223:303,1,90,2|0,0:0|0:0,0:0:0:0:
76,211,17685,6,0,B|97:158|139:133|139:133|178:154|234:152,1,180,2|2,0:0|0:0,0:0:0:0:
390,181,18158,1,0,0:0:0:0:
309,114,18316,2,0,P|297:189|289:228,1,90,2|0,0:0|0:0,0:0:0:0:
239,285,18632,1,2,0:0:0:0:
139,137,18790,6,0,P|130:92|124:48,1,90,4|0,0:0|0:0,0:0:0:0:
371,232,19106,1,8,0:0:0:0:
371,232,19264,2,0,P|379:187|385:143,1,90,8|0,0:0|0:0,0:0:0:0:
269,55,19579,1,8,0:0:0:0:
265,99,19658,1,8,0:0:0:0:
260,143,19737,1,8,0:0:0:0:
254,187,19816,1,8,0:0:0:0:
249,231,19895,1,8,0:0:0:0:
118,309,20053,5,4,0:0:0:0:
149,210,21000,5,8,0:0:0:0:
220,288,21158,1,8,0:0:0:0:
322,261,21316,6,0,P|348:134|359:69,1,180,4|2,0:0|0:0,0:0:0:0:
223,25,21790,2,0,P|231:69|247:126,1,90,8|0,0:0|0:0,0:0:0:0:
401,234,22106,2,0,P|412:191|421:147,1,90,2|2,0:0|0:0,0:0:0:0:
227,228,22421,1,8,0:0:0:0:
233,237,22737,5,2,0:0:0:0:
312,159,22895,1,0,0:0:0:0:
279,339,23053,2,0,L|178:323,1,90,8|0,0:0|0:0,0:0:0:0:
83,259,23369,1,2,0:0:0:0:
213,215,23527,1,2,0:0:0:0:
93,118,23685,1,8,0:0:0:0:
227,228,23842,6,0,B|361:190|361:190|343:231,1,180,2|2,0:0|0:0,0:0:0:0:
238,318,24316,1,8,0:0:0:0:
83,259,24474,1,0,0:0:0:0:
205,151,24632,2,0,L|201:252,1,90,2|0,0:0|0:0,0:0:0:0:
194,353,24948,1,8,0:0:0:0:
290,262,25106,1,0,0:0:0:0:
116,190,25264,5,2,0:0:0:0:
292,98,25421,2,0,L|276:203,1,90,2|8,0:0|0:0,0:0:0:0:
255,298,25737,1,0,0:0:0:0:
412,256,25895,1,2,0:0:0:0:
236,304,26053,1,2,0:0:0:0:
430,251,26211,1,8,0:0:0:0:
208,124,26369,5,4,0:0:0:0:
230,334,26527,2,0,L|331:324,1,90,0|2,0:0|0:0,0:0:0:0:
450,246,26842,1,8,0:0:0:0:
290,207,27000,1,0,0:0:0:0:
443,150,27158,2,0,P|429:204|412:255,1,90,2|2,0:0|0:0,0:0:0:0:
217,341,27474,2,0,P|203:298|192:254,1,90,8|0,0:0|0:0,0:0:0:0:
175,138,27790,5,2,0:0:0:0:
305,241,27948,1,0,0:0:0:0:
128,329,28106,1,8,0:0:0:0:
136,339,28421,5,2,0:0:0:0:
73,218,28579,1,2,0:0:0:0:
226,268,28737,1,8,0:0:0:0:
263,111,28895,6,0,P|271:58|274:20,1,90,2|0,0:0|0:0,0:0:0:0:
149,245,29211,1,2,0:0:0:0:
294,207,29369,2,0,P|358:191|396:187,1,90,8|0,0:0|0:0,0:0:0:0:
437,342,29685,2,0,P|384:351|263:304,1,180,2|8,0:0|0:0,0:0:0:0:
212,188,30158,6,0,P|231:117|233:84,1,90,0|2,0:0|0:0,0:0:0:0:
123,62,30474,1,0,0:0:0:0:
90,293,30632,2,0,L|191:275,1,90,8|0,0:0|0:0,0:0:0:0:
214,269,30869,1,0,0:0:0:0:
249,262,30948,1,8,0:0:0:0:
169,174,31106,2,0,L|226:192,1,45
357,303,31264,2,0,L|350:237,1,45,8|8,0:0|0:0,0:0:0:0:
307,169,31421,2,0,L|314:103,1,45,8|8,0:0|0:0,0:0:0:0:
452,95,31579,6,0,L|437:256,1,135.000005149842,4|0,0:0|0:0,0:0:0:0:
274,346,32053,1,2,0:0:0:0:
274,346,32211,2,0,P|215:315|143:311,1,135.000005149842,8|2,0:0|0:0,0:0:0:0:
57,226,32685,6,0,P|123:221|183:190,1,135.000005149842,2|8,0:0|0:0,0:0:0:0:
294,76,33158,2,0,L|284:154,1,67.5000025749208,0|2,0:0|0:0,0:0:0:0:
275,246,33474,1,8,0:0:0:0:
196,148,33632,1,2,0:0:0:0:
271,270,33790,1,8,0:0:0:0:
380,177,33948,6,0,P|398:127|408:77,1,90,4|0,0:0|0:0,0:0:0:0:
104,132,34264,2,0,P|114:175|129:217,1,90,2|8,0:0|0:0,0:0:0:0:
199,310,34579,1,8,0:0:0:0:
359,269,34737,1,2,0:0:0:0:
212,177,34895,1,2,0:0:0:0:
293,344,35053,1,8,0:0:0:0:
381,244,35211,6,0,P|395:203|408:145,1,90,2|0,0:0|0:0,0:0:0:0:
266,48,35527,1,2,0:0:0:0:
279,159,35685,1,8,0:0:0:0:
178,114,35842,1,8,0:0:0:0:
222,243,36000,1,4,0:3:0:0:
343,173,36158,1,2,0:0:0:0:
159,100,36316,1,8,0:0:0:0:
180,297,36474,6,0,B|320:280|320:280|276:252,1,180,4|2,0:0|0:0,0:0:0:0:
176,180,36948,1,0,0:0:0:0:
294,112,37106,1,2,0:0:0:0:
305,77,37185,1,2,0:0:0:0:
311,41,37264,1,8,0:0:0:0:
304,187,37421,1,0,0:0:0:0:
180,104,37579,1,2,0:0:0:0:
328,200,37737,6,0,P|374:187|419:181,1,90,2|0,0:0|0:0,0:0:0:0:
226,329,38053,2,0,P|181:322|138:310,1,90,8|2,0:0|0:0,0:0:0:0:
79,200,38369,1,2,0:0:0:0:
198,224,38527,1,8,0:0:0:0:
59,195,38685,1,2,0:0:0:0:
244,129,38842,1,8,0:0:0:0:
95,76,39000,6,0,L|111:271,1,180,4|2,0:0|0:0,0:0:0:0:
185,347,39474,1,8,0:0:0:0:
349,205,39632,1,8,0:0:0:0:
374,351,39790,1,2,0:0:0:0:
185,183,39948,1,0,0:0:0:0:
267,341,40106,1,8,0:0:0:0:
408,231,40264,6,0,L|422:51,1,180,4|2,0:0|0:0,0:0:0:0:
422,51,40737,1,8,0:0:0:0:
273,177,40895,1,2,0:0:0:0:
167,86,41053,1,8,0:3:0:0:
307,163,41211,1,2,0:0:0:0:
148,246,41369,1,4,0:3:0:0:
299,325,41527,6,0,P|367:323|407:225,1,180,4|2,0:0|0:0,0:0:0:0:
242,189,42000,2,0,P|194:197|117:203,1,90,8|0,0:0|0:0,0:0:0:0:
30,117,42316,1,2,0:0:0:0:
50,216,42474,1,2,0:0:0:0:
69,315,42632,1,8,0:0:0:0:
242,189,42790,6,0,P|257:123|261:76,1,90,2|0,0:0|0:0,0:0:0:0:
137,65,43106,1,2,0:0:0:0:
221,284,43264,2,0,P|268:273|310:255,1,90,8|0,0:0|0:0,0:0:0:0:
379,182,43579,1,2,0:0:0:0:
356,345,43737,1,2,0:0:0:0:
206,277,43895,1,8,0:0:0:0:
370,353,44053,6,0,P|413:346|460:335,1,90,2|0,0:0|0:0,0:0:0:0:
188,268,44369,2,0,P|230:279|276:285,1,90,2|8,0:0|0:0,0:0:0:0:
381,233,44685,1,0,0:0:0:0:
237,157,44842,1,2,0:0:0:0:
370,80,45000,1,2,0:0:0:0:
208,144,45158,1,8,0:0:0:0:
354,249,45316,6,0,P|350:296|343:343,1,90,4|0,0:0|0:0,0:0:0:0:
162,348,45632,1,2,0:0:0:0:
266,285,45790,1,8,0:0:0:0:
135,198,45948,2,0,P|127:153|125:108,1,90,4|0,0:0|0:0,0:0:0:0:
268,53,46264,1,2,0:0:0:0:
225,220,46421,1,8,0:0:0:0:
58,166,46579,6,0,B|46:112|61:53|61:53|91:34|134:36,1,180,4|2,0:0|0:0,0:0:0:0:
314,185,47053,1,8,0:0:0:0:
126,108,47211,1,8,0:0:0:0:
143,287,47369,1,2,0:0:0:0:
356,255,47527,1,2,0:0:0:0:
155,196,47685,1,8,0:0:0:0:
365,81,47842,6,0,B|349:131|349:131|368:203|368:203|355:258,1,180,4|2,0:0|0:0,0:0:0:0:
229,330,48316,1,8,0:0:0:0:
271,187,48474,1,8,0:0:0:0:
308,368,48632,1,2,0:0:0:0:
152,291,48790,1,2,0:0:0:0:
331,249,48948,1,8,0:0:0:0:
143,118,49106,6,0,B|158:168|158:168|139:240|139:240|153:295,1,180,4|2,0:0|0:0,0:0:0:0:
410,334,49579,2,0,L|418:241,1,90,8|0,0:0|0:0,0:0:0:0:
302,118,49895,1,8,0:0:0:0:
309,249,50053,1,0,0:0:0:0:
422,183,50211,1,8,0:0:0:0:
220,75,50369,6,0,B|226:159|226:159|224:164|224:164|227:168|227:168|234:259,1,180,4|8,0:0|0:0,0:0:0:0:
273,361,50842,1,8,0:0:0:0:
145,292,51000,1,2,0:0:0:0:
325,221,51158,1,8,0:0:0:0:
335,186,51237,1,8,0:0:0:0:
340,150,51316,1,8,0:0:0:0:
344,114,51395,1,8,0:0:0:0:
345,78,51474,2,0,P|313:99|281:118,1,45,8|0,0:0|0:0,0:0:0:0:
151,168,51632,6,8,B|138:109|129:30|129:30|121:91|105:124,1,236.250009012223,4|0,0:0|0:0,0:0:0:0:
85,194,52264,2,0,P|74:234|59:275,1,67.5000025749208,2|0,0:0|0:0,0:0:0:0:
152,358,52579,6,0,L|214:349,1,56.25,2|2,0:0|0:0,0:0:0:0:
223,264,52737,2,0,L|82:284,1,112.5,4|0,0:0|0:0,0:0:0:0:
30,132,53053,6,0,P|67:107|113:95,1,90,4|0,0:0|0:0,0:0:0:0:
284,189,53369,2,0,P|293:242|292:287,1,90,8|0,0:0|0:0,0:0:0:0:
141,335,53685,2,0,P|132:290|132:245,1,90,2|0,0:0|0:0,0:0:0:0:
302,94,54000,2,0,P|310:138|310:183,1,90,8|0,0:0|0:0,0:0:0:0:
237,306,54316,5,2,0:0:0:0:
118,228,54474,1,2,0:0:0:0:
236,149,54632,1,8,0:0:0:0:
101,239,54790,1,0,0:0:0:0:
136,77,54948,1,2,0:0:0:0:
252,162,55106,2,0,P|297:154|353:143,1,90,2|8,0:0|0:0,0:0:0:0:
459,290,55421,6,0,P|386:310|315:228,1,180,4|2,0:0|0:0,0:0:0:0:
243,59,55895,1,8,0:0:0:0:
358,142,56053,1,0,0:0:0:0:
151,239,56211,1,2,0:0:0:0:
353,177,56369,1,2,0:0:0:0:
183,136,56527,1,8,0:0:0:0:
333,258,56685,1,0,0:0:0:0:
154,329,56842,6,0,P|106:318|71:293,1,90,2|2,0:0|0:0,0:0:0:0:
259,162,57158,1,8,0:0:0:0:
233,349,57316,1,0,0:0:0:0:
83,234,57474,2,0,P|65:173|65:125,1,90,2|2,0:0|0:0,0:0:0:0:
385,80,57790,1,8,0:0:0:0:
320,189,57948,6,0,B|274:213|274:213|149:175,1,180,4|0,0:0|0:0,0:0:0:0:
72,85,58421,1,8,0:0:0:0:
34,250,58579,2,0,B|80:274|80:274|205:236,1,180,0|2,0:0|0:0,0:0:0:0:
265,130,59053,1,8,0:0:0:0:
329,339,59211,6,0,L|238:318,1,90,2|0,0:0|0:0,0:0:0:0:
373,237,59527,2,0,L|460:257,1,90,2|8,0:0|0:0,0:0:0:0:
222,313,59842,2,0,P|212:266|207:208,1,90,0|2,0:0|0:0,0:0:0:0:
246,126,60158,1,2,0:0:0:0:
284,305,60316,1,8,0:0:0:0:
113,248,60474,6,0,L|101:67,1,180,2|2,0:0|0:0,0:0:0:0:
259,33,60948,1,12,0:0:0:0:
237,211,61106,1,0,0:0:0:0:
371,127,61264,1,2,0:0:0:0:
231,239,61421,1,2,0:0:0:0:
140,69,61579,1,12,0:0:0:0:
224,272,61737,1,0,0:0:0:0:
224,272,61816,1,0,0:0:0:0:
224,272,61895,6,0,L|323:256,1,90,2|0,0:0|0:0,0:0:0:0:
431,238,62211,1,12,0:0:0:0:
201,351,62369,1,0,0:0:0:0:
166,342,62448,1,0,0:0:0:0:
130,334,62527,1,8,0:0:0:0:
26,210,62685,5,2,0:0:0:0:
70,204,62764,1,0,0:0:0:0:
114,197,62842,1,8,0:0:0:0:
158,191,62921,1,8,0:0:0:0:
202,185,63000,1,8,0:0:0:0:
246,180,63079,1,8,0:0:0:0:
290,174,63158,6,0,P|305:109|310:62,1,90,4|0,0:0|0:0,0:0:0:0:
144,23,63474,2,0,P|150:67|162:111,1,90,8|0,0:0|0:0,0:0:0:0:
308,281,63790,2,0,L|425:263,1,90,2|0,0:0|0:0,0:0:0:0:
179,346,64106,2,0,L|184:233,1,90,8|0,0:0|0:0,0:0:0:0:
248,164,64421,5,2,0:0:0:0:
124,105,64579,1,2,0:0:0:0:
294,31,64737,1,8,0:0:0:0:
110,112,64895,1,0,0:0:0:0:
317,212,65053,1,2,0:0:0:0:
104,302,65211,1,2,0:0:0:0:
186,203,65369,1,8,0:0:0:0:
186,203,65448,1,0,0:0:0:0:
186,203,65527,6,0,B|200:148|200:148|176:21,1,180,4|2,0:0|0:0,0:0:0:0:
277,224,66000,1,8,0:0:0:0:
92,176,66158,2,0,L|104:272,1,90,0|2,0:0|0:0,0:0:0:0:
252,326,66474,1,2,0:0:0:0:
299,148,66632,1,8,0:0:0:0:
373,347,66790,6,0,P|272:346|233:263,1,180,4|0,0:0|0:0,0:0:0:0:
409,191,67264,2,0,P|428:236|420:295,1,90,8|0,0:0|0:0,0:0:0:0:
169,352,67579,1,2,0:0:0:0:
175,169,67737,1,2,0:0:0:0:
328,261,67895,1,8,0:0:0:0:
199,309,68053,6,0,L|186:107,1,180,4|2,0:0|0:0,0:0:0:0:
125,24,68527,1,8,0:0:0:0:
136,210,68685,1,0,0:0:0:0:
304,133,68842,1,2,0:0:0:0:
89,193,69000,1,2,0:0:0:0:
269,311,69158,1,8,0:0:0:0:
378,125,69316,6,0,P|394:79|403:31,1,90,2|0,0:0|0:0,0:0:0:0:
238,74,69632,1,2,0:0:0:0:
264,220,69790,1,8,0:0:0:0:
408,195,69948,1,0,0:0:0:0:
257,255,70106,1,2,0:0:0:0:
230,106,70264,1,2,0:0:0:0:
250,295,70421,1,8,0:0:0:0:
398,229,70579,6,0,L|386:46,1,180,2|2,0:0|0:0,0:0:0:0:
100,269,71053,2,0,L|107:164,1,90,8|0,0:0|0:0,0:0:0:0:
303,348,71369,2,0,L|296:243,1,90,2|2,0:0|0:0,0:0:0:0:
180,69,71685,2,0,L|183:124,1,45,8|0,0:0|0:0,0:0:0:0:
226,186,71842,6,0,P|275:182|318:176,1,90,2|0,0:0|0:0,0:0:0:0:
403,107,72158,1,2,0:0:0:0:
352,267,72316,1,12,0:0:0:0:
237,163,72474,1,0,0:0:0:0:
302,348,72632,1,8,0:3:0:0:
444,275,72790,1,8,0:0:0:0:
437,234,72869,1,8,0:0:0:0:
412,201,72948,1,8,0:0:0:0:
375,182,73027,1,8,0:0:0:0:
334,180,73106,1,8,0:0:0:0:
296,197,73185,1,8,0:0:0:0:
271,229,73264,5,4,0:0:0:0:
157,153,73421,1,2,0:0:0:0:
181,334,73579,1,8,0:0:0:0:
352,267,73737,2,0,P|358:183|356:151,1,90,4|0,0:0|0:0,0:0:0:0:
152,64,74053,2,0,P|152:108|157:153,1,90,2|8,0:0|0:0,0:0:0:0:
215,308,74369,6,0,P|266:245|356:271,1,180,4|0,0:0|0:0,0:0:0:0:
123,195,74842,2,0,P|172:176|226:167,1,90,8|0,0:0|0:0,0:0:0:0:
438,294,75158,2,0,P|394:284|352:267,1,90,8|0,0:0|0:0,0:0:0:0:
317,45,75474,2,0,B|331:84|331:84|325:131|308:183,1,135,8|0,0:0|0:0,0:0:0:0:
272,243,75790,6,0,P|196:253|178:253,1,90,4|0,0:0|0:0,0:0:0:0:
71,242,76106,1,8,0:0:0:0:
167,104,76264,2,0,P|243:94|261:94,1,90,2|0,0:0|0:0,0:0:0:0:
329,313,76579,1,2,0:0:0:0:
220,174,76737,1,8,0:0:0:0:
192,367,76895,6,0,L|384:352,1,180,4|2,0:0|0:0,0:0:0:0:
407,198,77369,1,8,0:0:0:0:
258,273,77527,1,2,0:0:0:0:
263,131,77685,5,8,0:0:0:0:
267,95,77764,1,8,0:0:0:0:
268,59,77842,2,0,P|272:10|272:1,1,45,8|8,0:0|0:0,0:0:0:0:
136,102,78000,2,0,P|140:151|140:160,1,45,8|8,0:0|0:0,0:0:0:0:
241,197,78158,2,0,L|301:187,1,45,8|8,0:0|0:0,0:0:0:0:
400,173,78316,5,4,0:0:0:0:
216,121,78474,1,2,0:0:0:0:
293,298,78632,1,8,0:0:0:0:
463,207,78790,2,0,L|474:110,1,90,4|0,0:0|0:0,0:0:0:0:
143,65,79106,1,2,0:0:0:0:
220,242,79264,1,8,0:0:0:0:
390,151,79422,6,0,L|401:54,1,90,4|0,0:0|0:0,0:0:0:0:
251,58,79737,1,2,0:0:0:0:
234,227,79895,1,8,0:0:0:0:
234,227,80053,1,2,0:0:0:0:
351,211,80211,1,8,0:0:0:0:
351,211,80369,1,2,0:0:0:0:
174,122,80527,1,8,0:0:0:0:
174,122,80685,1,2,0:0:0:0:
206,354,80842,5,4,0:0:0:0:
306,276,81000,1,0,0:0:0:0:
139,186,81158,1,8,0:0:0:0:
429,112,81316,2,0,P|423:160|412:217,1,90,4|0,0:0|0:0,0:0:0:0:
222,234,81632,5,2,0:0:0:0:
388,323,81790,1,8,0:0:0:0:
317,103,81948,2,0,P|309:38|306:4,1,90,4|0,0:0|0:0,0:0:0:0:
329,231,82264,5,8,0:3:0:0:
169,109,82421,1,8,0:0:0:0:
113,328,82579,1,8,0:0:0:0:
315,263,82737,1,8,0:0:0:0:
89,174,82895,1,8,0:0:0:0:
326,96,83053,1,8,0:0:0:0:
136,245,83211,1,8,0:0:0:0:
427,302,83369,5,4,0:0:0:0:
427,302,84632,6,0,L|418:189,1,90,4|0,0:0|0:0,0:0:0:0:
243,129,84948,1,8,0:0:0:0:
314,279,85106,1,0,0:0:0:0:
314,279,85185,1,0,0:0:0:0:
314,279,85264,1,2,0:0:0:0:
343,105,85421,1,0,0:0:0:0:
215,299,85579,1,8,0:0:0:0:
351,244,85737,1,0,0:0:0:0:
127,191,85895,6,0,P|116:133|114:91,1,90,2|2,0:0|0:0,0:0:0:0:
157,6,86211,1,8,0:0:0:0:
263,158,86369,2,0,B|277:228|254:298|254:298|221:261,1,180,0|2,0:0|0:0,0:0:0:0:
165,186,86842,1,8,0:0:0:0:
349,311,87000,1,0,0:0:0:0:
324,179,87158,5,4,0:0:0:0:
201,317,87316,1,2,0:0:0:0:
337,164,87474,1,8,0:0:0:0:
218,84,87632,1,0,0:0:0:0:
218,84,87711,1,0,0:0:0:0:
218,84,87790,1,2,0:0:0:0:
261,248,87948,1,2,0:0:0:0:
417,182,88106,1,8,0:0:0:0:
247,270,88264,6,0,B|194:289|150:272|150:272|118:233|76:224,1,180,4|2,0:0|0:0,0:0:0:0:
36,129,88737,1,8,0:0:0:0:
310,31,88895,2,0,L|325:221,1,180,4|8,0:0|0:0,0:0:0:0:
333,320,89369,1,8,0:0:0:0:
136,185,89527,6,0,P|113:213|249:265,1,270.000010299683,4|0,0:0|0:0,0:0:0:0:
