osu file format v14

[General]
AudioFilename: 01 Rally Go Round.mp3
AudioLeadIn: 1500
PreviewTime: 51749
Countdown: 0
SampleSet: Soft
StackLeniency: 0.7
Mode: 0
LetterboxInBreaks: 0
WidescreenStoryboard: 0

[Editor]
Bookmarks: 195592,206486,216592
DistanceSpacing: 1.2
BeatDivisor: 4
GridSize: 8
TimelineZoom: 2

[Metadata]
Title:Rally Go Round
TitleUnicode:Rally Go Round
Artist:LiSA
ArtistUnicode:LiSA
Creator:FrostxE
Version:Insane
Source:Nisekoi:
Tags:Fycho Frostmourne 2nd season opening
BeatmapID:740693
BeatmapSetID:317275

[Difficulty]
HPDrainRate:6
CircleSize:4
OverallDifficulty:7
ApproachRate:9
SliderMultiplier:1.5
SliderTickRate:1

[Events]
//Background and Video events
0,0,"bginsane.png",0,0
//Break Periods
2,84159,88728
2,153634,160413
2,206686,215992
//Storyboard Layer 0 (Background)
//Storyboard Layer 1 (Fail)
//Storyboard Layer 2 (Pass)
//Storyboard Layer 3 (Foreground)
//Storyboard Sound Samples

[TimingPoints]
592,315.789473684211,4,2,1,70,1,0
19381,-100,4,2,1,45,0,0
20328,-100,4,2,1,70,0,0
52381,-100,4,2,1,85,0,1
83960,-100,4,2,1,85,0,0
84039,-100,4,2,1,70,0,0
130697,-100,4,2,1,85,0,1
150907,-100,4,2,1,85,0,0
196223,-100,4,2,1,85,0,1
206486,-100,4,2,1,85,0,0
215170,-100,4,2,1,45,0,0
225434,-100,4,2,1,85,0,0
225513,-100,4,2,1,45,0,0
226697,-100,4,2,1,85,0,1
258276,-100,4,2,1,85,0,0

[Colours]
Combo1 : 180,103,103
Combo2 : 128,128,255
Combo3 : 255,128,255
Combo4 : 255,141,28
Combo5 : 255,255,83

[HitObjects]
328,108,592,5,8,0:0:0:0:
176,152,749,1,8,0:0:0:0:
176,152,1065,5,0,0:0:0:0:
92,184,1223,2,0,B|64:260|100:336,1,150
260,320,1697,1,0,0:0:0:0:
184,272,1855,1,0,0:0:0:0:
180,364,2013,1,0,0:0:0:0:
260,320,2170,1,2,0:0:0:0:
184,272,2328,1,12,0:0:0:0:
450,303,2644,5,8,0:0:0:0:
468,216,2802,1,2,0:0:0:0:
380,192,2960,1,0,0:0:0:0:
360,280,3118,1,8,0:0:0:0:
468,216,3276,1,8,0:0:0:0:
290,40,3592,5,0,0:0:0:0:
290,40,3749,2,0,L|272:208,1,150
200,244,4223,1,0,0:0:0:0:
132,184,4381,6,0,B|116:144|128:104,1,75
64,236,4697,2,0,B|80:276|68:316,1,75
152,348,5013,1,2,0:0:0:0:
172,348,5092,1,2,0:0:0:0:
192,348,5170,1,2,0:0:0:0:
212,348,5249,1,2,0:0:0:0:
232,348,5328,2,0,L|400:348,1,150,12|6,0:0|0:0,0:0:0:0:
476,216,5802,5,2,0:0:0:0:
476,216,5960,2,0,P|441:202|398:201,1,75,8|0,0:0|0:0,0:0:0:0:
316,188,6276,2,0,P|293:115|305:31,1,150,2|8,0:0|0:0,0:0:0:0:
301,43,6749,1,0,0:0:0:0:
200,96,6907,6,0,P|197:136|177:179,1,75,2|2,0:0|0:0,0:0:0:0:
95,181,7223,1,8,0:0:0:0:
24,124,7381,1,0,0:0:0:0:
24,124,7460,1,2,0:0:0:0:
24,124,7539,1,2,0:0:0:0:
107,88,7697,1,0,0:0:0:0:
156,256,7855,1,8,0:0:0:0:
480,316,8170,6,0,P|424:352|336:352,1,150,6|8,0:0|0:0,0:0:0:0:
276,292,8644,1,0,0:0:0:0:
276,292,8723,1,2,0:0:0:0:
276,292,8802,2,0,L|266:198,1,75,0|2,0:0|0:0,0:0:0:0:
305,134,9118,1,8,0:0:0:0:
452,224,9276,6,0,P|476:148|464:72,1,150,6|2,0:0|0:0,0:0:0:0:
388,32,9749,1,8,0:0:0:0:
305,134,9907,2,0,P|229:158|153:146,1,150,6|2,0:0|0:0,0:0:0:0:
76,112,10381,1,8,0:0:0:0:
12,328,10539,1,6,0:0:0:0:
12,328,11013,6,0,P|80:360|160:356,1,150,2|2,0:0|0:0,0:0:0:0:
264,216,11644,2,0,P|196:184|116:188,1,150,2|2,0:0|0:0,0:0:0:0:
123,186,12118,1,0,0:0:0:0:
48,236,12276,1,2,0:0:0:0:
32,148,12434,1,0,0:0:0:0:
104,92,12592,6,0,P|142:85|189:86,1,75,2|0,0:0|0:0,0:0:0:0:
264,112,12907,1,2,0:0:0:0:
344,152,13065,2,0,L|428:140,1,75,12|2,0:0|0:0,0:0:0:0:
419,141,13381,1,0,0:0:0:0:
468,220,13539,5,2,0:0:0:0:
436,304,13697,1,0,0:0:0:0:
360,256,13855,2,0,B|296:216|216:232,1,150,2|2,0:0|0:0,0:0:0:0:
136,272,14328,2,0,L|64:228,1,75,0|2,0:0|0:0,0:0:0:0:
96,352,14644,2,0,P|136:364|184:350,1,75,0|2,0:0|0:0,0:0:0:0:
255,331,14960,2,0,P|291:327|327:339,1,75,0|2,0:0|0:0,0:0:0:0:
416,360,15276,6,0,L|440:268,1,75,12|2,0:0|0:0,0:0:0:0:
508,233,15592,2,0,P|500:197|460:161,1,75,12|2,0:0|0:0,0:0:0:0:
384,180,15907,1,0,0:0:0:0:
384,180,16065,1,2,0:0:0:0:
304,224,16223,5,0,0:0:0:0:
216,212,16381,2,0,P|144:192|68:204,1,150,2|2,0:0|0:0,0:0:0:0:
13,133,16855,2,0,P|53:113|101:105,1,75,0|2,0:0|0:0,0:0:0:0:
172,108,17170,1,0,0:0:0:0:
212,28,17328,1,2,0:0:0:0:
400,332,17644,5,2,0:0:0:0:
256,320,17802,1,0,0:0:0:0:
400,332,17960,1,2,0:0:0:0:
256,320,18118,2,0,L|154:323,1,75,12|2,0:0|0:0,0:0:0:0:
216,212,18434,1,8,0:0:0:0:
216,212,18592,2,0,B|287:195|367:207,1,150,8|8,0:0|0:0,0:0:0:0:
431,145,19065,2,0,L|437:97,2,37.5,8|8|8,0:0|0:0|0:0,0:0:0:0:
348,108,19381,6,0,P|280:104|212:52,2,150,2|0|0,0:0|0:0|0:0,0:0:0:0:
348,108,20170,1,0,0:0:0:0:
296,212,20328,1,8,0:0:0:0:
296,212,20486,1,8,0:0:0:0:
208,200,20644,6,0,P|191:275|207:349,1,150,6|2,0:0|0:0,0:0:0:0:
292,360,21118,2,0,L|372:348,1,75,8|0,0:0|0:0,0:0:0:0:
472,264,21434,2,0,L|397:275,1,75,2|2,0:0|0:0,0:0:0:0:
296,212,21749,2,0,L|370:200,1,75,8|0,0:0|0:0,0:0:0:0:
456,176,22065,6,0,B|500:108|472:20,2,150,2|8|2,0:0|0:0|0:0,0:0:0:0:
456,176,22855,1,2,0:0:0:0:
352,48,23013,1,8,0:0:0:0:
352,48,23170,2,0,B|276:32|204:72,1,150,2|2,0:0|0:0,0:0:0:0:
328,156,23644,5,8,0:0:0:0:
412,124,23802,1,0,0:0:0:0:
441,209,23960,1,2,0:0:0:0:
358,243,24118,2,0,P|326:255|278:255,1,75,2|8,0:0|0:0,0:0:0:0:
196,276,24434,2,0,P|184:308|184:356,1,75,0|2,0:0|0:0,0:0:0:0:
272,360,24749,2,0,L|368:360,1,75,2|8,0:0|0:0,0:0:0:0:
436,348,25065,6,0,P|476:336|500:304,1,75,0|2,0:0|0:0,0:0:0:0:
328,156,25381,2,0,P|292:176|276:213,1,75,2|8,0:0|0:0,0:0:0:0:
358,243,25697,1,6,0:0:0:0:
441,209,25855,2,0,P|441:127|404:64,1,150,0|8,0:0|0:0,0:0:0:0:
320,48,26328,5,0,0:0:0:0:
244,100,26486,2,0,L|188:40,2,75,2|2|8,0:0|0:0|0:0,0:0:0:0:
224,188,26960,2,0,B|164:144|80:160,1,150,0|2,0:0|0:0,0:0:0:0:
116,76,27434,1,8,0:0:0:0:
80,328,27749,5,2,0:0:0:0:
147,266,27907,1,2,0:0:0:0:
192,345,28065,1,8,0:0:0:0:
192,345,28223,2,0,P|264:356|345:343,1,150,2|2,0:0|0:0,0:0:0:0:
428,372,28697,2,0,P|478:318|512:244,1,150,8|2,0:0|0:0,0:0:0:0:
468,172,29170,5,2,0:0:0:0:
388,212,29328,1,8,0:0:0:0:
316,160,29486,2,0,L|304:60,2,75,0|2|2,0:0|0:0|0:0,0:0:0:0:
280,324,29960,1,8,0:0:0:0:
256,236,30118,5,8,0:0:0:0:
256,236,30197,1,8,0:0:0:0:
256,236,30276,1,2,0:0:0:0:
136,196,30434,1,8,0:0:0:0:
136,196,30513,1,8,0:0:0:0:
136,196,30592,1,2,0:0:0:0:
40,280,30749,1,8,0:0:0:0:
40,280,30828,1,8,0:0:0:0:
40,280,30907,2,0,B|0:216|16:136,1,150,6|0,0:0|0:0,0:0:0:0:
100,104,31381,5,2,0:0:0:0:
100,104,31460,1,2,0:0:0:0:
100,104,31539,2,0,B|264:104,1,150,8|2,0:0|0:0,0:0:0:0:
340,104,32013,2,0,L|368:200,1,75,2|0,0:0|0:0,0:0:0:0:
448,156,32328,1,8,0:0:0:0:
448,156,32486,2,0,L|427:84,1,75,0|2,0:0|0:0,0:0:0:0:
340,104,32802,2,0,P|324:176|344:252,1,150,8|8,0:0|0:0,0:0:0:0:
172,280,33276,6,0,P|188:208|168:132,1,150,6|2,0:0|0:0,0:0:0:0:
60,120,33749,1,8,0:0:0:0:
60,120,33907,1,8,0:0:0:0:
64,240,34065,1,2,0:0:0:0:
64,240,34223,1,2,0:0:0:0:
128,368,34381,1,8,0:0:0:0:
128,368,34539,2,0,L|292:352,1,150,2|2,0:0|0:0,0:0:0:0:
448,356,35013,5,8,0:0:0:0:
448,356,35170,2,0,P|413:350|366:323,1,75,8|2,0:0|0:0,0:0:0:0:
256,176,35486,1,2,0:0:0:0:
338,214,35644,1,8,0:0:0:0:
268,272,35802,2,0,P|196:276|120:252,1,150,6|2,0:0|0:0,0:0:0:0:
60,120,36276,5,0,0:0:0:0:
148,148,36434,1,2,0:0:0:0:
148,148,36513,1,2,0:0:0:0:
148,148,36592,2,0,L|166:55,1,75,8|0,0:0|0:0,0:0:0:0:
353,140,36907,1,2,0:0:0:0:
353,140,37065,2,0,L|339:213,1,75,2|0,0:0|0:0,0:0:0:0:
256,116,37381,6,0,P|274:75|319:41,1,75,8|0,0:0|0:0,0:0:0:0:
464,160,37697,1,2,0:0:0:0:
464,160,37855,2,0,P|464:121|429:72,1,75,8|2,0:0|0:0,0:0:0:0:
353,140,38170,1,8,0:0:0:0:
384,240,38328,6,0,P|312:224|236:244,1,150,6|2,0:0|0:0,0:0:0:0:
224,352,38801,1,8,0:0:0:0:
224,352,38959,1,8,0:0:0:0:
116,296,39117,1,2,0:0:0:0:
116,296,39275,1,2,0:0:0:0:
52,192,39433,1,8,0:0:0:0:
52,192,39591,2,0,L|36:28,1,150,6|2,0:0|0:0,0:0:0:0:
128,56,40065,6,0,P|202:73|261:121,1,150,8|2,0:0|0:0,0:0:0:0:
224,352,40539,1,2,0:0:0:0:
224,352,40697,1,2,0:0:0:0:
300,236,40855,2,0,P|236:227|148:253,1,150,6|2,0:0|0:0,0:0:0:0:
108,325,41328,1,8,0:0:0:0:
368,172,41644,6,0,P|408:172|456:164,2,75,2|2|8,0:0|0:0|0:0,0:0:0:0:
289,128,42118,2,0,P|213:130|132:120,1,150,2|2,0:0|0:0,0:0:0:0:
12,228,42592,1,8,0:0:0:0:
12,228,42749,2,0,P|88:226|169:236,1,150,2|2,0:0|0:0,0:0:0:0:
360,312,43223,1,8,0:0:0:0:
280,268,43381,6,0,P|269:318|280:354,1,75,2|0,0:0|0:0,0:0:0:0:
176,328,43697,2,0,P|187:278|176:242,2,75,2|8|0,0:0|0:0|0:0,0:0:0:0:
90,351,44170,1,2,0:0:0:0:
90,351,44328,2,0,L|70:255,1,75,2|8,0:0|0:0,0:0:0:0:
164,164,44644,6,0,P|232:164|316:188,1,150,6|2,0:0|0:0,0:0:0:0:
432,60,45118,1,8,0:0:0:0:
432,60,45276,2,0,P|364:60|280:84,1,150,6|2,0:0|0:0,0:0:0:0:
48,156,45749,1,8,0:0:0:0:
48,156,45907,2,0,P|68:228|132:276,1,150,6|2,0:0|0:0,0:0:0:0:
324,232,46381,5,8,0:0:0:0:
260,168,46539,1,8,0:0:0:0:
236,256,46697,1,2,0:0:0:0:
301,318,46855,2,0,P|344:320|380:304,1,75,2|8,0:0|0:0,0:0:0:0:
464,228,47170,6,0,P|444:156|380:108,1,150,6|2,0:0|0:0,0:0:0:0:
188,152,47644,1,8,0:0:0:0:
252,216,47802,1,8,0:0:0:0:
276,128,47960,1,2,0:0:0:0:
211,66,48118,2,0,P|168:64|132:80,1,75,2|8,0:0|0:0,0:0:0:0:
108,221,48434,2,0,B|182:257|254:214,1,150,6|2,0:0|0:0,0:0:0:0:
366,144,48907,5,8,0:0:0:0:
252,216,49065,1,2,0:0:0:0:
371,280,49223,1,8,0:0:0:0:
366,144,49381,5,2,0:0:0:0:
288,292,49539,1,8,0:0:0:0:
456,288,49697,1,6,0:0:0:0:
256,192,49776,12,2,50960,0:0:0:0:
160,316,51907,6,0,P|153:292|155:267,2,37.5,2|2|12,0:0|0:0|0:0,0:0:0:0:
312,140,52381,6,0,B|388:136|448:192,2,150,6|8|2,0:0|0:0|0:0,0:0:0:0:
228,172,53170,1,2,0:0:0:0:
160,116,53328,2,0,L|138:26,1,75,8|0,0:0|0:0,0:0:0:0:
104,184,53644,2,0,L|87:256,1,75,2|2,0:0|0:0,0:0:0:0:
196,324,53960,2,0,L|174:234,1,75,8|0,0:0|0:0,0:0:0:0:
340,208,54276,5,2,0:0:0:0:
300,288,54434,2,0,P|286:319|285:377,1,75,2|8,0:0|0:0,0:0:0:0:
440,248,54749,2,0,B|456:160|379:108,1,150,6|2,0:0|0:0,0:0:0:0:
340,208,55223,2,0,L|168:199,1,150,8|2,0:0|0:0,0:0:0:0:
40,180,55697,5,2,0:0:0:0:
116,136,55855,1,8,0:0:0:0:
132,224,56013,2,0,L|144:320,1,75,0|2,0:0|0:0,0:0:0:0:
56,340,56328,2,0,L|47:265,1,75,2|8,0:0|0:0,0:0:0:0:
48,44,56802,6,0,P|128:36|200:64,1,150,2|8,0:0|0:0,0:0:0:0:
316,216,57276,2,0,P|396:224|468:196,1,150,6|2,0:0|0:0,0:0:0:0:
384,56,57749,1,8,0:0:0:0:
384,56,57907,2,0,L|376:142,2,75,0|2|2,0:0|0:0|0:0,0:0:0:0:
212,148,58381,5,8,0:0:0:0:
212,148,58539,2,0,L|228:300,1,150,2|2,0:0|0:0,0:0:0:0:
316,216,59013,1,8,0:0:0:0:
316,216,59170,2,0,P|396:224|468:196,1,150,2|2,0:0|0:0,0:0:0:0:
480,340,59644,1,8,0:0:0:0:
480,340,59802,2,0,P|400:332|328:360,1,150,2|2,0:0|0:0,0:0:0:0:
239,295,60276,6,0,B|227:212|207:119,1,150,12|2,0:0|0:0,0:0:0:0:
116,176,60749,1,2,0:0:0:0:
116,176,60907,2,0,B|101:87|169:38,1,150,12|2,0:0|0:0,0:0:0:0:
260,40,61381,1,2,0:0:0:0:
260,40,61539,2,0,L|376:51,1,112.5,12|8,0:0|0:0,0:0:0:0:
392,56,61855,1,2,0:0:0:0:
460,128,62013,5,8,0:0:0:0:
463,146,62092,1,8,0:0:0:0:
464,164,62170,1,10,0:0:0:0:
462,182,62249,1,8,0:0:0:0:
458,200,62328,1,8,0:0:0:0:
452,217,62407,1,8,0:0:0:0:
444,233,62486,2,0,L|281:248,1,150,6|8,0:0|0:0,0:0:0:0:
24,248,63118,6,0,L|35:342,1,75,2|2,0:0|0:0,0:0:0:0:
120,344,63434,2,0,P|188:328|272:344,1,150,8|2,0:0|0:0,0:0:0:0:
356,352,63907,2,0,L|444:352,1,75,2|8,0:0|0:0,0:0:0:0:
488,192,64223,1,0,0:0:0:0:
410,237,64381,1,2,0:0:0:0:
488,283,64539,1,2,0:0:0:0:
404,148,64697,1,8,0:0:0:0:
404,148,64855,2,0,L|234:125,1,150,6|2,0:0|0:0,0:0:0:0:
52,32,65328,5,8,0:0:0:0:
52,32,65486,2,0,L|201:52,1,150,2|2,0:0|0:0,0:0:0:0:
304,232,65960,1,8,0:0:0:0:
304,232,66118,2,0,L|134:209,1,150,2|2,0:0|0:0,0:0:0:0:
64,196,66592,1,8,0:0:0:0:
228,144,66907,5,2,0:0:0:0:
148,104,67065,1,2,0:0:0:0:
192,26,67223,1,8,0:0:0:0:
266,68,67381,1,6,0:0:0:0:
412,316,67697,6,0,P|448:324|495:314,2,75,2|8|0,0:0|0:0|0:0,0:0:0:0:
323,334,68170,2,0,P|323:290|342:254,1,75,2|2,0:0|0:0,0:0:0:0:
264,208,68486,1,8,0:0:0:0:
200,360,68644,1,2,0:0:0:0:
364,164,68960,6,0,P|384:133|425:107,1,75,2|8,0:0|0:0,0:0:0:0:
456,288,69276,2,0,B|388:328|308:312,1,150,0|2,0:0|0:0,0:0:0:0:
236,192,69749,1,8,0:0:0:0:
236,192,69907,2,0,L|72:202,1,150,2|2,0:0|0:0,0:0:0:0:
28,364,70381,6,0,L|192:354,1,150,8|2,0:0|0:0,0:0:0:0:
371,266,70855,1,0,0:0:0:0:
294,314,71013,1,8,0:0:0:0:
222,262,71170,2,0,P|221:221|245:184,1,75,2|0,0:0|0:0,0:0:0:0:
326,186,71486,5,2,0:0:0:0:
263,77,71644,2,0,B|199:46|109:80,1,150,12|2,0:0|0:0,0:0:0:0:
64,192,72118,1,8,0:0:0:0:
61,210,72197,1,8,0:0:0:0:
60,228,72275,1,10,0:0:0:0:
62,246,72354,1,8,0:0:0:0:
66,264,72433,1,8,0:0:0:0:
72,281,72512,1,8,0:0:0:0:
80,297,72591,2,0,L|168:316,1,75,6|2,0:0|0:0,0:0:0:0:
326,186,72907,5,8,0:0:0:0:
326,186,73065,2,0,P|260:188|184:232,1,150,2|2,0:0|0:0,0:0:0:0:
320,356,73539,1,8,0:0:0:0:
320,356,73697,2,0,P|386:354|462:310,1,150,6|2,0:0|0:0,0:0:0:0:
428,108,74170,6,0,L|420:204,1,75,8|2,0:0|0:0,0:0:0:0:
256,100,74486,2,0,L|256:184,1,75,8|2,0:0|0:0,0:0:0:0:
84,108,74802,2,0,L|92:204,1,75,8|2,0:0|0:0,0:0:0:0:
148,356,75118,6,0,B|176:294|176:294|176:210,1,150,6|8,0:0|0:0,0:0:0:0:
91,182,75592,2,0,L|84:108,1,75,2|0,0:0|0:0,0:0:0:0:
170,82,75907,2,0,P|182:42|214:18,1,75,2|8,0:0|0:0,0:0:0:0:
256,100,76223,2,0,B|328:80|408:92,1,150,6|2,0:0|0:0,0:0:0:0:
480,40,76697,6,0,P|492:112|452:176,1,150,8|2,0:0|0:0,0:0:0:0:
316,204,77170,1,8,0:0:0:0:
316,204,77249,1,8,0:0:0:0:
316,204,77328,1,8,0:0:0:0:
260,352,77486,1,8,0:0:0:0:
260,352,77565,1,8,0:0:0:0:
260,352,77644,2,0,L|425:338,1,150,6|8,0:0|0:0,0:0:0:0:
316,204,78118,6,0,L|151:218,1,150,2|2,0:0|0:0,0:0:0:0:
76,224,78592,1,8,0:0:0:0:
176,368,78749,1,6,0:0:0:0:
236,48,79065,5,2,0:0:0:0:
168,108,79223,2,0,P|148:72|148:12,1,75,8|2,0:0|0:0,0:0:0:0:
332,36,79539,2,0,P|327:72|308:105,1,75,8|2,0:0|0:0,0:0:0:0:
236,48,79855,1,8,0:0:0:0:
260,176,80013,2,0,B|284:208|288:248,1,75,8|6,0:0|0:0,0:0:0:0:
220,304,80328,5,2,0:0:0:0:
145,354,80486,1,8,0:0:0:0:
137,266,80644,1,6,0:0:0:0:
344,132,80960,5,2,0:0:0:0:
419,82,81118,1,8,0:0:0:0:
427,170,81276,2,0,L|401:341,1,150,6|2,0:0|0:0,0:0:0:0:
292,339,81749,6,2,P|278:304|276:259,1,75
201,218,82065,2,2,P|166:232|121:234,1,75
63,113,82381,2,2,P|98:127|143:129,1,75
134,129,82618,1,0,0:0:0:0:
134,129,82697,1,6,0:0:0:0:
444,56,83013,5,0,0:0:0:0:
444,56,83170,2,0,B|289:73|373:90|225:103,1,225
201,218,83802,2,0,P|236:224|280:219,1,75,0|6,0:0|0:0,0:0:0:0:
424,296,89328,6,0,P|376:248|339:165,2,150
248,72,90276,5,2,0:0:0:0:
184,228,90434,1,8,0:0:0:0:
184,228,90592,2,0,P|109:218|24:216,1,150,8|8,0:0|0:0,0:0:0:0:
28,200,90986,1,8,0:0:0:0:
20,183,91065,1,8,0:0:0:0:
16,164,91144,1,8,0:0:0:0:
15,145,91223,1,8,0:0:0:0:
18,126,91302,1,8,0:0:0:0:
24,108,91381,2,0,P|76:64|164:48,1,150,6|2,0:0|0:0,0:0:0:0:
338,82,91855,6,0,L|330:178,1,75,8|0,0:0|0:0,0:0:0:0:
242,146,92170,2,0,L|249:71,1,75,2|2,0:0|0:0,0:0:0:0:
136,148,92486,1,8,0:0:0:0:
136,148,92644,2,0,P|161:218|224:256,1,150,2|2,0:0|0:0,0:0:0:0:
312,240,93118,1,8,0:0:0:0:
396,268,93276,2,0,L|378:351,1,75,0|2,0:0|0:0,0:0:0:0:
312,240,93592,2,0,L|328:166,1,75,2|8,0:0|0:0,0:0:0:0:
288,332,93907,6,0,P|216:352|136:344,1,150,2|2,0:0|0:0,0:0:0:0:
56,316,94381,1,8,0:0:0:0:
136,148,94539,1,0,0:0:0:0:
178,228,94697,2,0,P|142:236|105:232,1,75,2|2,0:0|0:0,0:0:0:0:
136,148,95013,1,8,0:0:0:0:
96,68,95170,2,0,P|133:59|170:63,1,75,2|0,0:0|0:0,0:0:0:0:
286,132,95486,5,2,0:0:0:0:
286,132,95644,2,0,L|105:151,1,150,8|2,0:0|0:0,0:0:0:0:
16,196,96118,1,2,0:0:0:0:
28,354,96276,1,8,0:0:0:0:
144,300,96434,6,0,P|220:284|296:296,1,150,6|2,0:0|0:0,0:0:0:0:
349,190,96907,2,0,P|425:206|501:194,1,150,8|2,0:0|0:0,0:0:0:0:
488,104,97381,1,2,0:0:0:0:
400,84,97539,1,8,0:0:0:0:
312,108,97697,6,0,L|276:268,1,150,2|2,0:0|0:0,0:0:0:0:
343,317,98170,1,12,0:0:0:0:
423,273,98328,1,0,0:0:0:0:
462,191,98486,2,0,P|418:183|378:195,1,75,2|8,0:0|0:0,0:0:0:0:
343,317,98802,1,8,0:0:0:0:
476,348,98960,1,6,0:0:0:0:
284,336,99434,5,2,0:0:0:0:
196,316,99749,1,2,0:0:0:0:
108,300,100065,1,2,0:0:0:0:
108,300,100223,2,0,P|106:259|117:215,1,75,12|2,0:0|0:0,0:0:0:0:
148,142,100539,2,0,P|170:108|205:78,1,75,12|8,0:0|0:0,0:0:0:0:
285,73,100855,1,2,0:0:0:0:
374,78,101013,6,0,L|385:170,1,75,8|8,0:0|0:0,0:0:0:0:
472,104,101328,1,8,0:0:0:0:
472,104,101486,1,6,0:0:0:0:
192,200,101802,5,2,0:0:0:0:
280,184,101960,2,0,P|292:144|284:100,2,75,8|0|2,0:0|0:0|0:0,0:0:0:0:
192,200,102434,2,0,P|152:188|108:196,1,75,2|8,0:0|0:0,0:0:0:0:
252,276,102749,2,0,L|414:264,1,150,2|2,0:0|0:0,0:0:0:0:
468,204,103223,1,8,0:0:0:0:
352,80,103381,5,0,0:0:0:0:
366,168,103539,1,2,0:0:0:0:
436,112,103697,1,2,0:0:0:0:
352,80,103855,1,8,0:0:0:0:
284,139,104013,5,2,0:0:0:0:
202,174,104170,2,0,P|164:172|120:160,1,75,0|2,0:0|0:0,0:0:0:0:
212,80,104486,1,8,0:0:0:0:
276,232,104644,1,0,0:0:0:0:
193,268,104802,6,0,P|154:275|99:262,2,75,2|2|8,0:0|0:0|0:0,0:0:0:0:
276,232,105276,2,0,P|332:264|420:268,1,150,2|2,0:0|0:0,0:0:0:0:
312,352,105749,1,8,0:0:0:0:
96,180,106065,6,0,P|111:138|136:105,1,75,2|2,0:0|0:0,0:0:0:0:
212,80,106381,1,8,0:0:0:0:
205,169,106539,2,0,P|181:237|113:289,1,150,2|2,0:0|0:0,0:0:0:0:
32,280,107013,2,0,P|100:304|152:372,1,150,8|2,0:0|0:0,0:0:0:0:
236,348,107486,1,2,0:0:0:0:
200,264,107644,1,8,0:0:0:0:
288,272,107802,6,0,P|350:236|436:241,1,150,2|2,0:0|0:0,0:0:0:0:
380,348,108276,1,12,0:0:0:0:
492,320,108434,1,8,0:0:0:0:
492,320,108513,1,8,0:0:0:0:
492,320,108592,1,2,0:0:0:0:
512,148,108749,5,2,0:0:0:0:
421,146,108907,2,0,P|427:106|461:74,1,75,2|2,0:0|0:0,0:0:0:0:
376,26,109223,2,0,B|324:87|332:172,1,150,6|0,0:0|0:0,0:0:0:0:
136,358,109697,5,2,0:0:0:0:
136,358,109776,1,2,0:0:0:0:
136,358,109855,2,0,B|188:297|180:212,1,150,12|8,0:0|0:0,0:0:0:0:
92,200,110328,2,0,B|72:124|72:124|96:52,1,150,2|8,0:0|0:0,0:0:0:0:
188,60,110802,5,0,0:0:0:0:
188,60,110960,2,0,L|168:132,1,75,2|8,0:0|0:0,0:0:0:0:
256,160,111276,1,2,0:0:0:0:
256,160,111434,1,8,0:0:0:0:
304,84,111592,2,0,P|384:80|456:100,1,150,6|2,0:0|0:0,0:0:0:0:
324,232,112065,5,8,0:0:0:0:
324,232,112223,1,8,0:0:0:0:
156,200,112381,1,2,0:0:0:0:
156,200,112539,1,2,0:0:0:0:
128,368,112697,1,8,0:0:0:0:
128,368,112855,2,0,L|292:352,1,150,2|2,0:0|0:0,0:0:0:0:
448,356,113329,5,8,0:0:0:0:
448,356,113486,2,0,P|413:350|366:323,1,75,8|2,0:0|0:0,0:0:0:0:
360,128,113802,1,2,0:0:0:0:
398,46,113960,1,8,0:0:0:0:
456,116,114118,2,0,P|460:188|436:264,1,150,6|2,0:0|0:0,0:0:0:0:
274,324,114592,5,0,0:0:0:0:
346,201,114749,1,2,0:0:0:0:
346,201,114828,1,2,0:0:0:0:
346,201,114907,2,0,L|364:102,1,75,8|0,0:0|0:0,0:0:0:0:
256,176,115223,1,2,0:0:0:0:
256,176,115381,2,0,L|276:336,1,150,2|8,0:0|0:0,0:0:0:0:
364,340,115855,5,0,0:0:0:0:
176,316,116013,1,2,0:0:0:0:
176,316,116092,1,2,0:0:0:0:
176,316,116170,1,8,0:0:0:0:
94,354,116328,2,0,P|82:318|106:266,1,75,2|8,0:0|0:0,0:0:0:0:
111,193,116644,2,0,P|190:168|274:182,1,150,6|2,0:0|0:0,0:0:0:0:
316,244,117118,5,8,0:0:0:0:
316,244,117276,1,8,0:0:0:0:
252,72,117434,1,2,0:0:0:0:
252,72,117592,1,2,0:0:0:0:
72,96,117749,1,8,0:0:0:0:
72,96,117907,2,0,P|100:127|216:169,1,150,6|2,0:0|0:0,0:0:0:0:
352,120,118381,6,0,L|364:24,1,75,8|0,0:0|0:0,0:0:0:0:
480,100,118697,2,0,L|470:174,1,75,8|2,0:0|0:0,0:0:0:0:
352,120,119013,1,2,0:0:0:0:
480,100,119170,1,6,0:0:0:0:
384,284,119486,5,2,0:0:0:0:
461,330,119644,2,0,P|473:286|469:258,1,75,8|0,0:0|0:0,0:0:0:0:
308,240,119960,2,0,P|296:284|300:312,1,75,2|2,0:0|0:0,0:0:0:0:
384,284,120276,1,8,0:0:0:0:
388,194,120434,2,0,P|324:154|253:165,1,150,2|2,0:0|0:0,0:0:0:0:
173,359,120907,1,8,0:0:0:0:
173,359,121065,2,0,L|339:351,1,150,2|2,0:0|0:0,0:0:0:0:
464,228,121539,1,8,0:0:0:0:
376,249,121697,6,0,P|299:244|218:263,1,150,2|2,0:0|0:0,0:0:0:0:
64,228,122171,1,8,0:0:0:0:
138,178,122328,1,0,0:0:0:0:
143,265,122486,1,2,0:0:0:0:
64,228,122644,5,2,0:0:0:0:
220,216,122802,1,8,0:0:0:0:
60,140,122960,1,6,0:0:0:0:
272,72,123276,5,2,0:0:0:0:
362,70,123434,1,8,0:0:0:0:
436,121,123592,2,0,P|451:159|435:272,1,150,6|2,0:0|0:0,0:0:0:0:
384,336,124065,1,8,0:0:0:0:
296,320,124223,2,0,B|224:300|148:328,1,150,6|2,0:0|0:0,0:0:0:0:
116,152,124697,5,8,0:0:0:0:
180,216,124855,1,8,0:0:0:0:
92,240,125013,1,2,0:0:0:0:
30,175,125171,2,0,P|28:132|44:96,1,75,2|8,0:0|0:0,0:0:0:0:
204,128,125486,6,0,P|278:113|352:140,1,150,6|2,0:0|0:0,0:0:0:0:
404,308,125960,1,8,0:0:0:0:
468,244,126118,1,8,0:0:0:0:
380,220,126276,1,2,0:0:0:0:
318,285,126434,2,0,P|316:328|332:364,1,75,2|8,0:0|0:0,0:0:0:0:
216,324,126749,6,0,P|221:248|268:185,1,150,6|2,0:0|0:0,0:0:0:0:
156,132,127223,2,0,L|132:44,1,75,8|2,0:0|0:0,0:0:0:0:
64,171,127539,2,0,L|44:244,1,75,8|2,0:0|0:0,0:0:0:0:
194,285,127855,1,8,0:0:0:0:
48,336,128013,1,6,0:0:0:0:
256,192,128092,12,12,129276,0:0:0:0:
148,224,129592,6,0,P|132:261|125:310,2,75,0|2|0,0:0|0:0|0:0,0:0:0:0:
253,122,130065,2,0,P|269:85|276:36,2,75,2|0|2,0:0|0:0|0:0,0:0:0:0:
148,224,130539,1,0,0:0:0:0:
253,326,130697,6,0,P|289:326|337:302,1,75,6|0,0:0|0:0,0:0:0:0:
401,362,131013,2,0,P|424:335|437:283,1,75,8|0,0:0|0:0,0:0:0:0:
493,230,131328,2,0,L|475:158,1,75,2|2,0:0|0:0,0:0:0:0:
301,66,131644,2,0,L|293:157,1,75,8|0,0:0|0:0,0:0:0:0:
326,226,131960,2,0,P|363:226|402:200,1,75,2|2,0:0|0:0,0:0:0:0:
223,216,132276,6,0,L|139:224,1,75,8|0,0:0|0:0,0:0:0:0:
40,68,132592,1,2,0:0:0:0:
40,68,132750,2,0,P|28:108|36:144,1,75,2|8,0:0|0:0,0:0:0:0:
125,114,133065,2,0,B|142:197|233:218,1,150,6|2,0:0|0:0,0:0:0:0:
455,182,133539,2,0,L|477:344,1,150,8|2,0:0|0:0,0:0:0:0:
387,314,134013,5,2,0:0:0:0:
387,314,134171,1,8,0:0:0:0:
303,346,134329,2,0,P|294:309|306:261,1,75,0|2,0:0|0:0,0:0:0:0:
215,238,134644,2,0,L|199:314,1,75,2|8,0:0|0:0,0:0:0:0:
116,216,134960,5,0,0:0:0:0:
116,216,135118,2,0,P|108:176|93:139,2,75,2|2|8,0:0|0:0|0:0,0:0:0:0:
16,196,135592,2,0,P|8:116|44:60,1,150,6|2,0:0|0:0,0:0:0:0:
127,94,136065,1,8,0:0:0:0:
127,94,136223,2,0,L|206:41,2,75,0|2|2,0:0|0:0|0:0,0:0:0:0:
283,94,136697,5,8,0:0:0:0:
283,94,136855,2,0,P|311:150|303:242,1,150,2|2,0:0|0:0,0:0:0:0:
227,282,137329,1,8,0:0:0:0:
227,282,137486,2,0,P|307:274|379:302,1,150,2|2,0:0|0:0,0:0:0:0:
451,338,137960,1,8,0:0:0:0:
492,208,138118,5,2,0:0:0:0:
492,208,138276,2,0,P|412:216|340:188,1,150,0|12,0:0|0:0,0:0:0:0:
227,282,138749,1,0,0:0:0:0:
227,282,138907,2,0,B|245:132,1,150,2|12,0:0|0:0,0:0:0:0:
327,70,139381,5,0,0:0:0:0:
327,70,139539,2,0,P|259:37|173:59,1,150,2|12,0:0|0:0,0:0:0:0:
239,194,140013,1,0,0:0:0:0:
239,194,140092,1,8,0:0:0:0:
239,194,140171,1,2,0:0:0:0:
348,160,140329,5,8,0:0:0:0:
366,157,140408,1,8,0:0:0:0:
384,156,140486,1,10,0:0:0:0:
402,158,140565,1,8,0:0:0:0:
420,162,140644,1,8,0:0:0:0:
437,168,140723,1,8,0:0:0:0:
453,176,140802,2,0,L|468:339,1,150,6|8,0:0|0:0,0:0:0:0:
353,354,141276,5,0,0:0:0:0:
353,354,141434,2,0,L|342:260,1,75,2|2,0:0|0:0,0:0:0:0:
273,194,141750,2,0,P|205:210|121:194,1,150,8|2,0:0|0:0,0:0:0:0:
117,58,142223,2,0,L|205:58,1,75,2|8,0:0|0:0,0:0:0:0:
273,194,142539,5,0,0:0:0:0:
195,149,142697,1,2,0:0:0:0:
273,103,142855,1,2,0:0:0:0:
189,238,143013,1,8,0:0:0:0:
189,238,143171,2,0,L|19:261,1,150,6|2,0:0|0:0,0:0:0:0:
137,354,143644,5,8,0:0:0:0:
137,354,143802,2,0,L|286:334,1,150,0|2,0:0|0:0,0:0:0:0:
409,175,144276,1,8,0:0:0:0:
409,175,144434,2,0,P|393:95|360:27,1,150,2|2,0:0|0:0,0:0:0:0:
273,103,144908,1,8,0:0:0:0:
273,103,145223,5,2,0:0:0:0:
233,23,145381,1,2,0:0:0:0:
155,67,145539,1,8,0:0:0:0:
197,141,145697,2,0,P|209:215|169:299,1,150,6|2,0:0|0:0,0:0:0:0:
32,192,146170,5,8,0:0:0:0:
32,192,146328,1,0,0:0:0:0:
21,281,146486,2,0,P|21:325|40:361,1,75,2|2,0:0|0:0,0:0:0:0:
191,351,146802,1,8,0:0:0:0:
268,302,146960,6,0,P|344:279|421:290,1,150,2|2,0:0|0:0,0:0:0:0:
321,94,147434,1,8,0:0:0:0:
321,94,147592,2,0,B|469:118,1,150,2|2,0:0|0:0,0:0:0:0:
352,344,148065,1,8,0:0:0:0:
312,200,148223,2,0,P|237:199|168:231,1,150,6|2,0:0|0:0,0:0:0:0:
224,352,148697,6,0,P|187:349|137:360,1,75,2|2,0:0|0:0,0:0:0:0:
36,292,149013,2,0,P|24:256|21:205,1,75,2|2,0:0|0:0,0:0:0:0:
60,96,149328,2,0,P|73:60|105:22,1,75,2|8,0:0|0:0,0:0:0:0:
312,24,149644,2,0,P|333:61|339:105,1,75,6|0,0:0|0:0,0:0:0:0:
236,88,149960,5,0,0:0:0:0:
236,88,150118,1,0,0:0:0:0:
339,192,150276,1,2,0:0:0:0:
337,210,150355,1,2,0:0:0:0:
333,228,150434,1,2,0:0:0:0:
327,245,150513,1,2,0:0:0:0:
319,261,150592,2,0,P|251:292|175:304,1,150,12|6,0:0|0:0,0:0:0:0:
256,192,150986,12,6,153434,0:0:0:0:
368,52,161013,5,6,0:0:0:0:
352,232,161328,1,8,0:0:0:0:
200,136,161644,1,2,0:0:0:0:
200,136,161802,1,2,0:0:0:0:
128,188,161960,1,8,0:0:0:0:
272,344,162276,5,2,0:0:0:0:
272,344,162434,1,2,0:0:0:0:
360,332,162592,1,8,0:0:0:0:
336,136,162907,1,2,0:0:0:0:
268,196,163065,1,8,0:0:0:0:
200,136,163223,2,0,P|252:100|300:16,2,150,8|6|8,0:0|0:0|0:0,0:0:0:0:
104,344,164171,5,2,0:0:0:0:
192,360,164328,1,2,0:0:0:0:
272,316,164486,1,12,0:0:0:0:
400,136,164802,6,0,P|456:136|540:116,2,112.5,6|6|6,0:0|0:0|0:0,0:0:0:0:
320,92,165434,2,0,P|264:92|180:112,2,112.5,2|2|2,0:0|0:0|0:0,0:0:0:0:
400,44,166065,1,6,0:0:0:0:
40,168,166381,6,0,B|11:93|47:21,1,150,8|2,0:0|0:0,0:0:0:0:
124,68,166855,1,2,0:0:0:0:
124,68,167013,1,8,0:0:0:0:
212,60,167170,2,0,L|228:140,1,75,0|2,0:0|0:0,0:0:0:0:
304,184,167486,5,2,0:0:0:0:
384,136,167644,1,8,0:0:0:0:
448,204,167802,2,0,P|456:248|448:280,2,75,0|2|8,0:0|0:0|0:0,0:0:0:0:
384,136,168276,1,8,0:0:0:0:
332,272,168434,5,0,0:0:0:0:
332,272,168592,2,0,L|176:288,1,150,6|8,0:0|0:0,0:0:0:0:
256,64,169223,2,0,L|412:48,1,150,2|8,0:0|0:0,0:0:0:0:
492,76,169697,1,6,0:0:0:0:
332,212,170013,6,0,P|296:210|240:201,1,75,2|8,0:0|0:0,0:0:0:0:
168,184,170328,1,6,0:0:0:0:
428,180,170644,5,2,0:0:0:0:
512,212,170802,1,8,0:0:0:0:
512,212,170960,1,0,0:0:0:0:
484,296,171118,2,0,P|416:312|332:300,1,150,6|8,0:0|0:0,0:0:0:0:
256,60,171749,5,2,0:0:0:0:
256,60,171907,2,0,P|296:52|336:60,1,75,2|8,0:0|0:0,0:0:0:0:
296,144,172223,2,0,P|256:152|216:144,1,75,0|2,0:0|0:0,0:0:0:0:
136,120,172539,1,2,0:0:0:0:
112,208,172697,1,8,0:0:0:0:
44,148,172855,2,0,L|24:72,1,75,0|2,0:0|0:0,0:0:0:0:
200,192,173170,2,0,L|220:268,1,75,8|8,0:0|0:0,0:0:0:0:
342,283,173486,5,0,0:0:0:0:
342,283,173644,2,0,B|295:223|297:138,2,150,6|8|2,0:0|0:0|0:0,0:0:0:0:
432,300,174434,1,2,0:0:0:0:
452,212,174592,1,8,0:0:0:0:
450,194,174671,1,8,0:0:0:0:
446,176,174750,1,8,0:0:0:0:
440,159,174829,1,8,0:0:0:0:
432,143,174908,2,0,P|412:92|372:36,2,112.5,6|6|6,0:0|0:0|0:0,0:0:0:0:
304,112,175539,6,0,L|294:215,1,75,2|2,0:0|0:0,0:0:0:0:
208,112,175855,2,0,L|216:186,1,75,2|2,0:0|0:0,0:0:0:0:
80,143,176170,6,0,P|100:92|179:21,2,150,6|8|2,0:0|0:0|0:0,0:0:0:0:
80,143,176960,1,2,0:0:0:0:
128,220,177118,1,8,0:0:0:0:
128,220,177276,2,0,P|96:234|47:227,1,75,0|2,0:0|0:0,0:0:0:0:
192,288,177592,2,0,P|224:274|273:281,1,75,2|8,0:0|0:0,0:0:0:0:
344,320,177907,2,0,P|376:256|452:188,1,150,0|2,0:0|0:0,0:0:0:0:
492,268,178381,5,8,0:0:0:0:
432,336,178539,1,0,0:0:0:0:
344,320,178697,2,0,L|320:156,1,150,2|8,0:0|0:0,0:0:0:0:
348,84,179170,2,0,P|365:63|386:47,2,37.5,0|8|2,0:0|0:0|0:0,0:0:0:0:
408,152,179486,1,2,0:0:0:0:
468,84,179644,1,8,0:0:0:0:
436,240,179802,6,0,P|400:244|356:228,1,75,0|2,0:0|0:0,0:0:0:0:
284,192,180118,1,2,0:0:0:0:
196,168,180276,2,0,P|160:164|116:180,1,75,8|2,0:0|0:0,0:0:0:0:
252,104,180592,2,0,P|256:68|240:24,1,75,8|2,0:0|0:0,0:0:0:0:
284,192,180907,2,0,P|320:196|364:180,1,75,8|2,0:0|0:0,0:0:0:0:
348,84,181223,1,6,0:0:0:0:
208,360,181539,6,0,B|144:392|56:360,1,150,8|2,0:0|0:0,0:0:0:0:
16,284,182013,2,0,L|8:196,1,75,2|8,0:0|0:0,0:0:0:0:
100,196,182328,2,0,L|107:270,1,75,0|2,0:0|0:0,0:0:0:0:
107,270,182644,1,2,0:0:0:0:
192,220,182802,1,8,0:0:0:0:
192,220,182960,2,0,L|186:145,1,75,0|2,0:0|0:0,0:0:0:0:
372,176,183276,5,2,0:0:0:0:
372,176,183434,1,8,0:0:0:0:
288,232,183591,1,0,0:0:0:0:
288,232,183749,2,0,P|346:270|427:261,1,150,2|8,0:0|0:0,0:0:0:0:
344,56,184381,6,0,P|387:54|439:76,2,75,2|2|8,0:0|0:0|0:0,0:0:0:0:
192,220,184855,2,0,P|156:220|108:204,1,75,2|8,0:0|0:0,0:0:0:0:
192,220,185170,1,2,0:0:0:0:
224,304,185328,2,0,P|224:340|208:388,1,75,8|2,0:0|0:0,0:0:0:0:
368,176,185644,2,0,P|384:212|384:252,1,75,8|2,0:0|0:0,0:0:0:0:
284,320,185960,6,0,P|211:314|139:270,2,150,2|6|0,0:0|0:0|0:0,0:0:0:0:
296,212,186749,1,2,0:0:0:0:
296,212,186828,1,2,0:0:0:0:
296,212,186907,2,0,L|204:191,1,75,12|0,0:0|0:0,0:0:0:0:
136,76,187223,1,2,0:0:0:0:
136,76,187381,2,0,L|228:55,1,75,2|0,0:0|0:0,0:0:0:0:
416,136,187697,6,0,P|432:212|432:288,1,150,8|2,0:0|0:0,0:0:0:0:
232,268,188170,2,0,P|156:284|80:284,1,150,8|8,0:0|0:0,0:0:0:0:
136,76,188644,1,8,0:0:0:0:
136,76,188723,1,8,0:0:0:0:
136,76,188802,2,0,P|168:140|236:184,1,150,6|2,0:0|0:0,0:0:0:0:
416,136,189276,5,2,0:0:0:0:
416,136,189434,2,0,L|400:304,1,150,12|8,0:0|0:0,0:0:0:0:
322,325,189907,1,2,0:0:0:0:
252,52,190223,1,8,0:0:0:0:
252,52,190381,1,0,0:0:0:0:
228,176,190539,5,2,0:0:0:0:
228,176,190618,1,2,0:0:0:0:
228,176,190697,2,0,L|324:164,1,75,8|2,0:0|0:0,0:0:0:0:
168,100,191013,2,0,P|97:66|21:70,2,150,2|6|0,0:0|0:0|0:0,0:0:0:0:
84,168,191802,5,2,0:0:0:0:
84,168,191881,1,2,0:0:0:0:
84,168,191960,2,0,L|99:334,1,150,12|8,0:0|0:0,0:0:0:0:
176,364,192434,1,2,0:0:0:0:
428,216,192749,2,0,L|413:50,1,150,8|2,0:0|0:0,0:0:0:0:
328,24,193223,6,0,P|304:60|296:100,1,75,8|2,0:0|0:0,0:0:0:0:
208,108,193539,2,0,P|209:151|226:188,1,75,8|2,0:0|0:0,0:0:0:0:
308,212,193855,1,2,0:0:0:0:
288,300,194013,1,2,0:0:0:0:
204,276,194170,1,8,0:0:0:0:
308,212,194328,1,2,0:0:0:0:
308,212,194644,5,2,0:0:0:0:
224,368,194802,1,8,0:0:0:0:
136,216,194960,1,6,0:0:0:0:
424,148,195276,5,8,0:0:0:0:
348,100,195434,1,8,0:0:0:0:
264,132,195592,2,0,P|243:135|202:126,3,37.5,8|8|8|8,0:0|0:0|0:0|0:0,0:0:0:0:
156,96,195908,2,0,P|139:86|114:79,3,37.5,8|8|8|0,0:0|0:0|0:0|0:0,0:0:0:0:
44,100,196223,2,0,P|28:172|48:244,1,150,6|2,0:0|0:0,0:0:0:0:
16,328,196697,2,0,L|168:320,1,150,8|2,0:0|0:0,0:0:0:0:
252,292,197170,5,2,0:0:0:0:
320,352,197328,1,8,0:0:0:0:
368,276,197486,2,0,P|420:212|492:184,1,150,2|2,0:0|0:0,0:0:0:0:
500,276,197960,1,8,0:0:0:0:
484,364,198118,2,0,L|404:360,1,75,0|2,0:0|0:0,0:0:0:0:
252,292,198434,5,2,0:0:0:0:
176,352,198592,1,8,0:0:0:0:
176,352,198749,2,0,P|160:316|161:274,1,75,2|0,0:0|0:0,0:0:0:0:
68,276,199065,2,0,P|76:237|101:204,1,75,2|8,0:0|0:0,0:0:0:0:
284,60,199539,5,2,0:0:0:0:
356,116,199697,1,2,0:0:0:0:
272,152,199855,1,8,0:0:0:0:
284,60,200013,1,6,0:0:0:0:
208,336,200328,5,2,0:0:0:0:
152,264,200486,1,8,0:0:0:0:
240,248,200644,2,0,P|288:292|372:320,1,150,6|2,0:0|0:0,0:0:0:0:
272,152,201118,1,8,0:0:0:0:
272,152,201276,2,0,L|120:180,1,150,6|2,0:0|0:0,0:0:0:0:
352,196,201749,6,0,P|364:156|356:108,2,75,8|8|2,0:0|0:0|0:0,0:0:0:0:
224,72,202223,2,0,P|264:60|312:68,1,75,2|8,0:0|0:0,0:0:0:0:
272,152,202539,2,0,L|255:328,1,150,6|2,0:0|0:0,0:0:0:0:
180,349,203013,6,0,P|168:306|176:262,1,75,8|8,0:0|0:0,0:0:0:0:
348,280,203328,2,0,P|350:317|339:352,1,75,2|2,0:0|0:0,0:0:0:0:
160,196,203644,1,8,0:0:0:0:
160,196,203802,2,0,P|107:159|21:156,1,150,6|2,0:0|0:0,0:0:0:0:
216,56,204276,6,0,L|312:40,1,75,8|2,0:0|0:0,0:0:0:0:
360,232,204592,2,0,L|287:244,1,75,8|2,0:0|0:0,0:0:0:0:
164,280,204907,1,8,0:0:0:0:
260,364,205065,1,6,0:0:0:0:
256,192,205223,12,0,206486,0:0:0:0:
176,144,216592,6,0,B|128:144|128:144|80:156|80:156|8:156,2,150,6|2|2,0:0|0:0|0:0,0:0:0:0:
336,240,217539,2,0,B|384:240|384:240|432:228|432:228|504:228,2,150,2|2|2,0:0|0:0|0:0,0:0:0:0:
48,300,218486,1,2,0:0:0:0:
48,300,218644,2,0,L|129:301,1,75,0|2,0:0|0:0,0:0:0:0:
212,300,218960,2,0,L|232:212,1,75,0|2,0:0|0:0,0:0:0:0:
296,164,219276,2,0,L|276:84,1,75,0|2,0:0|0:0,0:0:0:0:
64,128,219749,5,2,0:0:0:0:
216,28,220065,1,2,0:0:0:0:
392,72,220381,1,2,0:0:0:0:
216,28,220697,1,2,0:0:0:0:
164,200,221013,1,2,0:0:0:0:
252,208,221170,6,0,L|344:204,1,75,12|2,0:0|0:0,0:0:0:0:
188,304,221486,2,0,L|96:300,1,75,12|2,0:0|0:0,0:0:0:0:
292,120,221960,5,2,0:0:0:0:
468,148,222276,1,2,0:0:0:0:
448,328,222592,1,2,0:0:0:0:
272,360,222907,1,2,0:0:0:0:
404,236,223223,1,2,0:0:0:0:
224,236,223539,1,0,0:0:0:0:
160,300,223697,2,0,P|84:304|8:312,1,150,0|12,0:0|0:0,0:0:0:0:
256,192,224092,12,12,225434,0:0:0:0:
87,300,225749,6,0,P|84:279|93:238,3,37.5,10|8|8|8,0:0|0:0|0:0|0:0,0:0:0:0:
121,195,226065,2,0,P|137:185|162:178,3,37.5,10|0|8|0,0:0|0:0|0:0|0:0,0:0:0:0:
228,160,226381,2,0,L|271:152,3,37.5,10|8|8|8,0:0|0:0|0:0|0:0,0:0:0:0:
340,140,226697,6,0,B|416:136|476:192,1,150,6|8,0:0|0:0,0:0:0:0:
348,312,227170,1,0,0:0:0:0:
348,312,227328,2,0,L|257:301,1,75,2|2,0:0|0:0,0:0:0:0:
252,176,227644,2,0,L|230:86,1,75,8|0,0:0|0:0,0:0:0:0:
132,184,227960,2,0,L|115:256,1,75,2|2,0:0|0:0,0:0:0:0:
224,324,228276,2,0,L|202:234,1,75,8|0,0:0|0:0,0:0:0:0:
72,112,228592,5,2,0:0:0:0:
32,192,228750,2,0,P|18:223|17:281,1,75,2|8,0:0|0:0,0:0:0:0:
156,352,229065,2,0,B|244:368|296:291,1,150,6|2,0:0|0:0,0:0:0:0:
372,336,229539,2,0,L|385:177,1,150,8|2,0:0|0:0,0:0:0:0:
188,80,230013,5,2,0:0:0:0:
264,36,230171,1,8,0:0:0:0:
280,124,230329,2,0,L|292:220,1,75,0|2,0:0|0:0,0:0:0:0:
204,240,230644,2,0,L|195:165,1,75,2|8,0:0|0:0,0:0:0:0:
188,80,230960,1,0,0:0:0:0:
264,36,231118,6,0,P|344:28|416:56,1,150,2|8,0:0|0:0,0:0:0:0:
352,220,231592,2,0,P|281:226|200:240,1,150,6|2,0:0|0:0,0:0:0:0:
64,144,232065,1,8,0:0:0:0:
64,144,232223,2,0,L|57:52,2,75,0|2|2,0:0|0:0|0:0,0:0:0:0:
80,308,232697,5,8,0:0:0:0:
80,308,232855,2,0,P|152:300|228:324,1,150,2|2,0:0|0:0,0:0:0:0:
352,220,233329,1,8,0:0:0:0:
289,155,233486,2,0,P|221:183|145:187,1,150,2|2,0:0|0:0,0:0:0:0:
64,144,233960,1,8,0:0:0:0:
101,62,234118,2,0,P|173:58|254:88,1,150,6|2,0:0|0:0,0:0:0:0:
436,191,234592,5,2,0:0:0:0:
436,191,234749,2,0,L|456:271,1,75,2|0,0:0|0:0,0:0:0:0:
280,360,235065,1,2,0:0:0:0:
280,360,235223,2,0,B|276:321|276:321|283:284,1,75,12|2,0:0|0:0,0:0:0:0:
104,252,235539,2,0,B|107:290|107:290|101:328,1,75,8|0,0:0|0:0,0:0:0:0:
248,196,235855,2,0,P|208:196|168:176,1,75,8|2,0:0|0:0,0:0:0:0:
228,48,236170,5,2,0:0:0:0:
246,42,236249,1,2,0:0:0:0:
265,37,236328,1,2,0:0:0:0:
283,34,236408,1,2,0:0:0:0:
301,33,236486,1,2,0:0:0:0:
319,35,236565,1,2,0:0:0:0:
337,39,236644,1,2,0:0:0:0:
354,45,236723,1,2,0:0:0:0:
370,53,236802,2,0,L|376:145,1,75,12|0,0:0|0:0,0:0:0:0:
160,232,237118,6,0,L|154:140,1,75,8|2,0:0|0:0,0:0:0:0:
248,196,237434,2,0,L|252:270,1,75,8|2,0:0|0:0,0:0:0:0:
340,224,237749,2,0,L|334:132,1,75,8|2,0:0|0:0,0:0:0:0:
160,232,238065,1,8,0:0:0:0:
160,232,238223,2,0,L|164:306,1,75,2|8,0:0|0:0,0:0:0:0:
372,324,238539,5,2,0:0:0:0:
256,312,238697,1,8,0:0:0:0:
372,324,238855,1,2,0:0:0:0:
256,312,239013,1,8,0:0:0:0:
452,360,239171,2,0,P|472:288|456:208,1,150,6|2,0:0|0:0,0:0:0:0:
296,128,239644,5,8,0:0:0:0:
296,128,239802,2,0,P|224:108|144:124,1,150,6|2,0:0|0:0,0:0:0:0:
48,328,240276,1,8,0:0:0:0:
48,328,240434,2,0,L|216:347,1,150,6|2,0:0|0:0,0:0:0:0:
284,244,240907,2,0,L|190:230,1,75,8|0,0:0|0:0,0:0:0:0:
124,204,241223,5,8,0:0:0:0:
44,164,241381,1,2,0:0:0:0:
88,86,241539,1,8,0:0:0:0:
162,128,241697,2,0,P|196:136|252:132,1,75,6|0,0:0|0:0,0:0:0:0:
310,83,242013,6,0,P|346:75|393:85,2,75,2|8|2,0:0|0:0|0:0,0:0:0:0:
284,244,242486,2,0,P|284:288|303:324,1,75,8|2,0:0|0:0,0:0:0:0:
372,212,242802,1,8,0:0:0:0:
372,212,242960,2,0,L|197:173,1,150,6|2,0:0|0:0,0:0:0:0:
310,83,243434,5,8,0:0:0:0:
368,320,243592,2,0,B|300:360|220:344,1,150,6|2,0:0|0:0,0:0:0:0:
160,73,244065,1,8,0:0:0:0:
160,73,244223,2,0,L|324:83,1,150,6|2,0:0|0:0,0:0:0:0:
32,60,244697,6,0,P|10:117|20:212,1,150,8|2,0:0|0:0,0:0:0:0:
104,180,245171,1,2,0:0:0:0:
120,268,245329,1,8,0:0:0:0:
32,292,245486,2,0,P|35:329|55:360,1,75,6|0,0:0|0:0,0:0:0:0:
228,320,245802,5,2,0:0:0:0:
228,320,245960,2,0,B|197:256|231:166,1,150,12|2,0:0|0:0,0:0:0:0:
280,100,246434,1,8,0:0:0:0:
298,97,246513,1,8,0:0:0:0:
316,96,246591,1,10,0:0:0:0:
334,98,246670,1,8,0:0:0:0:
352,102,246749,1,8,0:0:0:0:
369,108,246828,1,8,0:0:0:0:
385,116,246907,2,0,L|404:204,1,75,6|2,0:0|0:0,0:0:0:0:
367,277,247223,5,8,0:0:0:0:
367,277,247381,2,0,P|301:279|225:323,1,150,2|2,0:0|0:0,0:0:0:0:
140,344,247855,1,8,0:0:0:0:
140,344,248013,2,0,P|74:342|-2:298,1,150,6|2,0:0|0:0,0:0:0:0:
84,108,248486,6,0,L|92:204,1,75,8|2,0:0|0:0,0:0:0:0:
256,100,248802,2,0,L|256:184,1,75,8|2,0:0|0:0,0:0:0:0:
428,108,249118,2,0,L|420:204,1,75,8|2,0:0|0:0,0:0:0:0:
364,356,249434,6,0,B|336:294|336:294|336:210,1,150,6|8,0:0|0:0,0:0:0:0:
244,212,249908,2,0,L|241:286,1,75,2|0,0:0|0:0,0:0:0:0:
168,340,250223,2,0,P|156:300|124:276,1,75,2|8,0:0|0:0,0:0:0:0:
44,308,250539,2,0,B|24:236|36:156,1,150,6|2,0:0|0:0,0:0:0:0:
40,68,251013,6,0,P|74:132|145:159,1,150,8|2,0:0|0:0,0:0:0:0:
276,88,251486,1,8,0:0:0:0:
276,88,251565,1,8,0:0:0:0:
276,88,251644,1,8,0:0:0:0:
312,240,251802,1,8,0:0:0:0:
312,240,251881,1,8,0:0:0:0:
312,240,251960,2,0,L|477:226,1,150,6|8,0:0|0:0,0:0:0:0:
500,88,252434,6,0,P|418:98|368:148,1,150,2|2,0:0|0:0,0:0:0:0:
292,336,252908,1,8,0:0:0:0:
452,340,253065,1,6,0:0:0:0:
168,174,253381,5,2,0:0:0:0:
258,157,253539,2,0,P|242:119|195:82,1,75,8|2,0:0|0:0,0:0:0:0:
100,242,253855,2,0,P|132:260|170:265,1,75,8|0,0:0|0:0,0:0:0:0:
168,174,254171,1,8,0:0:0:0:
90,129,254329,2,0,B|52:139|24:168,1,75,8|6,0:0|0:0,0:0:0:0:
116,352,254644,5,2,0:0:0:0:
168,174,254802,1,8,0:0:0:0:
248,280,254960,2,0,L|404:260,1,150,6|2,0:0|0:0,0:0:0:0:
328,56,255434,1,8,0:0:0:0:
328,56,255592,2,0,P|256:34|176:52,1,150,6|2,0:0|0:0,0:0:0:0:
184,248,256065,6,2,P|207:218|245:194,1,75
312,249,256381,2,2,P|341:225|365:187,1,75
408,60,256697,2,2,P|413:97|434:137,1,75
429,130,256934,1,0,0:0:0:0:
429,130,257013,1,6,0:0:0:0:
196,104,257329,5,0,0:0:0:0:
196,104,257486,2,0,P|128:104|44:128,1,150
165,270,257960,2,0,P|233:270|317:246,1,150,0|6,0:0|0:0,0:0:0:0:
