osu file format v9

[General]
AudioFilename: Oath Sign.mp3
AudioLeadIn: 1500
PreviewTime: 52581
Countdown: 1
SampleSet: Normal
StackLeniency: 0.7
Mode: 0
LetterboxInBreaks: 1

[Editor]
Bookmarks: 10147
DistanceSpacing: 0.8
BeatDivisor: 4
GridSize: 8

[Metadata]
Title:Oath sign (TV size)
Artist:LiSA
Creator:taka1235
Version:Normal
Source:
Tags:

[Difficulty]
HPDrainRate:3
CircleSize:4
OverallDifficulty:3
ApproachRate:4
SliderMultiplier:1.2
SliderTickRate:1

[Events]
//Background and Video events
0,0,"BG1.jpg"
//Break Periods
2,38768,43564
//Storyboard Layer 0 (Background)
//Storyboard Layer 1 (Fail)
//Storyboard Layer 2 (Pass)
//Storyboard Layer 3 (Foreground)
//Storyboard Sound Samples
//Background Colour Transformations
3,100,163,162,255

[TimingPoints]
674,394.736842105263,4,2,0,70,1,0
13301,-100,4,1,0,60,0,0
24752,-100,4,2,0,60,0,0
25542,-100,4,2,0,65,0,0
25735,-100,4,1,0,60,0,0
38933,-133.333333333333,4,2,0,60,0,0
44095,-100,4,2,0,75,0,0
44884,-100,4,1,1,60,0,0
52775,-100,4,1,1,80,0,1
57906,-100,4,1,1,90,0,1
64222,-100,4,1,1,75,0,1
65406,-100,4,1,1,80,0,1
70538,-100,4,1,1,90,0,1
71722,-100,4,1,1,80,0,1
83766,-100,4,1,1,70,0,1
84160,-100,4,1,1,60,0,1
87413,-100,4,1,1,50,0,1
87512,-100,4,1,1,50,0,0

[Colours]
Combo1 : 249,249,0
Combo2 : 255,0,0
Combo3 : 0,0,255
Combo4 : 128,255,128

[HitObjects]
32,64,674,2,0,B|32:104|88:136|144:104,1,120
216,40,1463,2,0,B|251:16|307:48|307:88,2,120
224,160,2647,2,0,B|223:196|279:228|315:205,1,120
120,216,3831,6,0,B|80:216|48:272|80:328,1,120,0|0
192,296,4621,2,0,B|227:272|283:304|283:344,2,120,0|0|0
232,184,5805,2,0,B|272:184|304:128|272:72,2,120
152,96,6989,1,2
384,32,7779,5,2
472,120,8174,1,2
432,232,8568,2,0,B|408:312|304:344|216:280,1,240
176,264,9555,2,0,B|104:232,1,60
88,288,9950,1,0
88,232,10147,2,0,B|8:208|-24:104|40:16,1,240
152,32,11331,1,0
256,96,11726,5,6
72,320,13305,5,0
32,232,13700,1,0
88,152,14095,1,0
184,152,14489,1,0
200,248,14884,2,0,B|216:296|272:312|320:280,1,120
376,232,15673,2,0,B|401:211|457:227|473:275,1,120
408,344,16463,1,0
312,360,16858,1,0
264,280,17252,1,0
312,192,17647,1,0
400,232,18042,2,0,B|448:216|464:160|432:112,1,120
472,96,18634,1,0
384,56,19029,1,0
296,24,19423,1,0
248,40,19621,6,0,B|200:56|184:112|216:160,1,120,0|0
248,224,20410,2,0,B|268:249|252:305|204:321,1,120,0|0
120,360,21200,1,0
32,320,21595,1,0
40,224,21989,1,0
128,184,22384,1,0
208,240,22779,2,0,B|256:224|272:168|240:120,1,120,0|0
168,96,23568,2,0,B|147:70|163:14|211:-1,1,120,0|0
256,16,24160,1,0
344,56,24555,1,0
320,96,24752,2,0,B|336:168|432:224|512:184,1,240,0|4
504,232,25739,6,0,B|480:304|416:336|360:328,1,180
328,312,26529,1,0
240,272,26923,1,0
144,296,27318,6,0,B|72:272|40:208|48:152,1,180
64,120,28108,1,0
104,32,28502,1,0
192,72,28897,6,0,B|248:48|328:72|360:128,1,180
328,160,29687,1,0
272,240,30081,1,0
312,328,30476,2,0,B|376:352|424:304,1,120
456,272,31068,1,0
472,176,31463,1,0
488,80,31858,1,0
456,48,32055,6,0,B|392:16|328:32|288:96,1,180
264,120,32845,2,0,B|200:136|152:64,1,120
224,0,33634,6,0,B|160:-32|96:-16|56:48,1,180
32,72,34423,2,0,B|56:144|16:200,1,120
8,280,35213,2,0,B|72:312|136:296|176:232,1,180
152,200,36002,5,0
152,200,36200,1,0
200,112,36595,1,0
200,112,36792,1,0
296,128,37187,1,0
296,128,37384,1,0
296,128,37581,2,0,B|312:208|424:248|496:192,1,240
480,152,38568,1,4
456,48,44884,6,0,B|400:32|360:48|344:96,1,120,4|2
368,176,45673,1,0
280,208,46068,1,0
240,184,46266,2,0,B|208:174|192:134|208:78,1,120,4|2
240,40,46858,1,0
144,16,47252,1,0
72,80,47647,1,0
40,120,47845,1,0
8,160,48042,6,0,B|24:216|72:240|120:224,1,120,4|0
128,256,48634,1,0
224,232,49029,1,0
184,144,49423,2,4,B|312:112,1,120
328,72,50016,1,0
424,48,50410,1,0
456,136,50805,1,0
496,112,51002,2,0,B|520:184|512:272|432:344|360:320,1,300
224,232,52581,5,0
240,280,52779,2,4,B|184:256|104:280|80:344,2,180,6|2|4
264,320,54160,1,0
296,288,54358,2,2,B|352:328|432:312|456:240,2,180
240,168,55937,6,0,B|200:176|152:152|152:96,1,120,2|8
168,64,56529,1,2
264,40,56923,2,0,B|320:16,2,60,2|0|2
296,72,57516,1,4
384,112,57910,6,6,B|376:160|328:184|288:176,2,120
336,32,59095,5,4
432,8,59489,1,0
432,8,59687,1,4
480,96,60081,1,0
472,144,60279,1,0
464,192,60476,2,0,B|448:256|376:288|296:280,1,180,4|0
280,256,61266,2,0,B|224:232|144:248|120:328,1,180,4|4
56,376,62252,5,2
24,288,62647,1,8
0,192,63042,1,4
0,192,63239,1,0
96,216,63634,2,0,B|144:304|280:328|384:256,1,300,4|0
448,224,65016,1,0
464,176,65213,1,0
480,136,65410,5,6
440,48,65805,1,8
440,48,66002,1,2
344,64,66397,1,2
344,64,66595,1,8
328,160,66989,1,6
416,128,67384,1,8
416,128,67581,1,2
344,64,67976,1,2
344,64,68173,1,8
256,104,68568,2,2,B|200:112|128:88|104:16,2,180
344,64,70147,1,4
328,160,70542,6,6,B|288:288,2,120
352,64,71726,5,4
424,128,72121,1,0
424,128,72318,1,4
488,200,72713,2,0,B|528:248,2,60,0|0|4
400,248,73502,2,0,B|352:200,2,60,0|0|4
464,320,74292,1,0
464,320,74489,1,0
368,328,74884,2,0,B|312:368|192:352|160:264,1,240
128,184,76068,1,0
128,184,76266,1,4
64,48,76858,5,0
160,48,77252,1,0
256,48,77647,1,0
256,192,78042,12,0,80805
288,80,81200,6,4,B|280:144|304:200|368:240,2,180
200,168,82779,2,4,B|165:223|109:247|45:239,2,180,4|4|4
256,192,84358,12,0,87516
