osu file format v9

[General]
AudioFilename: Oath Sign.mp3
AudioLeadIn: 1500
PreviewTime: 52581
Countdown: 1
SampleSet: Soft
StackLeniency: 0.7
Mode: 0
LetterboxInBreaks: 1

[Editor]
Bookmarks: 10147
DistanceSpacing: 1.1
BeatDivisor: 4
GridSize: 8

[Metadata]
Title:Oath sign (TV size)
Artist:LiSA
Creator:taka1235
Version:Hard
Source:
Tags:

[Difficulty]
HPDrainRate:6
CircleSize:4
OverallDifficulty:6
ApproachRate:7
SliderMultiplier:1.6
SliderTickRate:1

[Events]
//Background and Video events
0,0,"BG1.jpg"
//Break Periods
//Storyboard Layer 0 (Background)
//Storyboard Layer 1 (Fail)
//Storyboard Layer 2 (Pass)
//Storyboard Layer 3 (Foreground)
//Storyboard Sound Samples
//Background Colour Transformations
3,100,163,162,255

[TimingPoints]
674,394.736842105263,4,2,0,70,1,0
674,-133.333333333333,4,2,0,70,0,0
10147,-200,4,2,0,70,0,0
13301,-100,4,2,1,60,0,0
24752,-100,4,2,0,60,0,0
25542,-100,4,2,0,65,0,0
25735,-100,4,1,0,60,0,0
38963,-133.333333333333,4,2,0,60,0,0
44095,-100,4,2,0,75,0,0
44884,-100,4,1,0,60,0,0
52775,-100,4,1,1,80,0,1
52779,-100,4,1,1,75,0,1
57906,-100,4,1,1,80,0,1
64222,-100,4,1,1,70,0,1
64621,-100,4,1,1,80,0,1
65016,-100,4,1,1,85,0,1
65406,-100,4,1,1,75,0,1
70538,-100,4,1,1,80,0,1
71722,-100,4,1,1,75,0,1
83766,-100,4,1,1,70,0,1
84160,-100,4,1,1,60,0,1
87413,-100,4,1,1,50,0,1
87512,-100,4,1,1,50,0,0

[Colours]
Combo1 : 249,249,0
Combo2 : 255,0,0
Combo3 : 0,0,255
Combo4 : 128,255,128

[HitObjects]
72,72,674,1,0
200,288,2252,1,0
216,232,2646,1,0
232,176,3041,1,0
432,48,3831,5,0
416,232,5410,1,0
352,272,5805,1,0
288,232,6200,1,0
304,152,6595,1,0
384,136,6989,5,0
152,48,8173,1,0
152,48,8568,1,0
64,312,9358,6,0,B|128:336,1,59.9999982118607
208,248,9752,2,0,B|232:176,1,59.9999982118607
168,16,10147,2,0,B|80:248,1,240,0|0
80,240,11726,1,4
64,96,13305,6,0,B|88:176,1,80
120,256,13700,2,0,B|208:224,1,80,8|0
168,144,14095,1,0
256,120,14292,1,0
344,96,14489,1,8
432,72,14687,1,0
480,144,14884,6,0,B|456:232,1,80
440,304,15279,2,0,B|352:272,1,80,8|0
384,192,15673,1,0
296,216,15871,1,0
208,240,16068,1,8
120,264,16266,1,0
40,224,16463,6,0,B|8:192|24:152,1,80
88,88,16858,2,0,B|112:128|96:168,1,80,8|0
24,184,17252,2,0,B|-8:152|8:112,1,80
72,48,17647,2,0,B|96:88|80:128,1,80,8|0
16,96,18042,2,0,B|-16:64|0:24,1,80
88,48,18437,1,8
88,48,18634,2,8,B|272:80,2,160
72,136,19621,6,0,B|48:224,1,80
136,216,20016,2,0,B|224:232,1,80,8|0
256,312,20410,1,0
344,272,20608,1,0
424,240,20805,1,8
456,320,21002,1,0
424,240,21200,6,0,B|456:144,1,80
480,80,21595,2,0,B|392:80,1,80,8|0
328,32,21989,1,0
256,80,22187,1,0
184,128,22384,1,8
120,72,22581,1,0
40,104,22779,6,0,B|8:144|40:192,1,80
104,280,23173,2,0,B|152:304|184:264,1,80,8|0
224,160,23568,2,0,B|240:112|200:72,2,80,0|0|8
120,136,24160,6,0,B|304:104,1,160
480,144,24752,2,2,B|288:184,2,160,6|2|6
