osu file format v14

[General]
AudioFilename: LiSA+-+No+More+Time+Machine.mp3
AudioLeadIn: 0
PreviewTime: 49598
Countdown: 0
SampleSet: Soft
StackLeniency: 0.7
Mode: 3
LetterboxInBreaks: 0
SpecialStyle: 0
WidescreenStoryboard: 1

[Editor]
DistanceSpacing: 1.1
BeatDivisor: 4
GridSize: 4
TimelineZoom: 1.9

[Metadata]
Title:No More Time Machine
TitleUnicode:No More Time Machine
Artist:LiSA
ArtistUnicode:LiSA
Creator:Aii-
Version:Normal
Source:ソードアート・オンラインⅡ
Tags:Sword Art Online 2 Ending 2
BeatmapID:534370
BeatmapSetID:229704

[Difficulty]
HPDrainRate:7
CircleSize:7
OverallDifficulty:7
ApproachRate:5
SliderMultiplier:1.4
SliderTickRate:1

[Events]
//Background and Video events
0,0,"1.jpg",0,0
//Break Periods
//Storyboard Layer 0 (Background)
//Storyboard Layer 1 (Fail)
//Storyboard Layer 2 (Pass)
//Storyboard Layer 3 (Foreground)
//Storyboard Sound Samples

[TimingPoints]
167,437.956204379562,4,2,0,6,1,0

[HitObjects]
36,192,167,5,0,0:0:0:0:
182,192,385,1,0,0:0:0:0:
475,192,385,128,0,1042:0:0:0:0:
36,192,823,1,0,0:0:0:0:
182,192,1042,128,0,1699:0:0:0:0:
329,192,1699,1,0,0:0:0:0:
402,192,2137,128,0,2794:0:0:0:0:
109,192,2575,1,0,0:0:0:0:
256,192,2794,128,0,3232:0:0:0:0:
109,192,3451,128,0,3889:0:0:0:0:
402,192,3451,1,0,0:0:0:0:
329,192,3889,128,0,4546:0:0:0:0:
475,192,3889,1,0,0:0:0:0:
182,192,4327,1,0,0:0:0:0:
36,192,4546,128,0,4984:0:0:0:0:
475,192,5203,128,0,5641:0:0:0:0:
182,192,5203,1,0,0:0:0:0:
256,192,5641,128,0,6079:0:0:0:0:
109,192,6079,1,0,0:0:0:0:
402,192,6079,1,0,0:0:0:0:
36,192,6298,1,0,0:0:0:0:
475,192,6407,1,0,0:0:0:0:
256,192,6736,128,0,7174:0:0:0:0:
475,192,6955,1,0,0:0:0:0:
36,192,7064,1,0,0:0:0:0:
402,192,7174,1,0,0:0:0:0:
182,192,7393,128,0,8050:0:0:0:0:
329,192,7393,1,0,0:0:0:0:
402,192,8050,128,0,9802:0:0:0:0:
36,192,10021,1,0,0:0:0:0:
109,192,10239,1,0,0:0:0:0:
182,192,10458,1,0,0:0:0:0:
256,192,10677,1,0,0:0:0:0:
329,192,10896,128,0,11553:0:0:0:0:
475,192,10896,1,0,0:0:0:0:
109,192,11553,128,0,12429:0:0:0:0:
402,192,11553,1,0,0:0:0:0:
402,192,12429,128,0,13305:0:0:0:0:
182,192,12429,1,0,0:0:0:0:
182,192,13743,1,0,0:0:0:0:
329,192,13962,1,0,0:0:0:0:
109,192,14400,128,0,15714:0:0:0:0:
475,192,14400,1,0,0:0:0:0:
329,192,15714,1,0,0:0:0:0:
402,192,16152,128,0,17247:0:0:0:0:
36,192,16152,1,0,0:0:0:0:
109,192,16809,1,0,0:0:0:0:
182,192,17247,1,0,0:0:0:0:
329,192,17466,1,0,0:0:0:0:
182,192,17904,128,0,18561:0:0:0:0:
475,192,17904,1,0,0:0:0:0:
402,192,18123,1,0,0:0:0:0:
329,192,18342,1,0,0:0:0:0:
256,192,18561,128,0,19218:0:0:0:0:
402,192,19218,1,0,0:0:0:0:
109,192,19437,128,0,20094:0:0:0:0:
182,192,20312,128,0,20750:0:0:0:0:
329,192,20312,1,0,0:0:0:0:
475,192,20531,1,0,0:0:0:0:
36,192,20750,1,0,0:0:0:0:
475,192,20969,1,0,0:0:0:0:
36,192,21188,1,0,0:0:0:0:
182,192,21298,1,0,0:0:0:0:
329,192,21407,1,0,0:0:0:0:
475,192,21407,1,0,0:0:0:0:
36,192,21845,128,0,22064:0:0:0:0:
402,192,21845,1,0,0:0:0:0:
109,192,22064,128,0,22721:0:0:0:0:
329,192,22283,1,0,0:0:0:0:
475,192,22502,1,0,0:0:0:0:
402,192,22721,128,0,23378:0:0:0:0:
182,192,22721,1,0,0:0:0:0:
36,192,23159,1,0,0:0:0:0:
182,192,23597,1,0,0:0:0:0:
36,192,24035,1,0,0:0:0:0:
329,192,24254,1,0,0:0:0:0:
109,192,24473,1,0,0:0:0:0:
475,192,24692,1,0,0:0:0:0:
402,192,24802,1,0,0:0:0:0:
329,192,24911,1,0,0:0:0:0:
109,192,25349,128,0,25568:0:0:0:0:
402,192,25568,128,0,26006:0:0:0:0:
36,192,26006,1,0,0:0:0:0:
329,192,26225,1,0,0:0:0:0:
109,192,26663,1,0,0:0:0:0:
475,192,27101,1,0,0:0:0:0:
402,192,27320,128,0,27758:0:0:0:0:
182,192,27758,1,0,0:0:0:0:
36,192,28196,1,0,0:0:0:0:
109,192,28305,1,0,0:0:0:0:
182,192,28415,1,0,0:0:0:0:
329,192,28415,1,0,0:0:0:0:
256,192,28853,1,0,0:0:0:0:
36,192,29072,128,0,29510:0:0:0:0:
329,192,29510,1,0,0:0:0:0:
475,192,29729,1,0,0:0:0:0:
182,192,30166,128,0,30823:0:0:0:0:
402,192,30604,1,0,0:0:0:0:
329,192,30823,128,0,31261:0:0:0:0:
36,192,31261,1,0,0:0:0:0:
182,192,31480,1,0,0:0:0:0:
329,192,31699,1,0,0:0:0:0:
402,192,31809,1,0,0:0:0:0:
475,192,31918,1,0,0:0:0:0:
109,192,32356,1,0,0:0:0:0:
402,192,32794,1,0,0:0:0:0:
109,192,33013,1,0,0:0:0:0:
182,192,33232,1,0,0:0:0:0:
475,192,33451,1,0,0:0:0:0:
402,192,33670,1,0,0:0:0:0:
329,192,33889,1,0,0:0:0:0:
256,192,34108,1,0,0:0:0:0:
182,192,34327,1,0,0:0:0:0:
36,192,34327,1,0,0:0:0:0:
402,192,34765,1,0,0:0:0:0:
109,192,34984,1,0,0:0:0:0:
182,192,35094,1,0,0:0:0:0:
256,192,35203,1,0,0:0:0:0:
329,192,35422,1,0,0:0:0:0:
475,192,35422,1,0,0:0:0:0:
109,192,35860,1,0,0:0:0:0:
402,192,36298,1,0,0:0:0:0:
182,192,36517,1,0,0:0:0:0:
109,192,36955,1,0,0:0:0:0:
329,192,37174,1,0,0:0:0:0:
182,192,37612,1,0,0:0:0:0:
475,192,37831,1,0,0:0:0:0:
402,192,38050,1,0,0:0:0:0:
329,192,38269,128,0,38707:0:0:0:0:
36,192,38488,1,0,0:0:0:0:
182,192,38707,1,0,0:0:0:0:
475,192,38926,128,0,39364:0:0:0:0:
256,192,38926,1,0,0:0:0:0:
182,192,39364,1,0,0:0:0:0:
36,192,39583,1,0,0:0:0:0:
475,192,39802,1,0,0:0:0:0:
329,192,40021,1,0,0:0:0:0:
182,192,40239,1,0,0:0:0:0:
329,192,40458,1,0,0:0:0:0:
475,192,40677,1,0,0:0:0:0:
36,192,40896,128,0,41115:0:0:0:0:
402,192,41115,1,0,0:0:0:0:
36,192,41334,128,0,41553:0:0:0:0:
329,192,41553,1,0,0:0:0:0:
36,192,41772,128,0,41991:0:0:0:0:
475,192,41991,128,0,42429:0:0:0:0:
182,192,41991,1,0,0:0:0:0:
256,192,42429,128,0,43524:0:0:0:0:
36,192,42867,1,0,0:0:0:0:
475,192,43305,1,0,0:0:0:0:
402,192,43524,1,0,0:0:0:0:
36,192,43743,1,0,0:0:0:0:
109,192,43962,1,0,0:0:0:0:
182,192,44181,1,0,0:0:0:0:
475,192,44619,1,0,0:0:0:0:
109,192,44838,1,0,0:0:0:0:
402,192,45057,1,0,0:0:0:0:
182,192,45276,1,0,0:0:0:0:
36,192,45495,1,0,0:0:0:0:
475,192,45495,1,0,0:0:0:0:
402,192,45933,1,0,0:0:0:0:
109,192,45933,1,0,0:0:0:0:
182,192,46371,1,0,0:0:0:0:
329,192,46371,1,0,0:0:0:0:
36,192,46590,1,0,0:0:0:0:
475,192,46699,1,0,0:0:0:0:
329,192,47028,1,0,0:0:0:0:
182,192,47247,1,0,0:0:0:0:
36,192,47466,1,0,0:0:0:0:
182,192,47575,1,0,0:0:0:0:
329,192,47685,1,0,0:0:0:0:
475,192,47685,128,0,48342:0:0:0:0:
36,192,48561,128,0,49218:0:0:0:0:
182,192,48561,1,0,0:0:0:0:
329,192,48561,1,0,0:0:0:0:
256,192,48999,1,0,0:0:0:0:
402,192,49437,1,0,0:0:0:0:
329,192,49437,1,0,0:0:0:0:
329,192,49656,1,0,0:0:0:0:
402,192,49656,1,0,0:0:0:0:
36,192,50312,1,0,0:0:0:0:
329,192,50422,1,0,0:0:0:0:
109,192,50641,1,0,0:0:0:0:
402,192,50750,1,0,0:0:0:0:
182,192,50969,1,0,0:0:0:0:
329,192,51079,1,0,0:0:0:0:
475,192,51188,1,0,0:0:0:0:
36,192,51188,1,0,0:0:0:0:
182,192,51626,1,0,0:0:0:0:
329,192,52064,1,0,0:0:0:0:
109,192,52502,1,0,0:0:0:0:
402,192,52940,1,0,0:0:0:0:
36,192,53378,1,0,0:0:0:0:
475,192,53816,1,0,0:0:0:0:
402,192,54254,1,0,0:0:0:0:
182,192,54692,1,0,0:0:0:0:
329,192,55130,1,0,0:0:0:0:
109,192,55568,1,0,0:0:0:0:
256,192,56006,1,0,0:0:0:0:
329,192,56225,128,0,56663:0:0:0:0:
182,192,56663,1,0,0:0:0:0:
109,192,56882,1,0,0:0:0:0:
36,192,57101,128,0,57539:0:0:0:0:
329,192,57539,1,0,0:0:0:0:
475,192,57758,128,0,58196:0:0:0:0:
182,192,58196,1,0,0:0:0:0:
36,192,58196,1,0,0:0:0:0:
329,192,58634,1,0,0:0:0:0:
36,192,59072,1,0,0:0:0:0:
256,192,59291,1,0,0:0:0:0:
475,192,59510,1,0,0:0:0:0:
182,192,59948,1,0,0:0:0:0:
329,192,60385,1,0,0:0:0:0:
109,192,60823,1,0,0:0:0:0:
256,192,61042,1,0,0:0:0:0:
402,192,61261,1,0,0:0:0:0:
36,192,61699,1,0,0:0:0:0:
475,192,62137,1,0,0:0:0:0:
329,192,62137,1,0,0:0:0:0:
109,192,62575,1,0,0:0:0:0:
402,192,62794,1,0,0:0:0:0:
256,192,63013,1,0,0:0:0:0:
36,192,63232,1,0,0:0:0:0:
329,192,63342,1,0,0:0:0:0:
402,192,63670,1,0,0:0:0:0:
402,192,63889,1,0,0:0:0:0:
36,192,64108,1,0,0:0:0:0:
109,192,64218,1,0,0:0:0:0:
182,192,64327,1,0,0:0:0:0:
475,192,64546,1,0,0:0:0:0:
475,192,64765,1,0,0:0:0:0:
402,192,64875,1,0,0:0:0:0:
329,192,64984,1,0,0:0:0:0:
36,192,65203,1,0,0:0:0:0:
256,192,65203,1,0,0:0:0:0:
475,192,65641,1,0,0:0:0:0:
182,192,66079,1,0,0:0:0:0:
402,192,66517,1,0,0:0:0:0:
109,192,66955,1,0,0:0:0:0:
329,192,67393,1,0,0:0:0:0:
36,192,67831,1,0,0:0:0:0:
475,192,68050,1,0,0:0:0:0:
256,192,68269,1,0,0:0:0:0:
402,192,68707,1,0,0:0:0:0:
109,192,69145,1,0,0:0:0:0:
402,192,69583,1,0,0:0:0:0:
182,192,70021,1,0,0:0:0:0:
329,192,70239,1,0,0:0:0:0:
36,192,70677,1,0,0:0:0:0:
109,192,70896,1,0,0:0:0:0:
182,192,71115,128,0,71772:0:0:0:0:
402,192,71772,1,0,0:0:0:0:
36,192,72210,1,0,0:0:0:0:
475,192,72210,1,0,0:0:0:0:
182,192,72648,1,0,0:0:0:0:
329,192,73086,1,0,0:0:0:0:
475,192,73524,1,0,0:0:0:0:
402,192,73962,1,0,0:0:0:0:
256,192,74400,1,0,0:0:0:0:
109,192,74838,1,0,0:0:0:0:
402,192,75057,1,0,0:0:0:0:
109,192,75276,1,0,0:0:0:0:
182,192,75714,1,0,0:0:0:0:
402,192,76152,1,0,0:0:0:0:
329,192,76590,1,0,0:0:0:0:
182,192,77028,1,0,0:0:0:0:
36,192,77028,1,0,0:0:0:0:
329,192,77356,1,0,0:0:0:0:
475,192,77466,1,0,0:0:0:0:
109,192,77685,1,0,0:0:0:0:
109,192,77904,1,0,0:0:0:0:
402,192,78123,1,0,0:0:0:0:
329,192,78342,1,0,0:0:0:0:
182,192,78451,1,0,0:0:0:0:
36,192,78780,1,0,0:0:0:0:
475,192,78999,1,0,0:0:0:0:
402,192,79108,1,0,0:0:0:0:
329,192,79218,1,0,0:0:0:0:
182,192,79218,1,0,0:0:0:0:
36,192,79656,128,0,79875:0:0:0:0:
109,192,79875,128,0,80531:0:0:0:0:
329,192,80531,1,0,0:0:0:0:
475,192,80750,128,0,80969:0:0:0:0:
402,192,80969,128,0,81407:0:0:0:0:
36,192,81407,1,0,0:0:0:0:
182,192,81626,128,0,82064:0:0:0:0:
329,192,82283,128,0,82721:0:0:0:0:
402,192,82721,128,0,83159:0:0:0:0:
182,192,83159,1,0,0:0:0:0:
36,192,83378,128,0,83816:0:0:0:0:
182,192,84035,128,0,84473:0:0:0:0:
475,192,84035,1,0,0:0:0:0:
329,192,84035,1,0,0:0:0:0:
36,192,84473,1,0,0:0:0:0:
182,192,84692,1,0,0:0:0:0:
329,192,84911,1,0,0:0:0:0:
475,192,85130,1,0,0:0:0:0:
182,192,85349,1,0,0:0:0:0:
182,192,85568,1,0,0:0:0:0:
182,192,85787,128,0,86225:0:0:0:0:
329,192,85787,128,0,86225:0:0:0:0:
36,192,86225,1,0,0:0:0:0:
475,192,86225,1,0,0:0:0:0:
256,192,86225,128,0,89510:0:0:0:0:
