osu file format v14

[General]
AudioFilename: LiSA+-+No+More+Time+Machine.mp3
AudioLeadIn: 0
PreviewTime: 49598
Countdown: 0
SampleSet: Soft
StackLeniency: 0.7
Mode: 3
LetterboxInBreaks: 0
SpecialStyle: 0
WidescreenStoryboard: 1

[Editor]
DistanceSpacing: 1.1
BeatDivisor: 4
GridSize: 4
TimelineZoom: 1.9

[Metadata]
Title:No More Time Machine
TitleUnicode:No More Time Machine
Artist:LiSA
ArtistUnicode:LiSA
Creator:Aii-
Version:Hard
Source:ソードアート・オンラインⅡ
Tags:Sword Art Online 2 Ending 2
BeatmapID:534368
BeatmapSetID:229704

[Difficulty]
HPDrainRate:7
CircleSize:7
OverallDifficulty:7
ApproachRate:5
SliderMultiplier:1.4
SliderTickRate:1

[Events]
//Background and Video events
0,0,"1.jpg",0,0
//Break Periods
//Storyboard Layer 0 (Background)
//Storyboard Layer 1 (Fail)
//Storyboard Layer 2 (Pass)
//Storyboard Layer 3 (Foreground)
//Storyboard Sound Samples

[TimingPoints]
167,437.956204379562,4,2,0,6,1,0

[HitObjects]
36,192,167,5,0,0:0:0:0:
109,192,276,1,0,0:0:0:0:
182,192,385,1,0,0:0:0:0:
475,192,385,128,0,1699:0:0:0:0:
109,192,604,1,0,0:0:0:0:
329,192,823,1,0,0:0:0:0:
109,192,1042,1,0,0:0:0:0:
329,192,1261,1,0,0:0:0:0:
109,192,1480,1,0,0:0:0:0:
182,192,1699,1,0,0:0:0:0:
329,192,1699,1,0,0:0:0:0:
182,192,2137,1,0,0:0:0:0:
36,192,2137,128,0,3451:0:0:0:0:
402,192,2356,1,0,0:0:0:0:
182,192,2575,1,0,0:0:0:0:
402,192,2794,1,0,0:0:0:0:
182,192,3013,1,0,0:0:0:0:
402,192,3232,1,0,0:0:0:0:
329,192,3451,128,0,3889:0:0:0:0:
182,192,3451,1,0,0:0:0:0:
475,192,3451,1,0,0:0:0:0:
36,192,3670,1,0,0:0:0:0:
109,192,3780,1,0,0:0:0:0:
475,192,3889,128,0,5203:0:0:0:0:
182,192,3889,1,0,0:0:0:0:
36,192,4108,1,0,0:0:0:0:
329,192,4327,1,0,0:0:0:0:
36,192,4546,1,0,0:0:0:0:
329,192,4765,1,0,0:0:0:0:
36,192,4984,1,0,0:0:0:0:
329,192,5203,1,0,0:0:0:0:
182,192,5203,1,0,0:0:0:0:
109,192,5422,1,0,0:0:0:0:
256,192,5531,1,0,0:0:0:0:
402,192,5641,1,0,0:0:0:0:
182,192,5860,1,0,0:0:0:0:
256,192,6079,1,0,0:0:0:0:
36,192,6079,1,0,0:0:0:0:
475,192,6079,1,0,0:0:0:0:
329,192,6407,1,0,0:0:0:0:
182,192,6407,1,0,0:0:0:0:
36,192,6517,1,0,0:0:0:0:
475,192,6517,1,0,0:0:0:0:
256,192,6736,1,0,0:0:0:0:
402,192,6955,1,0,0:0:0:0:
109,192,6955,1,0,0:0:0:0:
182,192,7064,1,0,0:0:0:0:
329,192,7064,1,0,0:0:0:0:
256,192,7174,1,0,0:0:0:0:
36,192,7393,1,0,0:0:0:0:
475,192,7393,1,0,0:0:0:0:
256,192,7393,128,0,9145:0:0:0:0:
109,192,7612,1,0,0:0:0:0:
329,192,7831,1,0,0:0:0:0:
109,192,8050,1,0,0:0:0:0:
329,192,8269,1,0,0:0:0:0:
109,192,8488,1,0,0:0:0:0:
329,192,8707,1,0,0:0:0:0:
475,192,8707,1,0,0:0:0:0:
402,192,8926,1,0,0:0:0:0:
182,192,9145,1,0,0:0:0:0:
402,192,9364,1,0,0:0:0:0:
182,192,9583,1,0,0:0:0:0:
402,192,9802,1,0,0:0:0:0:
182,192,10021,1,0,0:0:0:0:
36,192,10240,1,0,0:0:0:0:
109,192,10240,1,0,0:0:0:0:
475,192,10458,1,0,0:0:0:0:
329,192,10458,1,0,0:0:0:0:
256,192,10677,128,0,10896:0:0:0:0:
109,192,10896,128,0,11334:0:0:0:0:
402,192,10896,1,0,0:0:0:0:
182,192,11115,1,0,0:0:0:0:
475,192,11334,1,0,0:0:0:0:
36,192,11553,128,0,12210:0:0:0:0:
182,192,11553,1,0,0:0:0:0:
475,192,11772,1,0,0:0:0:0:
182,192,11991,1,0,0:0:0:0:
475,192,12210,1,0,0:0:0:0:
182,192,12210,1,0,0:0:0:0:
36,192,12429,128,0,12867:0:0:0:0:
402,192,12429,1,0,0:0:0:0:
256,192,12648,1,0,0:0:0:0:
402,192,12867,1,0,0:0:0:0:
256,192,13086,1,0,0:0:0:0:
36,192,13305,1,0,0:0:0:0:
402,192,13524,1,0,0:0:0:0:
109,192,13743,1,0,0:0:0:0:
402,192,13743,1,0,0:0:0:0:
256,192,13962,1,0,0:0:0:0:
256,192,14400,128,0,15714:0:0:0:0:
475,192,14400,1,0,0:0:0:0:
36,192,14400,1,0,0:0:0:0:
329,192,14619,1,0,0:0:0:0:
36,192,14838,1,0,0:0:0:0:
329,192,15057,1,0,0:0:0:0:
36,192,15276,1,0,0:0:0:0:
329,192,15495,1,0,0:0:0:0:
36,192,15714,1,0,0:0:0:0:
475,192,15714,1,0,0:0:0:0:
329,192,16152,128,0,17466:0:0:0:0:
109,192,16152,1,0,0:0:0:0:
402,192,16152,1,0,0:0:0:0:
36,192,16371,1,0,0:0:0:0:
475,192,16590,1,0,0:0:0:0:
36,192,16809,1,0,0:0:0:0:
475,192,17028,1,0,0:0:0:0:
36,192,17247,1,0,0:0:0:0:
109,192,17247,1,0,0:0:0:0:
475,192,17466,1,0,0:0:0:0:
256,192,17685,1,0,0:0:0:0:
109,192,17904,128,0,19218:0:0:0:0:
329,192,17904,1,0,0:0:0:0:
475,192,17904,1,0,0:0:0:0:
402,192,18123,128,0,18342:0:0:0:0:
329,192,18342,128,0,18561:0:0:0:0:
256,192,18561,128,0,19218:0:0:0:0:
475,192,18780,1,0,0:0:0:0:
402,192,18999,1,0,0:0:0:0:
36,192,19218,1,0,0:0:0:0:
475,192,19218,1,0,0:0:0:0:
329,192,19437,1,0,0:0:0:0:
182,192,19656,1,0,0:0:0:0:
36,192,19875,1,0,0:0:0:0:
109,192,20094,1,0,0:0:0:0:
329,192,20313,128,0,20750:0:0:0:0:
36,192,20313,1,0,0:0:0:0:
109,192,20531,1,0,0:0:0:0:
182,192,20750,1,0,0:0:0:0:
402,192,20750,1,0,0:0:0:0:
475,192,20969,1,0,0:0:0:0:
475,192,21188,1,0,0:0:0:0:
256,192,21188,1,0,0:0:0:0:
402,192,21298,1,0,0:0:0:0:
182,192,21298,1,0,0:0:0:0:
329,192,21407,1,0,0:0:0:0:
109,192,21407,1,0,0:0:0:0:
36,192,21407,128,0,22721:0:0:0:0:
182,192,21626,1,0,0:0:0:0:
402,192,21845,1,0,0:0:0:0:
475,192,21845,1,0,0:0:0:0:
109,192,22064,1,0,0:0:0:0:
256,192,22283,1,0,0:0:0:0:
402,192,22502,1,0,0:0:0:0:
475,192,22502,1,0,0:0:0:0:
182,192,22721,1,0,0:0:0:0:
256,192,22940,1,0,0:0:0:0:
109,192,23159,128,0,24473:0:0:0:0:
329,192,23159,1,0,0:0:0:0:
402,192,23378,1,0,0:0:0:0:
475,192,23597,1,0,0:0:0:0:
329,192,23597,1,0,0:0:0:0:
182,192,23816,1,0,0:0:0:0:
329,192,23926,1,0,0:0:0:0:
475,192,24035,1,0,0:0:0:0:
182,192,24254,1,0,0:0:0:0:
329,192,24254,1,0,0:0:0:0:
256,192,24473,1,0,0:0:0:0:
329,192,24692,1,0,0:0:0:0:
402,192,24802,1,0,0:0:0:0:
475,192,24911,1,0,0:0:0:0:
182,192,24911,128,0,26225:0:0:0:0:
329,192,25130,1,0,0:0:0:0:
109,192,25349,1,0,0:0:0:0:
36,192,25349,1,0,0:0:0:0:
329,192,25568,128,0,26225:0:0:0:0:
402,192,25787,1,0,0:0:0:0:
109,192,26006,1,0,0:0:0:0:
36,192,26006,1,0,0:0:0:0:
475,192,26225,1,0,0:0:0:0:
256,192,26444,1,0,0:0:0:0:
182,192,26663,1,0,0:0:0:0:
109,192,26882,1,0,0:0:0:0:
36,192,27101,1,0,0:0:0:0:
475,192,27101,1,0,0:0:0:0:
109,192,27320,128,0,27758:0:0:0:0:
329,192,27320,1,0,0:0:0:0:
182,192,27539,1,0,0:0:0:0:
475,192,27758,1,0,0:0:0:0:
36,192,27758,1,0,0:0:0:0:
256,192,27977,1,0,0:0:0:0:
36,192,28196,1,0,0:0:0:0:
475,192,28196,1,0,0:0:0:0:
402,192,28305,1,0,0:0:0:0:
36,192,28415,1,0,0:0:0:0:
329,192,28415,1,0,0:0:0:0:
182,192,28415,128,0,28853:0:0:0:0:
256,192,28634,1,0,0:0:0:0:
475,192,28853,128,0,29072:0:0:0:0:
109,192,28853,1,0,0:0:0:0:
329,192,29072,128,0,29729:0:0:0:0:
36,192,29072,1,0,0:0:0:0:
109,192,29181,1,0,0:0:0:0:
182,192,29291,1,0,0:0:0:0:
402,192,29510,1,0,0:0:0:0:
475,192,29510,1,0,0:0:0:0:
182,192,29729,1,0,0:0:0:0:
36,192,29948,1,0,0:0:0:0:
329,192,30167,128,0,30604:0:0:0:0:
475,192,30167,1,0,0:0:0:0:
109,192,30385,1,0,0:0:0:0:
182,192,30604,1,0,0:0:0:0:
256,192,30604,1,0,0:0:0:0:
36,192,30823,1,0,0:0:0:0:
109,192,31042,1,0,0:0:0:0:
402,192,31261,1,0,0:0:0:0:
475,192,31261,1,0,0:0:0:0:
182,192,31480,1,0,0:0:0:0:
36,192,31699,1,0,0:0:0:0:
109,192,31809,1,0,0:0:0:0:
182,192,31918,1,0,0:0:0:0:
475,192,31918,1,0,0:0:0:0:
402,192,32137,1,0,0:0:0:0:
36,192,32356,1,0,0:0:0:0:
109,192,32356,1,0,0:0:0:0:
402,192,32575,128,0,33013:0:0:0:0:
256,192,32575,1,0,0:0:0:0:
475,192,32794,1,0,0:0:0:0:
109,192,33013,1,0,0:0:0:0:
182,192,33013,1,0,0:0:0:0:
329,192,33232,1,0,0:0:0:0:
182,192,33451,1,0,0:0:0:0:
256,192,33670,1,0,0:0:0:0:
182,192,33889,1,0,0:0:0:0:
109,192,34108,1,0,0:0:0:0:
402,192,34327,1,0,0:0:0:0:
256,192,34327,1,0,0:0:0:0:
36,192,34327,1,0,0:0:0:0:
329,192,34546,1,0,0:0:0:0:
182,192,34765,1,0,0:0:0:0:
36,192,34984,1,0,0:0:0:0:
329,192,34984,1,0,0:0:0:0:
109,192,35094,1,0,0:0:0:0:
402,192,35094,1,0,0:0:0:0:
475,192,35203,1,0,0:0:0:0:
182,192,35203,1,0,0:0:0:0:
256,192,35422,128,0,36736:0:0:0:0:
36,192,35422,1,0,0:0:0:0:
329,192,35422,1,0,0:0:0:0:
402,192,35641,1,0,0:0:0:0:
182,192,35860,1,0,0:0:0:0:
36,192,35860,1,0,0:0:0:0:
402,192,36079,1,0,0:0:0:0:
182,192,36298,1,0,0:0:0:0:
36,192,36517,1,0,0:0:0:0:
329,192,36517,1,0,0:0:0:0:
475,192,36736,1,0,0:0:0:0:
182,192,36736,1,0,0:0:0:0:
109,192,36955,1,0,0:0:0:0:
402,192,36955,1,0,0:0:0:0:
36,192,37174,1,0,0:0:0:0:
329,192,37393,1,0,0:0:0:0:
36,192,37612,1,0,0:0:0:0:
475,192,37612,1,0,0:0:0:0:
109,192,37831,1,0,0:0:0:0:
329,192,37831,1,0,0:0:0:0:
182,192,38050,1,0,0:0:0:0:
402,192,38050,1,0,0:0:0:0:
109,192,38269,128,0,38488:0:0:0:0:
475,192,38269,1,0,0:0:0:0:
182,192,38488,1,0,0:0:0:0:
402,192,38707,128,0,38926:0:0:0:0:
109,192,38707,1,0,0:0:0:0:
475,192,38926,1,0,0:0:0:0:
182,192,39145,1,0,0:0:0:0:
256,192,39364,1,0,0:0:0:0:
402,192,39364,1,0,0:0:0:0:
182,192,39583,1,0,0:0:0:0:
109,192,39802,1,0,0:0:0:0:
329,192,39802,1,0,0:0:0:0:
256,192,40021,1,0,0:0:0:0:
36,192,40021,1,0,0:0:0:0:
182,192,40240,1,0,0:0:0:0:
402,192,40240,1,0,0:0:0:0:
109,192,40458,1,0,0:0:0:0:
329,192,40458,1,0,0:0:0:0:
109,192,40677,1,0,0:0:0:0:
329,192,40677,1,0,0:0:0:0:
256,192,40896,1,0,0:0:0:0:
475,192,40896,128,0,41115:0:0:0:0:
36,192,41115,1,0,0:0:0:0:
329,192,41115,128,0,41334:0:0:0:0:
402,192,41334,128,0,41553:0:0:0:0:
109,192,41334,1,0,0:0:0:0:
256,192,41553,128,0,41772:0:0:0:0:
182,192,41553,1,0,0:0:0:0:
329,192,41772,128,0,41991:0:0:0:0:
402,192,41772,1,0,0:0:0:0:
182,192,41991,128,0,42429:0:0:0:0:
36,192,41991,1,0,0:0:0:0:
475,192,41991,1,0,0:0:0:0:
475,192,42210,1,0,0:0:0:0:
109,192,42429,128,0,44181:0:0:0:0:
256,192,42429,1,0,0:0:0:0:
402,192,42429,1,0,0:0:0:0:
329,192,42648,1,0,0:0:0:0:
36,192,42867,1,0,0:0:0:0:
475,192,42867,1,0,0:0:0:0:
329,192,43086,1,0,0:0:0:0:
182,192,43305,1,0,0:0:0:0:
329,192,43524,1,0,0:0:0:0:
475,192,43743,1,0,0:0:0:0:
182,192,43962,1,0,0:0:0:0:
402,192,44181,128,0,45933:0:0:0:0:
256,192,44181,1,0,0:0:0:0:
182,192,44400,1,0,0:0:0:0:
36,192,44619,1,0,0:0:0:0:
329,192,44619,1,0,0:0:0:0:
182,192,44838,1,0,0:0:0:0:
256,192,45057,1,0,0:0:0:0:
329,192,45276,1,0,0:0:0:0:
36,192,45495,1,0,0:0:0:0:
475,192,45495,1,0,0:0:0:0:
256,192,45714,1,0,0:0:0:0:
36,192,45933,128,0,46371:0:0:0:0:
475,192,45933,128,0,46371:0:0:0:0:
182,192,45933,1,0,0:0:0:0:
329,192,45933,1,0,0:0:0:0:
329,192,46152,1,0,0:0:0:0:
182,192,46371,1,0,0:0:0:0:
109,192,46590,1,0,0:0:0:0:
182,192,46699,1,0,0:0:0:0:
256,192,46809,1,0,0:0:0:0:
329,192,47028,1,0,0:0:0:0:
182,192,47028,1,0,0:0:0:0:
109,192,47247,1,0,0:0:0:0:
402,192,47247,1,0,0:0:0:0:
182,192,47466,1,0,0:0:0:0:
329,192,47575,1,0,0:0:0:0:
36,192,47685,1,0,0:0:0:0:
182,192,47685,128,0,48342:0:0:0:0:
329,192,47685,128,0,48342:0:0:0:0:
475,192,47685,1,0,0:0:0:0:
182,192,48561,128,0,49218:0:0:0:0:
329,192,48561,128,0,49218:0:0:0:0:
475,192,48561,1,0,0:0:0:0:
36,192,48561,1,0,0:0:0:0:
256,192,48999,1,0,0:0:0:0:
36,192,49437,1,0,0:0:0:0:
475,192,49437,1,0,0:0:0:0:
256,192,49437,1,0,0:0:0:0:
475,192,49656,1,0,0:0:0:0:
36,192,49656,1,0,0:0:0:0:
256,192,49656,1,0,0:0:0:0:
256,192,49875,128,0,51188:0:0:0:0:
329,192,50312,1,0,0:0:0:0:
402,192,50312,1,0,0:0:0:0:
182,192,50422,1,0,0:0:0:0:
109,192,50422,1,0,0:0:0:0:
475,192,50641,1,0,0:0:0:0:
402,192,50641,1,0,0:0:0:0:
109,192,50750,1,0,0:0:0:0:
36,192,50750,1,0,0:0:0:0:
36,192,50969,1,0,0:0:0:0:
109,192,51079,1,0,0:0:0:0:
182,192,51188,1,0,0:0:0:0:
475,192,51188,128,0,52940:0:0:0:0:
329,192,51188,1,0,0:0:0:0:
109,192,51407,1,0,0:0:0:0:
182,192,51626,1,0,0:0:0:0:
329,192,51626,1,0,0:0:0:0:
36,192,51845,1,0,0:0:0:0:
109,192,52064,1,0,0:0:0:0:
402,192,52283,1,0,0:0:0:0:
182,192,52502,1,0,0:0:0:0:
329,192,52502,1,0,0:0:0:0:
109,192,52721,1,0,0:0:0:0:
182,192,52940,128,0,54692:0:0:0:0:
402,192,52940,1,0,0:0:0:0:
329,192,53159,1,0,0:0:0:0:
109,192,53378,1,0,0:0:0:0:
36,192,53378,1,0,0:0:0:0:
475,192,53597,1,0,0:0:0:0:
402,192,53816,1,0,0:0:0:0:
329,192,53926,1,0,0:0:0:0:
256,192,54035,1,0,0:0:0:0:
109,192,54254,1,0,0:0:0:0:
36,192,54254,1,0,0:0:0:0:
329,192,54473,1,0,0:0:0:0:
402,192,54692,128,0,56444:0:0:0:0:
36,192,54692,1,0,0:0:0:0:
475,192,54692,1,0,0:0:0:0:
109,192,54911,1,0,0:0:0:0:
182,192,55130,1,0,0:0:0:0:
329,192,55130,1,0,0:0:0:0:
109,192,55349,1,0,0:0:0:0:
182,192,55568,1,0,0:0:0:0:
256,192,55677,1,0,0:0:0:0:
329,192,55787,1,0,0:0:0:0:
36,192,56006,1,0,0:0:0:0:
475,192,56006,1,0,0:0:0:0:
182,192,56225,1,0,0:0:0:0:
329,192,56444,1,0,0:0:0:0:
36,192,56663,1,0,0:0:0:0:
182,192,56772,1,0,0:0:0:0:
329,192,56882,1,0,0:0:0:0:
475,192,56991,1,0,0:0:0:0:
329,192,57101,1,0,0:0:0:0:
182,192,57210,1,0,0:0:0:0:
36,192,57320,1,0,0:0:0:0:
256,192,57539,128,0,58196:0:0:0:0:
402,192,57539,1,0,0:0:0:0:
109,192,57758,1,0,0:0:0:0:
402,192,57758,1,0,0:0:0:0:
36,192,58196,1,0,0:0:0:0:
475,192,58196,1,0,0:0:0:0:
182,192,58415,1,0,0:0:0:0:
402,192,58634,1,0,0:0:0:0:
329,192,58634,1,0,0:0:0:0:
109,192,58853,1,0,0:0:0:0:
475,192,58853,128,0,59291:0:0:0:0:
329,192,59072,1,0,0:0:0:0:
182,192,59181,1,0,0:0:0:0:
36,192,59291,1,0,0:0:0:0:
402,192,59510,1,0,0:0:0:0:
256,192,59510,1,0,0:0:0:0:
109,192,59729,1,0,0:0:0:0:
36,192,59948,128,0,60385:0:0:0:0:
329,192,59948,1,0,0:0:0:0:
182,192,60166,1,0,0:0:0:0:
475,192,60385,1,0,0:0:0:0:
109,192,60385,1,0,0:0:0:0:
329,192,60604,1,0,0:0:0:0:
36,192,60823,1,0,0:0:0:0:
109,192,60933,1,0,0:0:0:0:
182,192,61042,1,0,0:0:0:0:
475,192,61261,1,0,0:0:0:0:
36,192,61261,1,0,0:0:0:0:
402,192,61480,1,0,0:0:0:0:
329,192,61699,1,0,0:0:0:0:
109,192,61918,1,0,0:0:0:0:
402,192,62137,1,0,0:0:0:0:
475,192,62137,1,0,0:0:0:0:
182,192,62356,1,0,0:0:0:0:
36,192,62575,1,0,0:0:0:0:
402,192,62794,1,0,0:0:0:0:
256,192,63013,1,0,0:0:0:0:
109,192,63232,1,0,0:0:0:0:
329,192,63342,1,0,0:0:0:0:
475,192,63451,1,0,0:0:0:0:
182,192,63670,1,0,0:0:0:0:
36,192,63670,1,0,0:0:0:0:
36,192,63889,1,0,0:0:0:0:
182,192,63889,1,0,0:0:0:0:
402,192,64108,1,0,0:0:0:0:
329,192,64218,1,0,0:0:0:0:
256,192,64327,1,0,0:0:0:0:
36,192,64546,1,0,0:0:0:0:
475,192,64546,1,0,0:0:0:0:
182,192,64765,1,0,0:0:0:0:
256,192,64875,1,0,0:0:0:0:
329,192,64984,128,0,65203:0:0:0:0:
109,192,65203,1,0,0:0:0:0:
36,192,65203,1,0,0:0:0:0:
475,192,65203,1,0,0:0:0:0:
182,192,65422,1,0,0:0:0:0:
402,192,65641,1,0,0:0:0:0:
475,192,65641,1,0,0:0:0:0:
182,192,65860,1,0,0:0:0:0:
36,192,66079,1,0,0:0:0:0:
329,192,66298,1,0,0:0:0:0:
475,192,66517,1,0,0:0:0:0:
109,192,66736,128,0,67174:0:0:0:0:
256,192,66736,1,0,0:0:0:0:
402,192,66955,1,0,0:0:0:0:
36,192,67174,1,0,0:0:0:0:
182,192,67393,1,0,0:0:0:0:
402,192,67612,128,0,68050:0:0:0:0:
329,192,67612,1,0,0:0:0:0:
182,192,67831,1,0,0:0:0:0:
109,192,67940,1,0,0:0:0:0:
36,192,68050,1,0,0:0:0:0:
402,192,68269,1,0,0:0:0:0:
475,192,68269,1,0,0:0:0:0:
36,192,68488,1,0,0:0:0:0:
182,192,68707,1,0,0:0:0:0:
402,192,68926,1,0,0:0:0:0:
109,192,69145,1,0,0:0:0:0:
36,192,69145,1,0,0:0:0:0:
475,192,69364,1,0,0:0:0:0:
182,192,69583,1,0,0:0:0:0:
402,192,69802,1,0,0:0:0:0:
36,192,70021,1,0,0:0:0:0:
109,192,70021,1,0,0:0:0:0:
329,192,70239,1,0,0:0:0:0:
475,192,70458,1,0,0:0:0:0:
182,192,70677,128,0,70896:0:0:0:0:
402,192,70677,1,0,0:0:0:0:
109,192,70896,128,0,71115:0:0:0:0:
329,192,70896,1,0,0:0:0:0:
36,192,71115,128,0,71772:0:0:0:0:
475,192,71115,1,0,0:0:0:0:
256,192,71334,1,0,0:0:0:0:
329,192,71444,1,0,0:0:0:0:
402,192,71553,1,0,0:0:0:0:
182,192,71772,1,0,0:0:0:0:
109,192,71772,1,0,0:0:0:0:
329,192,71991,1,0,0:0:0:0:
36,192,72210,1,0,0:0:0:0:
256,192,72210,1,0,0:0:0:0:
475,192,72210,1,0,0:0:0:0:
109,192,72429,1,0,0:0:0:0:
329,192,72648,1,0,0:0:0:0:
475,192,72648,1,0,0:0:0:0:
182,192,72867,1,0,0:0:0:0:
402,192,73086,1,0,0:0:0:0:
329,192,73196,1,0,0:0:0:0:
256,192,73305,1,0,0:0:0:0:
475,192,73524,1,0,0:0:0:0:
402,192,73524,1,0,0:0:0:0:
109,192,73743,1,0,0:0:0:0:
402,192,73962,1,0,0:0:0:0:
36,192,74181,1,0,0:0:0:0:
329,192,74400,1,0,0:0:0:0:
182,192,74400,1,0,0:0:0:0:
109,192,74619,1,0,0:0:0:0:
329,192,74838,1,0,0:0:0:0:
256,192,74948,1,0,0:0:0:0:
182,192,75057,1,0,0:0:0:0:
475,192,75276,1,0,0:0:0:0:
36,192,75276,1,0,0:0:0:0:
256,192,75495,1,0,0:0:0:0:
109,192,75714,128,0,76152:0:0:0:0:
329,192,75714,1,0,0:0:0:0:
402,192,75933,1,0,0:0:0:0:
475,192,76152,1,0,0:0:0:0:
329,192,76371,1,0,0:0:0:0:
182,192,76590,1,0,0:0:0:0:
36,192,76809,1,0,0:0:0:0:
109,192,77028,1,0,0:0:0:0:
329,192,77028,1,0,0:0:0:0:
475,192,77028,1,0,0:0:0:0:
256,192,77356,1,0,0:0:0:0:
109,192,77466,1,0,0:0:0:0:
402,192,77466,1,0,0:0:0:0:
36,192,77685,1,0,0:0:0:0:
475,192,77685,1,0,0:0:0:0:
475,192,77904,1,0,0:0:0:0:
36,192,77904,1,0,0:0:0:0:
256,192,78123,1,0,0:0:0:0:
256,192,78342,1,0,0:0:0:0:
109,192,78451,1,0,0:0:0:0:
402,192,78451,1,0,0:0:0:0:
182,192,78780,1,0,0:0:0:0:
329,192,78780,1,0,0:0:0:0:
36,192,78999,1,0,0:0:0:0:
475,192,78999,1,0,0:0:0:0:
402,192,79108,1,0,0:0:0:0:
109,192,79108,1,0,0:0:0:0:
182,192,79218,1,0,0:0:0:0:
329,192,79218,1,0,0:0:0:0:
256,192,79218,128,0,80750:0:0:0:0:
109,192,79437,1,0,0:0:0:0:
329,192,79656,1,0,0:0:0:0:
475,192,79656,1,0,0:0:0:0:
109,192,79875,1,0,0:0:0:0:
475,192,80094,1,0,0:0:0:0:
402,192,80203,1,0,0:0:0:0:
329,192,80312,1,0,0:0:0:0:
182,192,80531,1,0,0:0:0:0:
36,192,80531,1,0,0:0:0:0:
329,192,80750,1,0,0:0:0:0:
402,192,80860,1,0,0:0:0:0:
475,192,80969,128,0,82502:0:0:0:0:
36,192,80969,1,0,0:0:0:0:
329,192,81188,1,0,0:0:0:0:
182,192,81407,1,0,0:0:0:0:
36,192,81407,1,0,0:0:0:0:
329,192,81626,1,0,0:0:0:0:
36,192,81845,1,0,0:0:0:0:
109,192,81955,1,0,0:0:0:0:
182,192,82064,1,0,0:0:0:0:
329,192,82283,1,0,0:0:0:0:
402,192,82283,1,0,0:0:0:0:
182,192,82502,1,0,0:0:0:0:
109,192,82612,1,0,0:0:0:0:
36,192,82721,128,0,84035:0:0:0:0:
402,192,82721,1,0,0:0:0:0:
182,192,82940,1,0,0:0:0:0:
329,192,83159,1,0,0:0:0:0:
475,192,83159,1,0,0:0:0:0:
182,192,83378,1,0,0:0:0:0:
402,192,83597,1,0,0:0:0:0:
329,192,83707,1,0,0:0:0:0:
256,192,83816,1,0,0:0:0:0:
182,192,84035,1,0,0:0:0:0:
109,192,84035,1,0,0:0:0:0:
475,192,84035,1,0,0:0:0:0:
182,192,84254,1,0,0:0:0:0:
329,192,84254,1,0,0:0:0:0:
36,192,84364,1,0,0:0:0:0:
475,192,84364,1,0,0:0:0:0:
256,192,84473,1,0,0:0:0:0:
475,192,84692,1,0,0:0:0:0:
402,192,84802,1,0,0:0:0:0:
329,192,84911,1,0,0:0:0:0:
182,192,84911,1,0,0:0:0:0:
109,192,85021,1,0,0:0:0:0:
402,192,85021,1,0,0:0:0:0:
475,192,85130,1,0,0:0:0:0:
36,192,85130,1,0,0:0:0:0:
109,192,85239,1,0,0:0:0:0:
402,192,85239,1,0,0:0:0:0:
182,192,85349,1,0,0:0:0:0:
329,192,85349,1,0,0:0:0:0:
182,192,85568,1,0,0:0:0:0:
329,192,85568,1,0,0:0:0:0:
329,192,85787,1,0,0:0:0:0:
182,192,85787,1,0,0:0:0:0:
109,192,86006,1,0,0:0:0:0:
402,192,86006,1,0,0:0:0:0:
182,192,86115,1,0,0:0:0:0:
329,192,86115,1,0,0:0:0:0:
36,192,86225,1,0,0:0:0:0:
475,192,86225,1,0,0:0:0:0:
256,192,86225,128,0,89510:0:0:0:0:
