osu file format v14

[General]
AudioFilename: lisa - kawaranai ao.mp3
AudioLeadIn: 0
PreviewTime: 56184
Countdown: 0
SampleSet: Soft
StackLeniency: 0.7
Mode: 0
LetterboxInBreaks: 0
WidescreenStoryboard: 0

[Editor]
DistanceSpacing: 0.8
BeatDivisor: 4
GridSize: 8
TimelineZoom: 1

[Metadata]
Title:Kawaranai Ao
TitleUnicode:変わらない青
Artist:LiSA
ArtistUnicode:LiSA
Creator:Inahime
Version:Normal
Source:
Tags:Lisa Crossing Field Oath Sign SAO Sword Art Online Fate Zero einess
BeatmapID:361612
BeatmapSetID:145857

[Difficulty]
HPDrainRate:5
CircleSize:3
OverallDifficulty:3
ApproachRate:5
SliderMultiplier:1.39999990463257
SliderTickRate:1

[Events]
//Background and Video events
0,0,"Saber.jpg",0,0
//Break Periods
//Storyboard Layer 0 (Background)
//Storyboard Layer 1 (Fail)
//Storyboard Layer 2 (Pass)
//Storyboard Layer 3 (Foreground)
//Storyboard Sound Samples

[TimingPoints]
797,394.736842105263,4,2,0,60,1,0
25961,-100,4,2,0,80,0,0
38198,-100,4,2,0,100,0,0
44908,-100,4,2,0,80,0,0
51027,-100,4,1,0,80,0,0
57639,-100,4,1,0,70,0,1
68889,-100,4,1,0,70,0,0
70270,-100,4,1,0,70,0,1
83691,-100,4,2,0,60,0,0

[Colours]
Combo1 : 255,211,81
Combo2 : 201,99,235
Combo3 : 102,4,123
Combo4 : 182,10,35

[HitObjects]
176,184,797,6,0,P|200:264|256:288,1,139.999990463257,0|0,2:2|2:2,0:0:0:0:
328,216,1586,1,2,0:0:0:0:
168,56,2375,2,0,P|88:32|32:64,1,139.999990463257,0|0,2:2|2:2,0:0:0:0:
48,168,3165,1,4,0:0:0:0:
264,216,3954,6,0,P|346:209|386:157,1,139.999990463257,0|0,2:2|0:0,0:0:0:0:
392,56,4744,1,2,0:0:0:0:
224,56,5336,1,4,0:0:0:0:
224,224,5928,2,0,B|296:280|368:208,1,139.999990463257
368,112,6718,1,0,0:0:0:0:
256,112,7112,1,4,0:0:0:0:
360,312,7902,6,0,P|312:304|280:280,1,69.9999952316285
312,240,8297,2,0,P|305:205|287:176,1,69.9999952316285
40,312,9481,2,0,P|64:232|128:192,2,139.999990463257,0|0|0,0:0|0:0|0:0,0:0:0:0:
152,312,10665,1,0,0:0:0:0:
264,312,11060,1,0,0:0:0:0:
176,80,11652,6,0,L|344:80,1,139.999990463257,0|0,2:2|2:2,0:0:0:0:
416,120,12441,1,0,0:0:0:0:
312,160,12836,2,0,L|232:160,1,69.9999952316285,0|0,2:2|2:2,0:0:0:0:
136,120,13428,6,0,L|192:176,1,69.9999952316285,0|0,0:0|0:0,0:0:0:0:
232,208,13823,2,0,L|288:264,1,69.9999952316285,0|0,0:0|0:0,0:0:0:0:
328,296,14218,1,2,0:0:0:0:
360,192,14612,2,0,L|288:120,1,69.9999952316285,0|0,0:0|0:0,0:0:0:0:
224,64,15204,1,2,0:0:0:0:
112,72,15599,2,2,P|88:144|120:216,1,139.999990463257
256,128,16586,2,0,L|344:176,1,69.9999952316285,2|0,0:0|0:0,0:0:0:0:
320,216,16981,2,0,P|400:232|472:208,1,139.999990463257
384,128,17770,2,0,L|384:58,1,69.9999952316285,0|0,0:0|0:0,0:0:0:0:
384,58,18165,5,2,0:0:0:0:
272,56,18560,1,2,0:0:0:0:
160,56,18954,1,2,0:0:0:0:
72,120,19349,1,2,0:0:0:0:
128,216,19744,5,0,0:0:0:0:
168,256,19941,2,0,L|224:200,1,69.9999952316285,0|0,0:0|0:0,0:0:0:0:
256,168,20336,2,0,L|306:119,1,69.9999952316285,0|0,0:0|0:0,0:0:0:0:
232,32,20928,1,0,0:0:0:0:
176,32,21125,1,0,0:0:0:0:
104,120,21520,6,0,P|120:200|72:256,1,139.999990463257,0|0,0:0|0:0,0:0:0:0:
192,288,22310,1,2,0:0:0:0:
240,128,22902,2,4,P|152:39|65:151,1,279.999980926514,4|4,0:0|0:0,0:0:0:0:
64,240,24086,1,2,0:0:0:0:
64,240,24283,1,2,0:0:0:0:
176,240,24678,2,0,B|248:240|248:240,1,69.9999952316285,0|0,0:0|0:0,0:0:0:0:
296,272,25073,2,0,P|326:255|341:224,1,69.9999952316285
392,208,25468,2,0,P|392:242|372:270,2,69.9999952316285,0|0|0,0:0|0:0|0:0,0:0:0:0:
456,144,26060,6,0,L|288:144,2,139.999990463257,0|0|0,0:0|0:0|0:0,0:0:0:0:
456,144,27244,1,8,0:0:0:0:
456,144,27441,1,8,0:0:0:0:
456,256,27836,2,0,L|456:344,2,69.9999952316285,0|0|0,0:0|0:0|0:0,0:0:0:0:
400,256,28428,2,0,L|330:256,2,69.9999952316285,0|0|0,0:0|0:0|0:0,0:0:0:0:
456,256,29020,1,8,0:0:0:0:
456,200,29218,2,0,L|456:104,4,69.9999952316285,0|0|0|0|0,2:2|0:0|0:0|0:0|2:2,0:0:0:0:
368,128,30402,1,8,0:0:0:0:
368,128,30599,1,8,0:0:0:0:
256,112,30994,5,0,0:0:0:0:
256,56,31191,1,0,0:0:0:0:
200,56,31389,1,0,0:0:0:0:
312,56,31783,1,0,0:0:0:0:
176,208,32375,6,0,P|136:192|104:224,4,69.9999952316285,0|0|0|0|0,0:0|0:2|0:2|0:2|2:2,0:0:0:0:
248,248,33560,5,2,0:0:0:0:
304,248,33757,1,2,0:0:0:0:
328,136,34152,1,2,0:0:0:0:
328,80,34349,2,0,L|232:80,1,69.9999952316285,0|2,2:2|2:2,0:0:0:0:
128,56,35336,5,0,0:0:0:0:
128,112,35533,1,2,0:0:0:0:
136,224,35928,2,0,L|280:224,1,139.999990463257,2|2,2:2|2:2,0:0:0:0:
200,144,36718,2,0,L|120:144,1,69.9999952316285,2|0,0:0|0:0,0:0:0:0:
72,160,37112,2,0,P|48:192|48:232,1,69.9999952316285,2|2,0:0|0:0,0:0:0:0:
128,296,37704,1,0,0:0:0:0:
256,192,38297,6,0,L|184:192,1,69.9999952316285,0|0,2:2|2:2,0:0:0:0:
128,192,38691,1,0,0:0:0:0:
128,136,38889,2,0,L|128:64,2,69.9999952316285,0|0|0,0:0|0:0|0:0,0:0:0:0:
256,80,39678,5,0,0:0:0:0:
312,80,39875,1,0,0:0:0:0:
368,80,40073,2,0,P|416:152|384:224,1,139.999990463257,0|0,2:2|2:2,0:0:0:0:
408,312,40862,1,0,0:0:0:0:
296,312,41257,2,0,L|56:312,1,209.999985694886,0|4,2:2|2:2,0:0:0:0:
86,312,42047,5,2,0:0:0:0:
86,256,42244,1,2,0:0:0:0:
86,200,42441,1,2,0:0:0:0:
88,88,42836,5,2,0:0:0:0:
88,144,43033,1,2,0:0:0:0:
88,200,43231,1,2,0:0:0:0:
192,160,43625,2,0,P|369:68|424:176,1,349.999976158143,0|0,2:2|0:2,0:0:0:0:
384,264,45007,5,0,0:0:0:0:
272,264,45402,1,0,0:0:0:0:
160,264,45797,1,0,2:2:0:0:
72,192,46191,2,0,P|64:144|88:112,1,69.9999952316285
160,56,46783,1,0,0:0:0:0:
272,80,47178,2,0,P|344:88|384:144,1,139.999990463257,0|0,2:2|2:2,0:0:0:0:
304,160,47770,6,0,P|280:208|288:232,1,69.9999952316285
336,216,48165,1,0,0:0:0:0:
440,168,48560,1,0,0:0:0:0:
448,56,48954,1,0,0:0:0:0:
336,56,49349,2,0,L|248:56,1,69.9999952316285,0|2,2:2|0:0,0:0:0:0:
312,136,49941,6,0,P|264:144|248:168,1,69.9999952316285,0|0,0:0|0:0,0:0:0:0:
240,216,50336,1,2,0:0:0:0:
312,296,50731,2,0,P|360:288|376:264,1,69.9999952316285,0|0,0:0|0:0,0:0:0:0:
400,224,51125,2,0,L|400:144,1,69.9999952316285,0|0,0:0|0:0,0:0:0:0:
288,128,51718,1,0,0:0:0:0:
176,128,52112,1,0,0:0:0:0:
232,32,52507,1,0,0:0:0:0:
176,32,52704,1,0,0:0:0:0:
176,32,52902,1,0,0:0:0:0:
256,192,53099,12,0,54086,0:0:0:0:
328,80,54481,6,0,L|400:152,1,69.9999952316285,0|0,0:0|0:0,0:0:0:0:
328,288,55073,2,0,L|229:314,1,69.9999952316285,0|0,0:0|0:0,0:0:0:0:
144,184,55665,2,0,L|162:116,1,69.9999952316285,0|0,0:0|0:0,0:0:0:0:
408,168,56849,6,0,P|368:208|328:216,2,69.9999952316285,0|0|0,2:2|2:2|2:2,0:0:0:0:
408,168,57639,6,0,P|344:104|272:104,1,139.999990463257,0|0,0:0|0:0,0:0:0:0:
184,104,58428,1,0,0:0:0:0:
80,144,58823,2,0,P|48:208|56:232,1,69.9999952316285,0|0,0:0|0:0,0:0:0:0:
128,280,59415,1,0,0:0:0:0:
232,320,59810,2,0,L|392:320,1,139.999990463257,0|0,0:0|0:0,0:0:0:0:
432,320,60402,1,0,0:0:0:0:
480,296,60599,6,0,L|480:216,1,69.9999952316285,0|0,0:0|0:0,0:0:0:0:
440,120,61191,1,0,0:0:0:0:
336,80,61586,1,0,0:0:0:0:
232,32,61981,2,0,P|240:72|208:120,1,69.9999952316285
120,112,62573,1,0,0:0:0:0:
48,192,62968,2,0,P|88:280|144:312,1,139.999990463257,0|0,0:0|0:0,0:0:0:0:
176,320,63560,2,0,L|248:320,1,69.9999952316285
288,304,63954,5,0,0:0:0:0:
256,192,64349,2,0,P|248:152|264:128,1,69.9999952316285
368,104,64941,1,0,0:0:0:0:
368,104,65139,1,0,0:0:0:0:
368,160,65336,1,0,0:0:0:0:
256,152,65731,2,0,L|168:136|168:136,1,69.9999952316285,0|0,0:0|0:0,0:0:0:0:
144,80,66323,6,0,P|72:96|64:104,1,69.9999952316285,0|0,0:0|0:0,0:0:0:0:
72,144,66718,1,0,0:0:0:0:
120,248,67112,2,0,P|200:176|208:128,1,139.999990463257,0|0,0:0|0:0,0:0:0:0:
232,112,67704,1,0,0:0:0:0:
304,192,68099,2,0,P|384:296|408:304,1,139.999990463257,0|0,0:0|0:0,0:0:0:0:
424,256,68691,1,0,0:0:0:0:
424,256,68889,1,0,0:0:0:0:
416,144,69283,2,0,P|312:96|264:96,1,139.999990463257,0|0,0:0|0:0,0:0:0:0:
232,88,69875,1,0,0:0:0:0:
136,88,70270,6,0,P|80:112|72:192,2,139.999990463257,0|0|0,0:0|0:0|0:0,0:0:0:0:
168,192,71454,1,0,0:0:0:0:
216,160,71652,2,0,P|304:120|368:128,1,139.999990463257,0|0,0:0|0:0,0:0:0:0:
392,152,72244,2,0,L|392:224,1,69.9999952316285
328,256,72836,1,0,0:0:0:0:
120,48,73428,5,0,0:0:0:0:
216,80,73823,2,0,P|128:144|80:144,1,139.999990463257,0|0,0:0|0:0,0:0:0:0:
72,192,74415,1,0,0:0:0:0:
72,248,74612,2,0,P|104:288|144:304,1,69.9999952316285,0|0,0:0|0:0,0:0:0:0:
232,280,75204,1,0,0:0:0:0:
336,248,75599,2,0,P|408:232|432:144,1,139.999990463257,0|0,0:0|0:0,0:0:0:0:
352,32,76586,5,0,0:0:0:0:
248,72,76981,2,0,L|280:152,1,69.9999952316285,0|0,0:0|0:0,0:0:0:0:
184,72,77573,2,0,L|152:152,1,69.9999952316285,0|0,0:0|0:0,0:0:0:0:
136,192,77968,1,0,0:0:0:0:
304,192,78560,5,0,0:0:0:0:
400,248,78954,2,0,P|368:304|280:280,1,139.999990463257,0|0,0:0|0:0,0:0:0:0:
304,192,79744,2,0,P|200:192|160:288,1,209.999985694886,0|0,0:0|0:0,0:0:0:0:
136,72,80731,5,0,0:0:0:0:
192,72,80928,1,0,0:0:0:0:
256,72,81125,2,0,P|344:208|272:312,1,279.999980926514,0|0,0:0|0:0,0:0:0:0:
256,56,83691,6,0,L|256:152,1,69.9999952316285,2|2,0:0|0:0,0:0:0:0:
256,240,84283,1,2,0:0:0:0:
32,240,85073,1,2,0:0:0:0:
72,200,85271,2,0,L|72:144|72:128,1,69.9999952316285,2|2,2:2|2:2,0:0:0:0:
256,112,86060,6,0,P|368:232|288:304,1,279.999980926514,0|0,2:2|2:2,0:0:0:0:
264,208,87639,2,0,P|152:88|232:16,1,279.999980926514,0|0,2:2|2:2,0:0:0:0:
256,192,89218,12,0,91981,0:0:0:0:
