osu file format v14

[General]
AudioFilename: lisa - kawaranai ao.mp3
AudioLeadIn: 0
PreviewTime: 56184
Countdown: 0
SampleSet: Soft
StackLeniency: 0.7
Mode: 0
LetterboxInBreaks: 0
WidescreenStoryboard: 0

[Editor]
Bookmarks: 17957
DistanceSpacing: 1.4
BeatDivisor: 4
GridSize: 8
TimelineZoom: 1

[Metadata]
Title:Kawaranai Ao
TitleUnicode:変わらない青
Artist:LiSA
ArtistUnicode:LiSA
Creator:Inahime
Version:Insane
Source:
Tags:Lisa Crossing Field Oath Sign SAO Sword Art Online Fate Zero einess
BeatmapID:444904
BeatmapSetID:145857

[Difficulty]
HPDrainRate:7
CircleSize:4
OverallDifficulty:7
ApproachRate:9
SliderMultiplier:1.59999990463257
SliderTickRate:1

[Events]
//Background and Video events
0,0,"Kirito.jpg",0,0
//Break Periods
//Storyboard Layer 0 (Background)
//Storyboard Layer 1 (Fail)
//Storyboard Layer 2 (Pass)
//Storyboard Layer 3 (Foreground)
//Storyboard Sound Samples

[TimingPoints]
797,394.736842105263,4,2,0,60,1,0
13329,-100,4,2,0,60,0,0
22211,-100,4,1,0,60,0,0
23987,-66.6666666666667,4,1,0,60,0,0
24974,-100,4,1,0,60,0,0
44711,-100,4,2,0,60,0,0
49645,-100,4,1,0,60,0,0
54283,-100,4,1,0,80,0,0
56750,-100,4,1,0,60,0,0
56849,-200,4,1,0,60,0,1
57408,-100,4,1,0,60,0,1
58691,-100,4,1,0,60,0,1
68691,-100,4,1,0,60,0,0
70270,-100,4,1,0,60,0,1
82310,-100,4,1,0,60,0,0
83494,-100,4,1,0,60,0,0
86060,-133.333333333333,4,1,0,60,0,0
89218,-66.6666666666667,4,2,0,60,0,0
90994,-66.6666666666667,4,2,0,60,0,0
91191,-66.6666666666667,4,2,0,54,0,0
91389,-66.6666666666667,4,2,0,48,0,0
91586,-66.6666666666667,4,2,0,42,0,0
91783,-66.6666666666667,4,2,0,36,0,0
91981,-66.6666666666667,4,2,0,30,0,0
92178,-66.6666666666667,4,2,0,24,0,0

[Colours]
Combo1 : 255,211,81
Combo2 : 201,99,235
Combo3 : 102,4,123
Combo4 : 182,10,35

[HitObjects]
384,104,796,6,0,P|352:88|304:80,1,79.9999952316285
203,80,1191,2,0,P|163:86|128:104,1,79.9999952316285,0|0,0:0|0:0,0:0:0:0:
56,192,1586,1,2,0:0:0:0:
384,280,2375,6,0,P|352:296|304:304,1,79.9999952316285
203,303,2770,2,0,P|163:297|128:280,1,79.9999952316285,0|0,0:0|0:0,0:0:0:0:
56,192,3165,1,2,0:0:0:0:
344,192,3559,1,2,0:0:0:0:
464,112,3757,1,0,0:0:0:0:
344,32,3954,2,0,B|256:32,1,79.9999952316285
160,120,4349,1,2,0:0:0:0:
280,184,4547,2,0,P|320:168|344:136,2,79.9999952316285,0|0|0,0:0|0:0|0:0,0:0:0:0:
112,216,5139,1,0,0:0:0:0:
40,96,5336,5,4,0:0:0:0:
256,48,5731,2,0,P|292:30|328:56,1,79.9999952316285,0|2,2:2|0:0,0:0:0:0:
328,160,6125,2,0,P|364:178|400:152,1,79.9999952316285,0|2,2:2|0:0,0:0:0:0:
400,48,6520,2,0,P|436:30|472:56,1,79.9999952316285,0|2,2:2|0:0,0:0:0:0:
472,160,6915,1,0,0:0:0:0:
440,272,7112,6,0,P|416:304|376:320,1,79.9999952316285,0|0,0:0|0:0,0:0:0:0:
272,320,7507,1,2,0:0:0:0:
184,248,7704,1,0,0:0:0:0:
104,184,7902,2,0,P|64:168|32:184,2,79.9999952316285,0|0|0,0:0|0:0|0:0,0:0:0:0:
208,224,8494,1,0,0:0:0:0:
248,232,8593,1,0,0:0:0:0:
288,224,8691,1,0,0:0:0:0:
360,312,8889,2,0,P|392:296|416:248,1,79.9999952316285,0|2,0:0|0:0,0:0:0:0:
440,152,9283,5,0,0:0:0:0:
440,64,9481,1,0,0:0:0:0:
296,64,9678,2,0,L|216:64,1,79.9999952316285,0|2,2:2|0:2,0:0:0:0:
136,64,10073,2,0,P|96:88|88:136,1,79.9999952316285
256,264,10665,5,0,0:0:0:0:
256,264,11060,1,0,0:0:0:0:
360,224,11257,6,0,P|336:184|312:160,1,79.9999952316285
199,160,11652,2,0,P|171:189|152:224,1,79.9999952316285
144,336,12047,1,0,0:0:0:0:
256,328,12244,1,0,0:0:0:0:
368,336,12441,1,2,0:0:0:0:
256,144,12836,1,0,0:0:0:0:
256,144,12935,1,0,0:0:0:0:
256,144,13033,1,0,0:0:0:0:
48,184,13428,5,0,0:0:0:0:
160,208,13625,2,0,P|192:216|240:200,1,79.9999952316285
336,144,14020,1,2,0:0:0:0:
376,128,14119,1,0,0:0:0:0:
416,144,14218,2,0,P|464:216|416:264,1,159.999990463257
320,296,14810,2,0,L|280:296,2,39.9999976158142,0|0|0,0:0|0:0|0:0,0:0:0:0:
320,184,15204,1,2,0:0:0:0:
88,128,15599,2,0,B|112:96|168:88,1,79.9999952316285
272,80,15994,1,2,0:0:0:0:
416,232,16389,6,0,L|360:288,1,79.9999952316285,0|0,0:2|0:2,0:0:0:0:
248,328,16783,1,2,0:0:0:0:
136,304,16981,1,0,0:0:0:0:
136,192,17178,1,0,0:0:0:0:
256,168,17375,2,0,L|352:168,1,79.9999952316285,0|2,2:2|2:2,0:0:0:0:
392,72,17770,1,0,0:0:0:0:
280,48,17968,2,0,B|184:-24|200:72|104:32,1,159.999990463257
112,152,18560,6,0,P|112:184|152:208,1,79.9999952316285,2|0,0:0|0:0,0:0:0:0:
256,232,18954,1,2,0:0:0:0:
256,232,19152,1,2,0:0:0:0:
256,232,19349,1,2,0:0:0:0:
112,64,19744,5,0,0:0:0:0:
224,64,19941,1,0,0:0:0:0:
336,64,20139,2,0,L|336:152,1,79.9999952316285,2|0,2:2|0:2,0:0:0:0:
464,144,20533,1,0,0:0:0:0:
464,256,20731,2,0,B|424:272|376:256,1,79.9999952316285,2|0,0:0|0:0,0:0:0:0:
304,184,21125,1,0,0:0:0:0:
304,72,21323,1,0,0:0:0:0:
200,104,21520,5,0,0:0:0:0:
88,104,21718,2,0,L|48:104,2,39.9999976158142,2|0|2,0:0|0:0|0:0,0:0:0:0:
88,216,22112,1,0,0:0:0:0:
200,216,22310,2,0,L|240:216,2,39.9999976158142,2|2|2,2:2|2:2|2:2,0:0:0:0:
424,176,22902,2,0,B|368:136|456:104|336:56,1,159.999990463257
216,56,23494,1,0,0:0:0:0:
216,56,23691,1,0,0:0:0:0:
136,264,24086,6,0,P|104:280|136:312,2,59.9999987125397,2|0|2,2:2|2:2|2:2,2:2:0:0:
360,264,24678,2,0,P|384:280|360:312,2,59.9999987125397,2|0|2,2:2|2:2|2:2,2:2:0:0:
256,232,25073,1,2,2:2:0:0:
256,120,25270,1,6,2:2:0:0:
368,120,25468,1,2,2:2:0:0:
256,120,25665,1,6,2:2:0:0:
144,120,25862,1,2,2:2:0:0:
96,224,26060,5,0,0:0:0:0:
112,264,26158,1,0,0:0:0:0:
144,288,26257,1,0,0:0:0:0:
256,312,26454,1,0,0:0:0:0:
368,288,26652,1,0,0:0:0:0:
400,264,26750,1,0,0:0:0:0:
416,224,26849,1,0,0:0:0:0:
448,96,27047,5,0,0:0:0:0:
352,32,27244,2,0,P|296:40|256:64,1,79.9999952316285
208,136,27639,1,0,0:0:0:0:
112,184,27836,2,0,P|72:192|16:192,1,79.9999952316285
32,80,28231,1,2,2:2:0:0:
32,192,28428,1,0,0:0:0:0:
32,304,28625,1,2,2:2:0:0:
32,192,28823,1,0,0:0:0:0:
32,80,29020,5,2,2:2:0:0:
144,80,29218,2,0,L|223:81,1,79.9999952316285,0|0,2:2|0:0,0:0:0:0:
336,88,29612,2,0,L|384:8,1,79.9999952316285
440,112,30007,2,0,L|398:180,1,79.9999952316285
392,264,30402,1,0,0:0:0:0:
352,264,30500,1,0,0:0:0:0:
312,264,30599,1,0,0:0:0:0:
304,160,30797,5,0,2:2:0:0:
216,88,30994,1,0,2:0:0:0:
112,152,31191,2,0,P|88:184|88:224,1,79.9999952316285
160,304,31586,1,0,0:0:0:0:
256,352,31783,1,0,0:0:0:0:
360,320,31981,1,0,0:0:0:0:
392,288,32079,1,0,0:0:0:0:
400,248,32178,1,0,0:0:0:0:
160,304,32375,5,0,0:0:0:0:
88,224,32573,2,0,P|96:176|120:144,1,79.9999952316285,0|0,0:0|0:0,0:0:0:0:
192,80,32968,2,0,P|248:64|304:80,2,79.9999952316285,4|4|0,2:2|2:2|0:0,0:0:0:0:
216,168,33560,5,2,2:2:0:0:
280,264,33757,1,2,2:2:0:0:
352,352,33954,1,2,2:2:0:0:
408,256,34152,1,0,0:0:0:0:
344,160,34349,1,0,0:0:0:0:
456,160,34547,2,0,L|304:256,1,159.999990463257
176,232,35139,1,0,0:0:0:0:
176,88,35336,6,0,L|112:88,2,39.9999976158142,0|0|0,0:2|0:2|0:0,0:0:0:0:
312,88,35731,2,0,P|296:136|264:136,1,79.9999952316285,0|0,0:0|0:0,0:0:0:0:
272,248,36125,1,0,0:0:0:0:
312,248,36224,1,0,0:0:0:0:
352,248,36323,1,0,0:0:0:0:
448,296,36520,1,8,0:0:0:0:
336,296,36718,1,0,0:0:0:0:
224,296,36915,5,8,0:0:0:0:
112,296,37112,2,0,L|16:296,1,79.9999952316285,0|8,2:2|2:2,0:0:0:0:
32,184,37507,1,0,0:0:0:0:
32,72,37704,2,0,L|120:72,2,79.9999952316285,8|8|8,0:0|0:0|0:0,0:0:0:0:
136,200,38297,6,0,L|200:200,2,39.9999976158142,0|0|0,0:2|0:2|0:0,0:0:0:0:
136,88,38691,2,0,P|176:56|232:56,1,79.9999952316285,8|8,0:0|0:0,0:0:0:0:
256,48,38987,1,0,0:0:0:0:
308,51,39086,2,0,P|347:61|376:88,1,79.9999952316285,8|8,0:0|0:0,0:0:0:0:
344,312,39678,5,0,0:0:0:0:
304,312,39777,1,0,0:0:0:0:
264,312,39875,1,0,0:0:0:0:
152,288,40073,2,0,P|120:272|96:216,1,79.9999952316285,0|0,0:2|0:2,0:0:0:0:
64,120,40468,1,0,0:0:0:0:
176,120,40665,1,0,0:0:0:0:
288,120,40862,1,0,0:0:0:0:
288,120,40961,1,0,0:0:0:0:
288,120,41060,1,0,0:0:0:0:
176,120,41257,2,0,L|176:24,1,79.9999952316285,0|4,0:0|0:0,0:0:0:0:
64,40,41652,1,0,0:0:0:0:
64,152,41849,5,2,2:2:0:0:
73,190,41948,1,2,2:2:0:0:
97,221,42047,1,8,0:0:0:0:
125,249,42145,1,2,2:2:0:0:
161,265,42244,1,8,0:0:0:0:
200,270,42343,1,2,2:2:0:0:
240,270,42441,1,8,0:0:0:0:
336,64,42836,5,0,0:0:0:0:
448,64,43033,1,0,0:0:0:0:
448,104,43132,1,0,0:0:0:0:
448,144,43231,1,0,0:0:0:0:
256,64,43625,1,0,0:0:0:0:
144,56,43823,2,0,P|112:40|80:40,2,39.9999976158142,0|0|0,0:0|0:0|0:0,0:0:0:0:
104,152,44218,2,0,P|64:216|96:296,1,159.999990463257,0|0,0:2|0:2,0:0:0:0:
208,120,44810,5,0,0:0:0:0:
208,120,44908,1,0,0:0:0:0:
208,120,45007,2,0,P|248:112|304:120,1,79.9999952316285,2|0,0:0|0:0,0:0:0:0:
342,186,45402,2,0,P|329:225|294:269,1,79.9999952316285,2|0,0:0|0:0,0:0:0:0:
256,192,45797,1,0,0:0:0:0:
217,269,45994,2,0,P|190:238|169:186,1,79.9999952316285,2|0,0:0|0:0,0:0:0:0:
296,120,46389,6,0,L|352:32,1,79.9999952316285,2|2,0:0|0:0,0:0:0:0:
448,56,46783,2,0,L|448:152,1,79.9999952316285,2|4,0:0|0:0,0:0:0:0:
448,248,47178,1,0,0:0:0:0:
416,272,47277,1,0,0:0:0:0:
376,280,47375,1,0,0:0:0:0:
264,280,47573,2,0,L|224:280,2,39.9999976158142,0|0|0,1:1|1:1|1:1,0:0:0:0:
152,280,47968,1,4,0:0:0:0:
80,184,48165,5,0,0:0:0:0:
80,144,48264,1,0,0:0:0:0:
104,112,48362,1,0,0:0:0:0:
184,32,48560,1,0,0:0:0:0:
296,40,48757,1,0,0:0:0:0:
333,50,48856,1,0,0:0:0:0:
358,81,48954,1,0,0:0:0:0:
400,176,49152,2,0,P|397:211|368:259,2,79.9999952316285,0|0|0,0:0|0:0|0:0,0:0:0:0:
272,192,49744,5,0,0:0:0:0:
296,80,49941,2,0,P|336:96|392:88,1,79.9999952316285,0|0,0:0|0:0,0:0:0:0:
432,192,50336,1,0,0:0:0:0:
372,289,50533,2,0,P|332:288|296:304,1,79.9999952316285,0|0,0:0|0:0,0:0:0:0:
192,320,50928,5,0,0:0:0:0:
176,224,51125,2,0,P|168:192|176:160,2,39.9999976158142,0|0|0,0:0|0:0|0:0,0:0:0:0:
256,192,51520,1,4,0:0:0:0:
268,106,51718,2,0,P|299:115|323:138,2,39.9999976158142,0|0|0,0:0|0:0|0:0,0:0:0:0:
256,192,52112,1,4,0:0:0:0:
324,247,52310,2,4,P|310:262|293:272,2,39.9999976158142,0|0|0,0:0|0:0|0:0,0:0:0:0:
256,192,52704,1,8,0:0:0:0:
256,192,52902,5,8,0:0:0:0:
320,248,53099,1,2,0:2:0:0:
344,216,53198,1,2,0:2:0:0:
344,176,53297,1,2,0:2:0:0:
288,104,53494,1,4,0:0:0:0:
192,136,53691,1,2,0:2:0:0:
168,168,53790,1,2,0:2:0:0:
168,208,53889,1,2,0:2:0:0:
232,256,54086,1,4,0:0:0:0:
280,344,54283,5,0,0:0:0:0:
208,256,54481,2,8,L|112:256,2,79.9999952316285,2|2|2,0:2|0:2|0:2,0:0:0:0:
256,152,55073,2,8,L|256:56,2,79.9999952316285,2|2|2,0:2|0:2|0:2,0:0:0:0:
304,256,55665,2,8,L|400:256,2,79.9999952316285,2|2|2,0:2|0:2|0:2,0:0:0:0:
256,152,56257,1,0,2:2:0:0:
256,328,56652,5,0,0:0:0:0:
344,304,56849,2,0,P|368:288|376:264,2,39.9999976158142,0|0|0,0:2|0:2|0:0,0:0:0:0:
392,200,57441,1,0,0:0:0:0:
256,128,57639,5,0,0:0:0:0:
296,40,57836,5,0,0:0:0:0:
256,32,57935,1,0,0:0:0:0:
216,40,58033,1,0,0:0:0:0:
88,40,58231,1,0,0:0:0:0:
128,144,58428,2,0,P|104:192|48:192,1,79.9999952316285
152,288,58823,2,0,P|136:304|112:320,2,39.9999976158142,0|0|0,0:0|0:0|0:0,0:0:0:0:
256,88,59415,2,0,L|256:48,2,39.9999976158142,0|0|0,0:0|0:0|0:0,0:0:0:0:
256,192,59810,5,0,0:0:0:0:
264,232,59908,1,0,0:0:0:0:
296,256,60007,1,0,0:0:0:0:
408,256,60204,1,0,0:0:0:0:
408,144,60402,2,0,L|456:144,2,39.9999976158142,0|0|0,0:2|0:2|0:0,0:0:0:0:
408,40,60797,5,0,0:0:0:0:
296,64,60994,1,0,0:0:0:0:
264,88,61093,1,0,0:0:0:0:
232,112,61191,1,0,0:0:0:0:
216,224,61389,2,0,P|160:256|128:256,1,69.9999952316285,0|0,0:2|0:2,0:0:0:0:
88,168,61783,5,0,0:0:0:0:
64,200,61882,1,0,0:0:0:0:
56,240,61981,2,0,P|72:272|104:288,2,39.9999976158142,0|0|0,0:0|0:0|0:0,0:0:0:0:
144,304,62375,1,8,0:0:0:0:
256,304,62573,1,8,0:0:0:0:
256,192,62770,5,8,0:0:0:0:
152,96,62968,1,8,0:0:0:0:
144,136,63066,1,0,0:0:0:0:
152,176,63165,1,0,0:0:0:0:
256,136,63362,1,8,0:0:0:0:
360,96,63560,1,8,0:0:0:0:
368,136,63658,1,0,0:0:0:0:
360,176,63757,1,0,0:0:0:0:
312,320,63954,6,0,L|224:320,1,79.9999952316285,0|0,0:0|0:0,0:0:0:0:
120,320,64349,1,0,1:1:0:0:
120,280,64448,1,0,1:1:0:0:
120,240,64547,1,0,1:1:0:0:
120,120,64744,1,8,0:0:0:0:
248,120,64941,2,0,L|328:120,1,79.9999952316285,0|0,0:0|0:0,0:0:0:0:
440,120,65336,1,8,0:0:0:0:
440,232,65533,2,0,L|440:328|440:328,2,79.9999952316285,0|8|0,0:2|0:2|0:0,0:0:0:0:
328,240,66125,1,8,0:0:0:0:
264,152,66323,6,0,P|224:152|192:176,2,79.9999952316285,0|8|0,0:2|0:2|0:0,0:0:0:0:
224,256,66915,2,0,P|264:256|296:232,2,79.9999952316285,0|8|0,0:2|0:2|0:0,0:0:0:0:
136,328,67507,2,0,P|176:336|240:320,1,79.9999952316285,0|8,0:2|0:2,0:0:0:0:
320,304,67902,1,0,0:0:0:0:
392,216,68099,2,0,P|400:184|352:136,1,79.9999952316285,0|8,0:2|0:2,0:0:0:0:
288,72,68494,1,0,0:0:0:0:
192,40,68691,5,8,0:0:0:0:
160,64,68790,1,0,0:0:0:0:
128,96,68889,1,0,0:0:0:0:
200,128,69086,1,0,0:0:0:0:
320,40,69283,1,8,0:0:0:0:
352,64,69382,1,0,0:0:0:0:
384,96,69481,1,0,0:0:0:0:
296,128,69678,1,0,0:0:0:0:
256,280,69875,1,8,0:0:0:0:
256,240,69974,1,0,0:0:0:0:
256,200,70073,1,0,0:0:0:0:
256,88,70270,5,0,0:0:0:0:
256,88,70369,1,0,0:0:0:0:
256,88,70468,1,0,0:0:0:0:
256,200,70665,1,0,0:0:0:0:
256,312,70862,1,0,0:0:0:0:
256,312,70961,1,0,0:0:0:0:
256,312,71060,5,0,0:0:0:0:
320,192,71257,1,0,0:0:0:0:
432,192,71454,2,0,P|424:256|400:280,2,79.9999952316285,0|0|0,0:0|0:0|0:0,0:0:0:0:
376,96,72047,1,2,2:2:0:0:
272,64,72244,1,2,2:2:0:0:
152,72,72441,1,2,2:2:0:0:
80,152,72639,1,0,0:0:0:0:
72,192,72737,1,0,0:0:0:0:
96,224,72836,1,0,0:0:0:0:
200,272,73033,2,0,L|296:272,1,79.9999952316285,2|2,2:2|2:2,0:0:0:0:
256,160,73428,6,0,L|256:72,2,79.9999952316285,0|0|0,0:0|0:0|0:0,0:0:0:0:
256,176,74020,1,2,2:2:0:0:
256,216,74119,1,0,0:0:0:0:
256,256,74218,1,2,2:2:0:0:
144,256,74415,1,0,0:0:0:0:
144,144,74612,1,0,0:0:0:0:
216,104,74810,1,0,0:0:0:0:
376,104,75204,1,4,0:0:0:0:
152,72,75599,2,0,P|88:120|80:216,1,159.999990463257,0|0,0:0|0:0,0:0:0:0:
184,224,76191,1,0,0:0:0:0:
208,192,76290,1,0,0:0:0:0:
232,160,76389,1,0,0:0:0:0:
336,64,76586,6,0,L|336:152,1,79.9999952316285,0|0,0:0|0:0,0:0:0:0:
224,160,76981,2,0,P|219:221|236:261,1,79.9999952316285,0|0,0:0|0:0,0:0:0:0:
336,216,77375,1,0,0:0:0:0:
432,160,77573,2,0,P|437:221|420:261,1,79.9999952316285,0|0,0:0|0:0,0:0:0:0:
368,328,77968,1,0,0:0:0:0:
328,328,78066,1,0,0:0:0:0:
288,328,78165,1,0,0:0:0:0:
96,192,78560,6,0,L|256:192,2,159.999990463257,0|0|0,0:0|0:0|0:0,2:0:0:0:
88,88,79547,1,0,0:0:0:0:
88,88,79645,1,0,0:0:0:0:
88,88,79744,1,0,0:0:0:0:
216,88,79941,1,0,0:0:0:0:
256,88,80040,1,0,0:0:0:0:
296,88,80139,1,0,0:0:0:0:
432,88,80336,1,4,0:0:0:0:
256,96,80731,6,0,L|256:16,1,79.9999952316285
144,112,81125,2,0,B|256:296|392:112,1,319.999980926514,0|4,0:0|0:0,0:0:0:0:
256,280,82310,5,8,0:0:0:0:
360,248,82507,1,4,0:0:0:0:
360,136,82704,1,8,0:0:0:0:
256,88,82902,1,0,0:0:0:0:
296,192,83099,1,8,0:0:0:0:
256,192,83198,1,8,0:0:0:0:
216,192,83297,2,0,L|128:192,1,79.9999952316285,8|0,0:0|0:0,0:0:0:0:
96,296,83691,6,0,L|96:368,2,39.9999976158142,0|0|0,0:0|0:0|0:0,0:0:0:0:
96,184,84086,1,0,0:0:0:0:
208,184,84283,2,0,L|208:264,2,79.9999952316285,0|0|0,0:0|0:0|0:0,0:0:0:0:
216,72,84875,1,0,0:0:0:0:
104,72,85073,1,8,0:0:0:0:
104,72,85270,1,0,0:0:0:0:
104,184,85468,2,0,L|264:184,1,159.999990463257,8|0,0:0|0:0,0:0:0:0:
384,120,86060,5,0,0:0:0:0:
352,128,86158,1,0,0:0:0:0:
320,136,86257,1,0,0:0:0:0:
256,72,86454,1,0,0:0:0:0:
192,136,86652,1,0,0:0:0:0:
160,128,86750,1,0,0:0:0:0:
128,120,86849,1,0,0:0:0:0:
256,160,87047,6,0,L|256:224,2,59.9999987125397,0|0|0,0:0|0:0|0:0,0:0:0:0:
136,288,87639,6,0,L|208:288,1,59.9999987125397
256,352,88033,1,0,0:0:0:0:
312,288,88231,2,0,L|384:288,1,59.9999987125397,0|0,0:0|0:0,0:0:0:0:
256,192,88625,1,4,0:0:0:0:
256,192,89218,12,0,90402,0:0:0:0:
315,316,90994,21,0,0:0:0:0:
121,222,91191,1,0,0:0:0:0:
256,53,91389,1,0,0:0:0:0:
390,223,91586,1,0,0:0:0:0:
195,316,91783,1,0,0:0:0:0:
148,105,91981,1,0,0:0:0:0:
364,106,92178,1,0,0:0:0:0:
