osu file format v12

[General]
AudioFilename: Lisa - Egoistic Shooter.mp3
AudioLeadIn: 0
PreviewTime: 60812
Countdown: 0
SampleSet: Normal
StackLeniency: 0.6
Mode: 0
LetterboxInBreaks: 1
WidescreenStoryboard: 0

[Editor]
Bookmarks: 42693,60812,78634,87842,106852,180812
DistanceSpacing: 0.9
BeatDivisor: 4
GridSize: 4

[Metadata]
Title:EGOiSTiC SHOOTER
TitleUnicode:EGOiSTiC SHOOTER
Artist:LiSA
ArtistUnicode:LiSA
Creator:judgment light
Version:Insane
Source:
Tags:wowaka
BeatmapID:277816
BeatmapSetID:105939

[Difficulty]
HPDrainRate:7
CircleSize:4
OverallDifficulty:7
ApproachRate:9
SliderMultiplier:1.6
SliderTickRate:1

[Events]
//Background and Video events
0,0,"BRS.jpg",0,0
//Break Periods
2,78834,87242
//Storyboard Layer 0 (Background)
//Storyboard Layer 1 (Fail)
//Storyboard Layer 2 (Pass)
//Storyboard Layer 3 (Foreground)
//Storyboard Sound Samples
//Background Colour Transformations
3,100,255,255,255

[TimingPoints]
4971,297.029702970297,4,2,1,50,1,0
32891,-100,4,1,0,80,0,0
38238,-100,4,2,1,50,0,0
42693,-100,4,2,2,100,0,0
42990,-100,4,2,2,70,0,0
54871,-100,4,1,1,50,0,0
55020,-100,4,2,1,50,0,0
55169,-100,4,1,1,50,0,0
55317,-100,4,2,1,50,0,0
55466,-100,4,1,1,50,0,0
55614,-100,4,2,1,50,0,0
55763,-100,4,1,1,50,0,0
55911,-100,4,2,2,70,0,0
60218,-100,4,2,2,60,0,0
60367,-100,4,2,2,70,0,0
60515,-100,4,2,2,80,0,0
60664,-100,4,2,2,90,0,0
61406,-100,4,2,1,25,0,0
62000,-83.3333333333333,4,1,1,70,0,1
65862,-83.3333333333333,4,2,2,70,0,1
66159,-83.3333333333333,4,1,1,70,0,1
77446,-83.3333333333333,4,2,2,70,0,1
78634,-83.3333333333333,4,2,2,80,0,0
87842,-100,4,2,1,50,0,0
97347,-100,4,2,1,55,0,0
100020,-100,4,2,1,60,0,0
102396,-100,4,2,1,65,0,0
104772,-100,4,2,2,60,0,0
105070,-100,4,2,2,50,0,0
105515,-100,4,2,2,40,0,0
105961,-100,4,2,2,30,0,0
106406,-100,4,2,2,20,0,0
106555,-100,4,2,2,80,0,0
107149,-100,4,2,2,60,0,0
125565,-100,4,2,2,50,0,0
126159,-100,4,2,2,60,0,0
128535,-100,4,1,1,50,0,0
128683,-100,4,2,2,50,0,0
128832,-100,4,1,1,50,0,0
128980,-100,4,2,2,50,0,0
129129,-100,4,1,1,50,0,0
129277,-100,4,2,2,50,0,0
129426,-100,4,1,1,50,0,0
129574,-100,4,2,2,50,0,0
129723,-100,4,2,2,60,0,0
133287,-100,4,1,1,50,0,0
133436,-100,4,2,2,50,0,0
133584,-100,4,1,1,50,0,0
133733,-100,4,2,2,50,0,0
133881,-100,4,1,1,50,0,0
134030,-100,4,2,2,50,0,0
134178,-100,4,1,1,50,0,0
134327,-100,4,2,2,50,0,0
134475,-100,4,2,2,60,0,0
138040,-100,4,1,1,50,0,0
138188,-100,4,2,2,50,0,0
138337,-100,4,1,1,50,0,0
138485,-100,4,2,2,50,0,0
138634,-100,4,1,1,50,0,0
138782,-100,4,2,2,50,0,0
138931,-100,4,1,1,50,0,0
139079,-100,4,2,2,50,0,0
139228,-100,4,2,2,60,0,0
142792,283.018867924528,4,2,1,50,1,0
142792,-100,4,1,0,70,0,0
143980,297.029702970297,4,2,1,50,1,0
144574,-200,4,2,2,25,0,0
145168,-83.3333333333333,4,1,1,70,0,1
162991,283.018867924528,4,1,1,70,1,1
164123,303.030303030303,4,1,1,70,1,1
164123,-83.3333333333333,4,1,1,70,0,1
167741,297.029702970297,4,1,1,70,1,1
168038,-100,4,1,1,50,0,1
168632,-100,4,1,1,70,0,1
170117,-100,4,1,1,70,0,0
170711,-100,4,2,1,70,0,0
171313,297.029702970297,4,2,1,50,1,0
171313,-100,4,1,1,70,0,1
171461,-100,4,2,1,70,0,0
178434,-100,4,1,1,50,0,0
178508,-100,4,2,1,50,0,0

[Colours]
Combo1 : 255,255,255
Combo2 : 0,0,255
Combo3 : 0,128,255
Combo4 : 192,192,192

[HitObjects]
136,72,4971,38,0,L|160:152,1,80,2|0,0:0|0:0,0:0:0:0:
212,238,5268,1,0,0:0:0:0:
292,303,5416,2,0,P|308:199|260:151,1,160,2|2,0:0|0:0,0:0:0:0:
277,161,6010,6,0,P|352:120|432:128,1,160,2|0,0:0|0:0,0:0:0:0:
504,192,6456,1,0,0:0:0:0:
400,208,6604,2,0,P|368:128|368:40,1,160,2|2,0:0|0:0,0:0:0:0:
272,96,7050,1,0,0:0:0:0:
184,40,7198,1,2,0:0:0:0:
184,40,7495,37,0,0:0:0:0:
120,128,7644,1,2,0:0:0:0:
176,216,7792,1,0,0:0:0:0:
280,192,7941,2,0,P|256:232|232:288,1,80,0|2,0:0|0:0,0:0:0:0:
241,262,8386,6,0,P|318:306|400:294,1,160,2|0,0:0|0:0,0:0:0:0:
456,216,8832,1,0,0:0:0:0:
366,155,8980,2,0,P|349:232|388:300,1,160,2|0,0:0|0:0,0:0:0:0:
212,164,9426,1,2,0:0:0:0:
212,164,9723,6,0,L|308:204,1,80,6|0,1:0|0:0,0:0:0:0:
464,112,10020,2,0,L|384:144,1,80,10|2,0:0|0:0,0:0:0:0:
172,252,10317,2,0,L|268:292,1,80,8|2,0:0|0:0,0:0:0:0:
448,216,10614,2,0,L|368:248,1,80,8|2,0:0|0:0,0:0:0:0:
144,336,10911,6,0,P|88:272|104:192,1,160,8|10,0:0|0:0,0:0:0:0:
152,112,11357,2,0,L|200:184,1,80,2|8,0:0|0:0,0:0:0:0:
286,265,11654,1,2,0:0:0:0:
360,112,11802,1,8,0:0:0:0:
286,265,11951,2,0,L|248:352,1,80,2|8,0:0|0:0,0:0:0:0:
196,178,12248,37,0,0:0:0:0:
253,338,12396,1,10,0:0:0:0:
416,288,12545,2,0,L|448:214,2,80,2|8|2,0:0|0:0|0:0,0:0:0:0:
344,160,12990,1,8,0:0:0:0:
196,178,13139,1,0,0:0:0:0:
248,72,13287,2,0,P|320:32|401:42,1,160,8|10,0:0|0:0,0:0:0:0:
384,180,13733,1,2,0:0:0:0:
272,264,13881,2,0,P|197:284|112:264,1,160,10|10,0:0|0:0,0:0:0:0:
118,267,14475,22,0,P|193:224|210:156,1,160,6|8,1:0|0:0,0:0:0:0:
152,40,14921,1,2,0:0:0:0:
210,156,15070,2,0,L|288:304,1,160,10|10,0:0|0:0,0:0:0:0:
424,232,15515,1,2,0:0:0:0:
400,80,15664,2,0,L|324:107,1,80,10|0,0:0|0:0,0:0:0:0:
192,64,15961,2,0,L|164:139,1,80,10|0,0:0|0:0,0:0:0:0:
40,200,16258,2,0,L|70:273,1,80,10|0,0:0|0:0,0:0:0:0:
192,336,16555,5,8,0:0:0:0:
192,336,16629,1,0,0:0:0:0:
192,336,16703,1,2,0:0:0:0:
324,296,16852,2,0,L|388:228,1,80,10|0,0:0|0:0,0:0:0:0:
384,76,17149,2,0,L|329:134,1,80,10|0,0:0|0:0,0:0:0:0:
324,296,17446,1,10,0:0:0:0:
376,180,17594,1,2,0:0:0:0:
320,64,17743,1,8,0:0:0:0:
192,64,17891,38,0,P|144:80|104:120,1,80,2|10,0:0|0:0,0:0:0:0:
64,216,18188,1,2,0:0:0:0:
236,320,18337,1,10,0:0:0:0:
256,148,18485,1,0,0:0:0:0:
104,303,18634,2,0,L|274:250,1,160,10|10,0:0|0:0,0:0:0:0:
256,256,19228,6,0,P|344:288|432:280,1,160,10|8,0:0|0:0,0:0:0:0:
500,192,19673,1,2,0:0:0:0:
424,80,19822,2,0,P|388:124|372:156,1,80,10|0,0:0|0:0,0:0:0:0:
409,285,20119,1,8,0:0:0:0:
256,256,20268,2,0,P|240:208|244:168,1,80,2|8,0:0|0:0,0:0:0:0:
380,72,20565,1,2,0:0:0:0:
380,72,20639,1,0,0:0:0:0:
380,72,20713,2,0,P|304:88|268:88,1,80,10|0,0:0|0:0,0:0:0:0:
156,48,21010,1,10,0:0:0:0:
40,148,21159,2,0,L|80:244,1,80,0|8,0:0|0:0,0:0:0:0:
204,296,21456,37,2,0:0:0:0:
204,296,21530,1,0,0:0:0:0:
204,296,21604,1,10,0:0:0:0:
252,152,21753,1,2,0:0:0:0:
368,256,21901,2,0,L|392:172,1,80,8|2,0:0|0:0,0:0:0:0:
276,76,22198,2,0,L|252:160,1,80,8|2,0:0|0:0,0:0:0:0:
204,296,22495,5,8,0:0:0:0:
84,188,22644,1,2,0:0:0:0:
84,188,22718,1,0,0:0:0:0:
84,188,22792,1,8,0:0:0:0:
204,296,22941,2,0,L|136:236,1,80,2|8,0:0|0:0,0:0:0:0:
84,188,23238,1,2,0:0:0:0:
120,344,23386,1,8,0:0:0:0:
420,84,23683,37,10,0:0:0:0:
420,84,23980,2,0,P|336:64|256:88,1,160,10|8,0:0|0:0,0:0:0:0:
92,300,24574,2,0,P|176:320|256:296,1,160,10|8,0:0|0:0,0:0:0:0:
344,244,25020,1,2,0:0:0:0:
244,180,25169,2,0,L|172:132,1,80,8|2,0:0|0:0,0:0:0:0:
72,148,25466,2,0,P|72:100|100:64,1,80,8|2,0:0|0:0,0:0:0:0:
172,8,25763,1,10,0:0:0:0:
244,180,26060,1,10,0:0:0:0:
344,112,26357,6,0,P|360:152|364:192,1,80,8|2,0:0|0:0,0:0:0:0:
148,248,26654,2,0,P|132:208|128:168,1,80,8|2,0:0|0:0,0:0:0:0:
380,100,26951,2,0,P|396:140|400:180,1,80,8|2,0:0|0:0,0:0:0:0:
112,260,27248,2,0,P|96:220|92:180,1,80,8|2,0:0|0:0,0:0:0:0:
416,84,27545,38,0,P|432:124|436:164,1,80,10|2,0:0|0:0,0:0:0:0:
380,268,27842,1,8,0:0:0:0:
260,256,27990,2,0,P|280:208|308:188,1,80,2|8,0:0|0:0,0:0:0:0:
436,160,28287,1,2,0:0:0:0:
301,191,28436,2,0,L|256:96,1,80,10|0,0:0|0:0,0:0:0:0:
200,20,28733,6,0,P|160:60|152:108,1,80,10|0,0:0|0:0,0:0:0:0:
56,152,29030,2,0,P|96:192|144:200,1,80,10|0,0:0|0:0,0:0:0:0:
176,304,29327,2,0,P|216:264|224:216,1,80,10|2,0:0|0:0,0:0:0:0:
204,156,29624,1,8,0:0:0:0:
296,120,29772,2,0,L|384:88,1,80,2|8,0:0|0:0,0:0:0:0:
476,152,30070,1,2,0:0:0:0:
412,252,30218,2,0,L|336:279,2,80,10|0|10,0:0|0:0|0:0,0:0:0:0:
120,92,30812,37,10,0:0:0:0:
192,188,30961,1,0,0:0:0:0:
308,152,31109,2,0,L|240:228,1,80,10|0,0:0|0:0,0:0:0:0:
64,208,31406,1,10,0:0:0:0:
64,208,31555,2,0,L|132:284,1,80,2|8,0:0|0:0,0:0:0:0:
344,264,31852,1,2,0:0:0:0:
344,264,32000,2,0,L|276:340,1,80,10|0,0:0|0:0,0:0:0:0:
117,267,32297,1,10,0:0:0:0:
116,268,32446,2,0,L|169:208,1,80,2|8,0:0|0:0,0:0:0:0:
292,112,32743,1,2,0:0:0:0:
416,188,32891,21,2,0:0:0:0:
394,217,32966,1,0,0:0:0:0:
366,240,33040,1,0,0:0:0:0:
333,254,33114,1,0,0:0:0:0:
297,259,33188,1,2,0:0:0:0:
292,112,33337,1,0,0:0:0:0:
160,44,33485,2,0,L|204:248,1,200,2|0,0:0|2:0,0:0:0:0:
120,280,33931,2,2,P|180:328|264:304,1,160,0|0,0:0|0:0,0:0:0:0:
324,208,34376,5,0,0:0:0:0:
344,180,34451,1,0,0:0:0:0:
374,156,34525,1,0,0:0:0:0:
408,140,34599,1,0,0:0:0:0:
444,136,34673,1,2,0:0:0:0:
420,264,34822,1,0,0:0:0:0:
312,348,34971,1,0,0:0:0:0:
292,320,35045,1,0,0:0:0:0:
272,292,35119,1,2,0:0:0:0:
192,345,35268,37,0,0:0:0:0:
170,316,35342,1,0,0:0:0:0:
148,287,35416,1,0,0:0:0:0:
126,258,35490,1,0,0:0:0:0:
104,228,35565,2,0,L|69:181,4,40,0|0|0|0|6,0:0|0:0|0:0|0:0|0:0,0:0:0:0:
184,161,36010,1,0,0:0:0:0:
209,60,36159,2,0,P|236:52|255:46,3,40,0|0|2|0,0:0|0:0|0:0|0:0,0:0:0:0:
264,84,36456,2,0,P|291:76|310:70,3,40
320,108,36753,2,0,P|347:100|366:94,4,40,2|0|0|0|0,0:0|0:0|0:0|0:0|0:0,0:0:0:0:
224,140,37198,5,2,0:0:0:0:
201,156,37272,1,0,0:0:0:0:
178,172,37347,1,2,0:0:0:0:
155,188,37421,1,0,0:0:0:0:
132,204,37495,1,2,0:0:0:0:
108,219,37570,1,0,0:0:0:0:
84,234,37644,1,2,0:0:0:0:
372,132,37941,5,0,0:0:0:0:
372,132,38238,2,0,L|232:224,1,160,10|8,0:0|0:0,0:0:0:0:
140,284,38683,2,0,P|172:308|220:312,1,80,2|10,0:0|0:0,0:0:0:0:
220,192,38980,1,0,0:0:0:0:
144,100,39129,1,10,0:0:0:0:
264,88,39277,2,0,L|340:40,1,80,2|8,0:0|0:0,0:0:0:0:
424,268,39723,1,10,0:0:0:0:
264,88,40020,1,10,0:0:0:0:
424,268,40317,5,10,0:0:0:0:
424,268,40391,1,0,0:0:0:0:
424,268,40466,1,2,0:0:0:0:
312,228,40614,2,0,L|236:276,1,80,10|0,0:0|0:0,0:0:0:0:
92,172,40911,2,0,L|168:220,1,80,10|0,0:0|0:0,0:0:0:0:
392,160,41208,38,0,P|296:128|228:180,1,160,10|10,0:0|0:0,0:0:0:0:
159,214,41654,1,2,0:0:0:0:
244,272,41802,2,0,L|312:316,1,80,8|2,0:0|0:0,0:0:0:0:
456,296,42099,2,0,L|388:252,1,80,8|2,0:0|0:0,0:0:0:0:
160,332,42396,1,8,0:0:0:0:
76,100,42693,21,8,0:0:0:0:
76,100,42990,2,0,P|148:68|244:68,1,160,6|8,0:0|0:0,0:0:0:0:
340,112,43436,2,0,P|316:152|260:180,1,80,0|2,0:0|0:0,0:0:0:0:
228,64,43733,1,0,0:0:0:0:
140,176,43881,2,0,L|208:240,1,80,8|0,0:0|0:0,0:0:0:0:
300,320,44178,2,0,P|384:264|400:200,1,160,2|10,0:0|0:0,0:0:0:0:
256,184,44624,1,0,0:0:0:0:
300,320,44772,1,2,0:0:0:0:
190,105,45070,5,8,0:0:0:0:
190,105,45218,2,0,L|136:184,1,80,0|2,0:0|0:0,0:0:0:0:
188,284,45515,1,0,0:0:0:0:
300,244,45664,1,10,0:0:0:0:
260,132,45812,1,0,0:0:0:0:
146,172,45961,2,0,L|96:105,1,80,2|2,0:0|0:0,0:0:0:0:
236,84,46258,1,8,0:0:0:0:
367,86,46406,2,0,P|427:123|441:207,1,160,2|0,0:0|0:0,0:0:0:0:
308,205,46852,2,0,P|248:168|234:84,1,160,10|2,0:0|0:0,0:0:0:0:
120,53,47297,38,0,L|77:135,1,80,2|8,0:0|0:0,0:0:0:0:
157,187,47594,1,2,0:0:0:0:
99,312,47743,2,0,L|245:228,1,160,2|8,0:0|0:0,0:0:0:0:
244,324,48188,1,0,0:0:0:0:
244,324,48263,1,0,0:0:0:0:
244,324,48337,2,0,L|390:240,1,160,2|8,0:0|0:0,0:0:0:0:
460,208,48782,2,0,P|408:160|316:188,1,160,2|2,0:0|0:0,0:0:0:0:
276,244,49228,2,0,P|244:204|244:168,1,80,8|2,0:0|0:0,0:0:0:0:
264,36,49525,2,0,L|128:152,1,160,2|10,0:0|0:0,0:0:0:0:
68,204,49971,1,0,0:0:0:0:
144,140,50119,6,0,L|196:220,1,80,2|0,0:0|0:0,0:0:0:0:
268,344,50416,2,0,L|224:276,1,80,10|2,0:0|0:0,0:0:0:0:
144,140,50713,1,2,0:0:0:0:
144,140,51010,37,10,0:0:0:0:
268,344,51159,2,0,P|348:316|428:320,1,160,2|2,0:0|0:0,0:0:0:0:
380,224,51604,2,0,L|300:208,1,80,8|2,0:0|0:0,0:0:0:0:
416,156,51901,2,0,L|360:84,1,80,8|2,0:0|0:0,0:0:0:0:
480,120,52198,2,0,L|464:28,1,80,10|0,0:0|0:0,0:0:0:0:
472,220,52495,5,0,1:0:0:0:
80,204,52792,1,8,0:0:0:0:
428,172,53089,1,0,0:0:0:0:
128,160,53386,1,8,0:0:0:0:
392,128,53683,1,0,1:0:0:0:
172,116,53980,2,0,L|248:156,1,80,8|0,0:0|0:0,0:0:0:0:
432,240,54426,37,0,0:0:0:0:
340,192,54574,1,8,0:0:0:0:
280,272,54723,1,0,0:0:0:0:
204,204,54871,2,0,P|152:200|108:216,1,80,10|0,0:0|0:0,0:0:0:0:
268,128,55169,2,0,P|272:76|256:32,1,80,10|0,0:0|0:0,0:0:0:0:
340,192,55466,2,0,P|392:196|436:180,1,80,10|0,0:0|0:0,0:0:0:0:
280,272,55763,2,0,P|276:324|292:368,1,80,10|0,0:0|0:0,0:0:0:0:
200,376,56060,2,0,P|188:328|207:220,1,160,2|8,0:0|0:0,0:0:0:0:
440,96,56654,2,0,P|452:144|432:251,1,160,2|8,0:0|0:0,0:0:0:0:
160,56,57248,6,0,P|208:44|315:63,1,160,2|8,0:0|0:0,0:0:0:0:
240,188,57693,2,0,P|132:207|84:195,1,160,2|2,0:0|0:0,0:0:0:0:
160,56,58139,1,8,0:0:0:0:
240,188,58287,2,0,L|328:328,1,160,2|0,0:0|0:0,0:0:0:0:
368,196,58733,1,10,0:0:0:0:
325,323,58881,2,0,P|248:296|164:320,1,160,2|2,0:0|0:0,0:0:0:0:
72,268,59327,37,8,0:0:0:0:
92,168,59475,1,2,0:0:0:0:
184,244,59624,2,0,L|204:160,1,80,10|0,0:0|0:0,0:0:0:0:
232,32,59921,2,0,L|312:92,1,80,10|0,0:0|0:0,0:0:0:0:
408,160,60218,1,10,1:2:0:0:
324,256,60367,1,2,1:2:0:0:
208,148,60515,1,10,1:2:0:0:
144,328,60664,1,10,1:2:0:0:
12,196,61406,22,0,L|8:244,1,40,2|0,0:0|0:0,0:0:0:0:
56,188,61555,2,0,L|72:232,1,40,2|0,0:0|0:0,0:0:0:0:
100,172,61703,2,0,L|136:216,1,40,2|0,0:0|0:0,0:0:0:0:
136,148,61852,2,0,L|172:172,1,40,2|0,0:0|0:0,0:0:0:0:
164,108,62000,22,0,L|256:136,1,95.9999970703126,6|0,0:0|0:0,0:0:0:0:
368,168,62297,1,8,0:0:0:0:
256,136,62446,2,0,P|325:69|449:97,1,191.999994140625,2|2,0:0|0:0,0:0:0:0:
472,208,62891,1,8,0:0:0:0:
472,208,62966,1,0,0:0:0:0:
472,208,63040,1,2,0:0:0:0:
368,168,63188,2,0,L|280:228,1,95.9999970703126,2|0,0:0|0:0,0:0:0:0:
256,136,63485,2,0,L|88:248,1,191.999994140625,10|2,0:0|0:0,0:0:0:0:
132,112,63931,5,0,0:0:0:0:
132,112,64005,1,0,0:0:0:0:
132,112,64079,1,8,0:0:0:0:
224,264,64228,1,2,0:0:0:0:
404,280,64376,2,0,P|384:232|320:208,1,95.9999970703126,2|0,0:0|0:0,0:0:0:0:
224,264,64673,1,10,0:0:0:0:
376,152,64822,2,0,P|324:152|292:180,1,95.9999970703126,2|0,0:0|0:0,0:0:0:0:
188,352,65119,2,0,P|248:356|284:332,1,95.9999970703126,2|8,0:0|0:0,0:0:0:0:
224,264,65416,2,0,L|48:172,1,191.999994140625,2|0,0:0|0:0,0:0:0:0:
160,328,65862,2,0,P|272:332|312:268,1,191.999994140625,14|6,1:2|1:2,0:0:0:0:
128,100,66307,37,0,0:0:0:0:
140,132,66381,1,2,0:0:0:0:
152,164,66456,2,0,L|248:204,1,95.9999970703126,0|2,0:0|0:0,0:0:0:0:
368,250,66753,1,2,0:0:0:0:
347,118,66901,1,0,0:0:0:0:
241,202,67050,1,10,0:0:0:0:
368,250,67198,2,0,P|449:205|477:109,1,191.999994140625,2|2,0:0|0:0,0:0:0:0:
241,201,67644,2,0,L|288:302,1,95.9999970703126,8|2,0:0|0:0,0:0:0:0:
144,232,67941,2,0,P|160:136|256:104,2,191.999994140625,2|10|2,0:0|0:0|0:0,0:0:0:0:
284,288,68683,5,0,0:0:0:0:
404,192,68832,1,8,0:0:0:0:
404,192,68906,1,0,0:0:0:0:
404,192,68980,1,2,0:0:0:0:
388,32,69129,2,0,L|276:128,1,143.999995605469,2|2,0:0|0:0,0:0:0:0:
256,144,69426,1,8,0:0:0:0:
188,8,69574,2,0,P|116:69|105:162,1,191.999994140625,2|0,0:0|0:0,0:0:0:0:
256,144,70020,1,8,0:0:0:0:
120,288,70169,2,0,L|308:220,1,191.999994140625,2|0,0:0|0:0,0:0:0:0:
428,168,70614,2,0,P|428:240|412:268,1,95.9999970703126,10|0,0:0|0:0,0:0:0:0:
280,364,70911,2,0,P|208:364|180:348,1,95.9999970703126,2|0,0:0|0:0,0:0:0:0:
84,216,71208,37,10,0:0:0:0:
76,184,71282,1,0,0:0:0:0:
80,152,71357,1,2,0:0:0:0:
94,124,71431,1,0,0:0:0:0:
116,104,71505,2,0,L|232:156,1,95.9999970703126,2|2,0:0|0:0,0:0:0:0:
324,192,71802,1,8,0:0:0:0:
252,248,71951,2,0,P|332:280|392:252,1,143.999995605469,2|0,0:0|0:0,0:0:0:0:
412,240,72248,1,2,0:0:0:0:
432,56,72396,2,0,L|360:144,1,95.9999970703126,10|0,0:0|0:0,0:0:0:0:
105,242,72693,2,0,L|184:160,1,95.9999970703126,2|0,0:0|0:0,0:0:0:0:
240,84,72990,2,0,P|284:136|244:252,1,191.999994140625,10|2,0:0|0:0,0:0:0:0:
112,316,73436,5,0,0:0:0:0:
143,345,73510,1,0,0:0:0:0:
185,349,73584,1,8,0:0:0:0:
300,332,73733,1,2,0:0:0:0:
400,276,73881,2,0,L|312:236,1,95.9999970703126,2|0,0:0|0:0,0:0:0:0:
264,128,74178,1,10,0:0:0:0:
224,20,74327,2,0,L|148:116,1,95.9999970703126,2|0,0:0|0:0,0:0:0:0:
96,188,74624,37,2,0:0:0:0:
232,260,74772,1,8,0:0:0:0:
344,152,74921,2,0,P|300:56|212:72,1,191.999994140625,2|0,0:0|0:0,0:0:0:0:
156,240,75367,1,10,0:0:0:0:
156,240,75441,1,0,0:0:0:0:
156,240,75515,1,0,0:0:0:0:
240,368,75664,2,0,L|296:264,1,95.9999970703126
344,152,75961,1,10,0:0:0:0:
200,228,76109,1,0,0:0:0:0:
48,192,76258,5,2,0:0:0:0:
62,172,76332,1,0,0:0:0:0:
77,154,76406,1,0,0:0:0:0:
96,139,76480,1,0,0:0:0:0:
115,124,76555,1,2,0:0:0:0:
135,111,76629,1,0,0:0:0:0:
157,102,76703,1,2,0:0:0:0:
180,96,76777,1,0,0:0:0:0:
204,98,76852,37,0,0:0:0:0:
227,101,76926,1,0,0:0:0:0:
249,110,77000,1,2,0:0:0:0:
269,121,77074,1,0,0:0:0:0:
286,137,77149,1,2,0:0:0:0:
295,158,77223,1,0,0:0:0:0:
296,181,77297,1,0,0:0:0:0:
290,204,77371,1,2,0:0:0:0:
276,224,77446,5,10,0:0:0:0:
248,252,78040,5,2,0:0:0:0:
176,280,78634,5,4,1:1:0:0:
132,104,87842,37,8,0:0:0:0:
132,104,88139,2,0,L|292:176,1,160,10|8,0:0|0:0,0:0:0:0:
424,108,88584,1,2,0:0:0:0:
277,169,88733,2,0,L|104:248,1,160,10|10,0:0|0:0,0:0:0:0:
132,104,89178,1,2,0:0:0:0:
276,168,89327,2,0,L|232:260,1,80,8|0,0:0|0:0,0:0:0:0:
188,360,89624,2,0,P|288:344|364:352,1,160,10|10,0:0|0:0,0:0:0:0:
472,244,90070,5,0,0:0:0:0:
472,244,90144,1,2,0:0:0:0:
472,244,90218,2,0,L|388:212,1,80,8|2,0:0|0:0,0:0:0:0:
232,144,90515,1,10,0:0:0:0:
384,104,90664,1,0,0:0:0:0:
276,64,90812,2,0,P|268:100|284:152,1,80,10|2,0:0|0:0,0:0:0:0:
360,268,91109,1,8,0:0:0:0:
300,172,91258,1,2,0:0:0:0:
148,288,91406,1,10,0:0:0:0:
284,348,91555,2,0,P|260:304|232:280,1,80,2|8,0:0|0:0,0:0:0:0:
100,208,91852,1,2,0:0:0:0:
192,112,92000,2,0,P|244:108|296:108,2,80,10|2|8,0:0|0:0|0:0,0:0:0:0:
100,208,92446,37,0,0:0:0:0:
192,272,92594,2,0,P|244:276|360:268,1,160,10|10,0:0|0:0,0:0:0:0:
464,228,93040,1,0,0:0:0:0:
350,269,93188,1,8,0:0:0:0:
300,116,93337,2,0,L|248:180,1,80,2|10,0:0|0:0,0:0:0:0:
160,120,93634,1,0,0:0:0:0:
160,120,93708,1,0,0:0:0:0:
160,120,93782,1,10,0:0:0:0:
300,116,93931,2,0,L|396:108,1,80,2|8,0:0|0:0,0:0:0:0:
464,228,94228,1,0,0:0:0:0:
348,268,94376,2,0,P|272:248|192:264,1,160,10|10,0:0|0:0,0:0:0:0:
272,352,94822,5,0,0:0:0:0:
272,352,94896,1,2,0:0:0:0:
272,352,94971,1,8,0:0:0:0:
309,197,95119,1,2,0:0:0:0:
352,72,95268,2,0,L|390:142,1,80,10|0,0:0|0:0,0:0:0:0:
348,268,95565,2,0,L|304:188,1,80,10|0,0:0|0:0,0:0:0:0:
256,80,95862,2,0,P|204:64|160:88,1,80,10|2,0:0|0:0,0:0:0:0:
76,148,96159,1,8,0:0:0:0:
136,256,96307,2,0,L|192:180,1,80,2|10,0:0|0:0,0:0:0:0:
256,80,96604,1,0,0:0:0:0:
384,72,96753,2,0,P|368:144|296:204,1,160,10|10,0:0|0:0,0:0:0:0:
156,160,97198,1,0,0:0:0:0:
52,240,97347,5,8,0:0:0:0:
52,240,97421,1,0,0:0:0:0:
52,240,97495,1,8,0:0:0:0:
52,240,97570,1,0,0:0:0:0:
52,240,97644,2,0,P|140:220|216:256,1,160,4|0,1:1|0:0,0:0:0:0:
300,312,98089,1,0,0:0:0:0:
420,360,98238,2,0,P|420:272|372:204,1,160,8|0,0:0|0:0,0:0:0:0:
264,200,98683,2,0,P|248:96|292:44,1,160,8|0,0:0|0:0,0:0:0:0:
168,144,99129,2,0,L|104:208,1,80,8|0,0:0|0:0,0:0:0:0:
32,284,99426,2,0,P|116:312|188:288,1,160,8|8,0:0|0:0,0:0:0:0:
292,248,99871,1,0,0:0:0:0:
396,188,100020,6,0,L|328:120,1,80,4|0,1:1|0:0,0:0:0:0:
268,272,100317,2,0,L|336:340,1,80,8|0,0:0|0:0,0:0:0:0:
416,152,100614,2,0,L|348:84,1,80,8|0,0:0|0:0,0:0:0:0:
252,308,100911,2,0,L|320:376,1,80,8|0,0:0|0:0,0:0:0:0:
432,120,101208,2,0,L|364:52,1,80,8|0,0:0|0:0,0:0:0:0:
296,20,101505,1,8,0:0:0:0:
212,112,101654,2,0,P|276:136|360:72,1,160,8|0,0:0|0:0,0:0:0:0:
244,208,102099,2,0,L|172:272,1,80,8|0,0:0|0:0,0:0:0:0:
108,340,102396,38,0,P|160:368|220:344,1,120,4|0,1:1|0:0,0:0:0:0:
240,328,102693,1,8,0:0:0:0:
334,259,102842,2,0,P|364:260|408:288,1,80,0|8,0:0|0:0,0:0:0:0:
280,340,103139,1,0,0:0:0:0:
176,280,103287,1,8,0:0:0:0:
176,280,103436,2,0,L|88:140,1,160,8|0,0:0|0:0,0:0:0:0:
56,60,103881,2,0,P|116:56|152:80,1,80,8|0,0:0|0:0,0:0:0:0:
92,280,104178,1,8,0:0:0:0:
348,200,104475,5,8,0:0:0:0:
432,288,104624,1,8,0:0:0:0:
316,308,104772,5,8,0:0:0:0:
80,260,105070,1,0,0:0:0:0:
164,184,105218,1,0,0:0:0:0:
388,88,105515,1,0,0:0:0:0:
312,160,105664,1,0,0:0:0:0:
228,344,105961,1,0,0:0:0:0:
296,276,106109,1,0,0:0:0:0:
452,248,106406,1,0,0:0:0:0:
344,360,106555,1,8,0:0:0:0:
408,140,106852,21,8,0:0:0:0:
392,312,107149,6,0,P|332:264|224:244,1,160,2|8,0:0|0:0,0:0:0:0:
136,208,107594,2,0,L|180:124,1,80,2|2,0:0|0:0,0:0:0:0:
220,28,107891,1,0,0:0:0:0:
292,124,108040,1,10,0:0:0:0:
368,216,108188,2,2,P|272:268|208:276,1,160,2|0,0:0|0:0,0:0:0:0:
88,220,108634,2,0,P|132:228|184:220,1,80,10|0,0:0|0:0,0:0:0:0:
256,152,108931,2,0,L|164:300,1,160,2|8,0:0|0:0,0:0:0:0:
284,348,109376,37,2,0:0:0:0:
472,204,109525,2,0,L|384:220,1,80,2|0,0:0|0:0,0:0:0:0:
172,136,109822,2,0,L|250:121,1,80,10|0,0:0|0:0,0:0:0:0:
440,180,110119,1,2,0:0:0:0:
252,324,110268,1,0,0:0:0:0:
204,164,110416,1,10,0:0:0:0:
408,280,110565,1,2,0:0:0:0:
284,232,110713,2,0,P|216:224|192:228,1,80,2|0,0:0|0:0,0:0:0:0:
164,232,110936,1,0,0:0:0:0:
124,244,111010,2,0,P|80:196|64:148,1,80,10|2,0:0|0:0,0:0:0:0:
100,48,111307,2,0,P|196:24|284:36,1,160,2|10,0:0|0:0,0:0:0:0:
368,352,111901,6,0,P|320:284|312:208,1,160,2|8,0:0|0:0,0:0:0:0:
396,128,112347,1,2,0:0:0:0:
460,228,112495,2,0,P|380:244|296:192,1,160,2|8,0:0|0:0,0:0:0:0:
244,32,112941,2,0,L|120:132,1,160,2|2,0:0|0:0,0:0:0:0:
88,156,113312,1,0,0:0:0:0:
56,180,113386,2,0,P|112:212|224:208,1,160,10|2,0:0|0:0,0:0:0:0:
360,168,113832,38,0,L|404:252,1,80,2|8,0:0|0:0,0:0:0:0:
384,360,114129,1,2,0:0:0:0:
288,288,114277,2,0,P|228:260|192:260,1,80,2|2,0:0|0:0,0:0:0:0:
116,328,114574,1,8,0:0:0:0:
176,224,114723,2,0,L|268:80,1,160,2|2,0:0|0:0,0:0:0:0:
376,48,115169,1,8,0:0:0:0:
468,124,115317,2,0,P|388:168|304:152,1,160,2|0,0:0|0:0,0:0:0:0:
224,92,115763,2,0,P|256:56|296:48,2,80,10|0|2,0:0|0:0|0:0,0:0:0:0:
216,212,116208,5,2,0:0:0:0:
216,232,116282,1,0,0:0:0:0:
220,252,116357,1,10,0:0:0:0:
228,268,116431,1,0,0:0:0:0:
240,284,116505,1,2,0:0:0:0:
256,296,116579,1,0,0:0:0:0:
276,304,116654,2,0,L|424:196,1,160,2|8,0:0|0:0,0:0:0:0:
436,52,117099,1,0,0:0:0:0:
276,36,117248,2,0,L|146:130,1,160,2|8,0:0|0:0,0:0:0:0:
52,204,117693,38,0,B|100:276|176:244|176:244|196:260,1,160,2|0,0:0|0:0,0:0:0:0:
248,380,118139,2,0,L|328:332,1,80,10|0,0:0|0:0,0:0:0:0:
436,252,118436,2,0,P|368:208|280:208,1,160,2|10,0:0|0:0,0:0:0:0:
180,233,118881,5,2,0:0:0:0:
236,148,119030,37,2,0:0:0:0:
92,143,119178,1,2,0:0:0:0:
280,225,119327,1,10,0:0:0:0:
198,343,119475,1,2,0:0:0:0:
244,164,119624,1,2,0:0:0:0:
108,208,119772,1,2,0:0:0:0:
292,236,119921,1,10,0:0:0:0:
256,376,120070,1,2,0:0:0:0:
252,176,120218,5,2,0:0:0:0:
140,268,120367,1,2,0:0:0:0:
304,244,120515,1,8,0:0:0:0:
320,376,120664,2,0,L|432:252,1,160,2|0,0:0|0:0,0:0:0:0:
504,188,121109,2,0,P|448:148|412:140,1,80,10|0,0:0|0:0,0:0:0:0:
300,100,121406,37,2,0:0:0:0:
412,56,121555,1,0,0:0:0:0:
300,100,121703,2,0,L|176:200,1,160,10|2,0:0|0:0,0:0:0:0:
280,332,122149,1,0,0:0:0:0:
296,212,122297,1,10,0:0:0:0:
204,136,122446,2,0,L|140:292,1,160,2|0,0:0|0:0,0:0:0:0:
236,356,122891,1,10,0:0:0:0:
260,236,123040,1,2,0:0:0:0:
144,204,123188,1,2,0:0:0:0:
304,40,123485,5,10,0:0:0:0:
416,116,123634,1,2,0:0:0:0:
464,244,123782,2,0,L|380:212,1,80,2|0,0:0|0:0,0:0:0:0:
407,124,124079,1,10,0:0:0:0:
436,272,124228,2,0,L|352:240,1,80,2|0,0:0|0:0,0:0:0:0:
399,133,124525,1,2,0:0:0:0:
408,300,124673,2,0,L|324:268,1,80,10|0,0:0|0:0,0:0:0:0:
390,141,124971,1,2,0:0:0:0:
380,328,125119,2,0,L|296:296,1,80,2|8,0:0|0:0,0:0:0:0:
382,150,125416,1,2,0:0:0:0:
352,356,125565,38,0,L|200:300,1,160,14|14,0:0|0:0,0:0:0:0:
60,52,126159,5,0,1:0:0:0:
188,256,126456,1,8,0:0:0:0:
148,20,126753,1,0,0:0:0:0:
96,256,127050,1,8,0:0:0:0:
232,56,127347,1,0,1:0:0:0:
28,184,127644,2,0,L|100:144,1,80
280,128,128089,37,0,0:0:0:0:
376,72,128238,1,8,0:0:0:0:
448,156,128386,1,0,0:0:0:0:
352,212,128535,2,0,L|268:256,1,80,10|0,0:0|0:0,0:0:0:0:
72,268,128832,2,0,L|156:224,1,80,10|0,0:0|0:0,0:0:0:0:
196,104,129129,2,0,L|240:188,1,80,10|0,0:0|0:0,0:0:0:0:
236,380,129426,2,0,L|192:296,1,80,10|0,0:0|0:0,0:0:0:0:
313,106,129723,6,0,P|372:132|352:212,1,160,2|8,0:0|0:0,0:0:0:0:
224,188,130169,1,0,0:0:0:0:
96,168,130317,2,0,P|76:248|134:273,1,160,2|8,0:0|0:0,0:0:0:0:
224,188,130763,2,0,L|192:96,1,80,2|0,0:0|1:0,0:0:0:0:
448,172,131208,38,0,P|408:232|296:248,2,160,10|0|10,0:0|0:0|0:0,0:0:0:0:
332,136,131951,1,0,0:0:0:0:
208,168,132099,2,0,L|260:256,1,80,2|0,1:2|0:0,0:0:0:0:
258,254,132322,1,0,0:0:0:0:
268,271,132396,1,10,0:0:0:0:
324,356,132545,2,0,P|248:372|180:320,1,160,2|2,0:0|0:0,0:0:0:0:
164,208,132990,2,0,L|84:248,1,80,8|2,0:0|0:0,0:0:0:0:
136,128,133287,6,0,P|168:80|228:68,1,120,2|0,0:0|0:0,0:0:0:0:
272,76,133584,2,0,P|320:108|332:168,1,120,10|0,0:0|0:0,0:0:0:0:
320,204,133881,2,0,P|288:252|228:264,1,120,2|0,0:0|0:0,0:0:0:0:
188,260,134178,2,0,P|140:228|128:168,1,120,10|0,0:0|0:0,0:0:0:0:
136,128,134475,2,0,L|288:32,1,160,2|8,0:0|0:0,0:0:0:0:
428,44,134921,1,0,0:0:0:0:
488,188,135070,2,0,L|336:284,1,160,2|8,0:0|0:0,0:0:0:0:
221,278,135515,2,0,P|216:244|240:208,1,80,2|0,0:0|1:0,0:0:0:0:
384,124,135812,37,2,0:0:0:0:
456,300,135961,2,0,L|372:280,1,80,10|0,0:0|0:0,0:0:0:0:
172,160,136258,2,0,L|256:180,1,80,2|0,0:0|0:0,0:0:0:0:
432,324,136555,2,0,L|348:304,1,80,10|0,0:0|0:0,0:0:0:0:
144,248,136852,2,0,P|80:188|100:104,1,160,2|10,1:2|0:0,0:0:0:0:
176,72,137297,2,0,L|253:90,1,80,2|0,0:0|0:0,0:0:0:0:
332,188,137594,5,2,0:0:0:0:
264,288,137743,1,8,0:0:0:0:
176,208,137891,1,2,0:0:0:0:
240,108,138040,2,0,P|288:84|360:80,1,120,2|0,0:0|0:0,0:0:0:0:
445,158,138337,2,0,P|397:182|332:188,1,120,10|0,0:0|0:0,0:0:0:0:
241,51,138634,2,0,P|313:55|353:80,1,120,2|0,0:0|0:0,0:0:0:0:
443,216,138931,2,0,P|371:212|332:188,1,120,10|0,0:0|0:0,0:0:0:0:
268,8,139228,38,0,L|111:85,1,160,2|8,0:0|0:0,0:0:0:0:
16,132,139673,1,2,0:0:0:0:
116,200,139822,2,0,L|273:277,1,160,2|10,0:0|0:0,0:0:0:0:
368,324,140268,1,0,0:0:0:0:
480,288,140416,6,0,P|420:212|348:212,1,160,2|10,0:0|0:0,0:0:0:0:
244,200,140862,2,0,L|280:108,1,80,2|0,0:0|0:0,0:0:0:0:
200,32,141159,1,2,0:0:0:0:
88,68,141307,1,2,0:0:0:0:
24,172,141456,2,0,L|152:304,1,160,2|2,0:0|0:0,0:0:0:0:
252,316,141901,1,2,0:0:0:0:
372,336,142050,2,0,L|260:221,1,160,2|2,0:0|0:0,0:0:0:0:
192,124,142495,2,0,P|244:104|300:116,1,80,2|0,0:0|0:0,0:0:0:0:
396,132,142792,1,2,0:0:0:0:
460,216,142933,37,0,0:0:0:0:
451,224,143004,1,0,0:0:0:0:
441,231,143075,1,2,0:0:0:0:
430,236,143145,1,0,0:0:0:0:
418,240,143216,5,0,0:0:0:0:
406,242,143287,1,0,0:0:0:0:
394,242,143358,1,2,0:0:0:0:
381,241,143428,1,0,0:0:0:0:
369,239,143499,37,0,0:0:0:0:
357,236,143570,1,0,0:0:0:0:
346,231,143641,1,2,0:0:0:0:
335,224,143711,1,0,0:0:0:0:
326,215,143782,1,6,0:0:0:0:
40,244,144574,22,0,B|68:216|68:216|104:264|104:264|136:228|136:228|136:228,1,140,2|0,0:0|0:0,0:0:0:0:
130,233,145168,22,0,L|208:136,1,95.9999970703126
324,96,145465,1,10,0:0:0:0:
440,184,145613,2,0,P|376:244|260:224,1,191.999994140625,2|2,0:0|0:0,0:0:0:0:
116,336,146059,2,0,L|228:304,1,95.9999970703126,10|2,0:0|0:0,0:0:0:0:
368,256,146356,1,2,0:0:0:0:
368,256,146430,1,0,0:0:0:0:
368,256,146504,1,2,0:0:0:0:
208,309,146653,2,0,L|124:252,1,95.9999970703126,10|0,0:0|0:0,0:0:0:0:
44,172,146950,2,0,P|56:76|144:68,1,191.999994140625,2|8,0:0|0:0,0:0:0:0:
268,120,147395,5,2,0:0:0:0:
320,256,147544,2,0,P|272:272|224:256,1,95.9999970703126,2|0,0:0|0:0,0:0:0:0:
268,88,147841,1,10,0:0:0:0:
360,284,147989,2,0,P|284:320|184:284,1,191.999994140625,2|2,0:0|0:0,0:0:0:0:
264,48,148435,1,8,0:0:0:0:
472,208,148583,2,0,L|284:160,1,191.999994140625,2|2,0:0|0:0,0:0:0:0:
132,52,149029,38,0,L|198:121,1,95.9999970703126,6|0,1:2|1:0,0:0:0:0:
408,288,149326,2,0,L|341:218,1,95.9999970703126,6|0,1:2|1:0,0:0:0:0:
132,52,149623,5,2,0:0:0:0:
144,66,149697,1,0,0:0:0:0:
157,79,149772,1,2,0:0:0:0:
169,93,149846,1,0,0:0:0:0:
182,106,149920,2,0,L|294:125,1,95.9999970703126,2|2,0:0|0:0,0:0:0:0:
392,44,150217,1,8,0:0:0:0:
472,160,150366,2,0,B|416:216|416:216|296:200,1,191.999994140625,2|2,0:0|0:0,0:0:0:0:
200,180,150811,37,10,0:0:0:0:
104,188,150960,1,2,0:0:0:0:
173,304,151108,1,0,0:0:0:0:
268,295,151257,1,2,0:0:0:0:
200,180,151405,2,0,L|72:192,1,95.9999970703126,10|0,0:0|0:0,0:0:0:0:
268,296,151702,2,0,L|468:280,1,191.999994140625,2|8,0:0|0:0,0:0:0:0:
316,196,152148,5,2,0:0:0:0:
208,124,152296,2,0,P|248:72|360:148,1,191.999994140625,2|10,0:0|0:0,0:0:0:0:
268,296,152742,2,0,L|152:248,1,95.9999970703126,2|0,0:0|0:0,0:0:0:0:
92,144,153039,1,2,0:0:0:0:
232,116,153187,2,0,L|320:152,2,95.9999970703126,10|2|0,0:0|0:0|0:0,0:0:0:0:
80,144,153633,1,2,0:0:0:0:
140,284,153781,1,10,0:0:0:0:
256,184,153930,1,0,0:0:0:0:
332,316,154079,2,0,L|488:184,1,191.999994140625,2|10,0:0|0:0,0:0:0:0:
472,152,154450,37,0,0:0:0:0:
452,120,154524,1,2,0:0:0:0:
420,100,154598,1,0,0:0:0:0:
384,104,154673,1,2,0:0:0:0:
256,184,154821,1,0,0:0:0:0:
332,316,154970,1,10,0:0:0:0:
256,184,155118,2,0,P|152:156|120:228,1,191.999994140625,2|2,0:0|0:0,0:0:0:0:
236,312,155564,1,10,0:0:0:0:
348,228,155712,2,0,L|384:128,1,95.9999970703126,2|0,0:0|0:0,0:0:0:0:
300,40,156009,1,2,0:0:0:0:
180,72,156158,2,0,L|104:272,1,191.999994140625,10|2,0:0|0:0,0:0:0:0:
236,228,156603,5,2,0:0:0:0:
336,296,156752,1,8,0:0:0:0:
400,200,156900,1,2,0:0:0:0:
380,168,156975,1,0,0:0:0:0:
348,148,157049,2,0,P|280:144|248:160,1,95.9999970703126,2|0,0:0|0:0,0:0:0:0:
120,320,157346,1,10,0:0:0:0:
314,225,157494,2,0,P|304:196|255:154,1,95.9999970703126,2|0,0:0|0:0,0:0:0:0:
136,144,157791,2,0,L|76:228,1,95.9999970703126,2|8,0:0|0:0,0:0:0:0:
36,328,158088,2,0,P|80:248|188:268,1,191.999994140625,2|2,0:0|0:0,0:0:0:0:
292,316,158534,38,0,L|380:248,1,95.9999970703126,10|0,0:0|0:0,0:0:0:0:
386,241,158757,1,0,0:0:0:0:
405,226,158831,1,2,0:0:0:0:
408,96,158980,1,0,0:0:0:0:
260,80,159128,5,10,0:0:0:0:
232,92,159202,1,0,0:0:0:0:
204,96,159277,1,2,0:0:0:0:
176,92,159351,1,0,0:0:0:0:
148,80,159425,2,0,L|172:184,1,95.9999970703126,2|0,0:0|0:0,0:0:0:0:
272,248,159722,1,10,0:0:0:0:
184,336,159871,2,0,P|292:268|368:268,1,191.999994140625,2|2,0:0|0:0,0:0:0:0:
480,320,160316,2,0,L|440:216,1,95.9999970703126,10|0,0:0|0:0,0:0:0:0:
220,208,160613,2,0,L|324:168,1,95.9999970703126,2|0,0:0|0:0,0:0:0:0:
452,52,160910,2,0,L|364:232,1,191.999994140625,10|2,0:0|0:0,0:0:0:0:
288,320,161356,1,0,0:0:0:0:
180,284,161504,37,10,0:0:0:0:
144,316,161579,1,0,0:0:0:0:
96,300,161653,1,0,0:0:0:0:
72,208,161801,2,0,L|36:68,1,143.999995605469,2|0,0:0|0:0,0:0:0:0:
28,36,162098,1,8,0:0:0:0:
176,100,162247,2,0,P|260:128|376:96,1,191.999994140625,2|2,0:0|0:0,0:0:0:0:
268,24,162692,1,8,0:0:0:0:
328,160,162841,2,0,L|256:268,1,95.9999970703126,2|0,0:0|0:0,0:0:0:0:
212,324,163132,1,2,0:0:0:0:
128,236,163274,1,10,0:0:0:0:
44,336,163415,5,10,0:0:0:0:
72,304,163486,1,0,0:0:0:0:
100,272,163557,1,10,0:0:0:0:
184,168,163698,37,8,0:0:0:0:
184,168,163769,1,0,0:0:0:0:
184,168,163840,1,0,0:0:0:0:
184,168,163910,1,0,0:0:0:0:
184,168,163981,1,8,0:0:0:0:
184,168,164052,1,0,0:0:0:0:
184,168,164123,2,0,P|252:200|288:196,1,95.9999970703126,2|2,0:0|0:0,0:0:0:0:
400,160,164426,5,8,0:0:0:0:
436,32,164577,2,0,L|312:164,1,143.999995605469,2|0,0:0|0:0,0:0:0:0:
316,160,164880,1,2,0:0:0:0:
236,252,165032,1,10,0:0:0:0:
248,108,165183,1,0,0:0:0:0:
152,216,165335,1,2,0:0:0:0:
272,296,165486,1,0,0:0:0:0:
388,212,165638,2,0,P|340:180|208:244,1,191.999994140625,10|2,0:0|0:0,0:0:0:0:
148,364,166092,1,2,0:0:0:0:
308,280,166244,37,8,0:0:0:0:
308,280,166319,1,0,0:0:0:0:
308,280,166395,1,2,0:0:0:0:
228,164,166547,2,0,L|112:164,1,95.9999970703126,2|0,0:0|0:0,0:0:0:0:
308,280,166850,1,10,0:0:0:0:
380,92,167001,2,0,L|504:92,1,95.9999970703126,2|0,0:0|0:0,0:0:0:0:
308,280,167304,1,2,0:0:0:0:
192,96,167456,1,8,0:0:0:0:
36,244,167607,1,2,0:0:0:0:
124,320,167741,1,0,0:0:0:0:
156,320,167815,1,0,0:0:0:0:
184,304,167889,1,0,0:0:0:0:
288,224,168038,6,0,L|348:171,1,80,6|0,0:2|0:0,0:0:0:0:
304,8,168335,2,0,L|243:60,1,80,6|0,0:2|0:0,0:0:0:0:
264,248,168632,1,10,0:0:0:0:
376,148,168780,1,0,0:0:0:0:
221,187,168929,37,2,0:0:0:0:
209,198,169003,1,0,0:0:0:0:
199,210,169077,1,0,0:0:0:0:
193,225,169151,1,0,0:0:0:0:
189,240,169226,1,2,0:0:0:0:
187,255,169300,1,0,0:0:0:0:
190,270,169374,1,2,0:0:0:0:
195,285,169448,1,0,0:0:0:0:
205,297,169523,5,0,0:0:0:0:
216,308,169597,1,0,0:0:0:0:
229,316,169671,1,2,0:0:0:0:
243,322,169745,1,0,0:0:0:0:
258,325,169820,1,2,0:0:0:0:
273,324,169894,1,0,0:0:0:0:
289,320,169968,1,0,0:0:0:0:
305,312,170042,1,2,0:0:0:0:
317,304,170117,1,10,0:0:0:0:
439,69,170711,5,2,0:0:0:0:
439,69,171313,22,0,L|376:120,1,80,6|0,1:1|0:0,0:0:0:0:
144,192,171610,2,0,L|205:140,1,80,10|2,0:0|0:0,0:0:0:0:
456,108,171907,2,0,L|354:144,1,80,8|2,0:0|0:0,0:0:0:0:
124,156,172204,2,0,L|199:127,1,80,8|2,0:0|0:0,0:0:0:0:
308,88,172501,1,8,0:0:0:0:
384,172,172649,2,0,P|344:200|300:200,2,80,2|8|2,0:0|0:0|0:0,0:0:0:0:
496,144,173095,5,8,0:0:0:0:
408,256,173243,1,2,0:0:0:0:
264,192,173392,2,0,L|192:152,1,80,10|2,0:0|0:0,0:0:0:0:
348,128,173689,1,8,0:0:0:0:
420,264,173837,1,2,0:0:0:0:
252,184,173986,2,0,L|180:144,1,80,8|2,0:0|0:0,0:0:0:0:
80,88,174283,2,0,P|64:124|84:188,1,80,8|2,0:0|0:0,0:0:0:0:
128,252,174580,1,8,0:0:0:0:
232,276,174728,38,0,L|308:240,1,80,2|8,0:0|0:0,0:0:0:0:
396,188,175025,1,2,0:0:0:0:
432,92,175174,2,0,P|392:84|340:104,1,80,8|2,0:0|0:0,0:0:0:0:
268,152,175471,2,0,L|216:80,2,80,8|2|10,0:0|0:0|0:0,0:0:0:0:
268,152,176065,6,0,L|180:288,1,160,10|10,0:0|0:0,0:0:0:0:
284,268,176511,2,0,L|368:248,1,80,2|8,0:0|0:0,0:0:0:0:
152,188,176808,2,0,L|133:110,1,80,2|8,0:0|0:0,0:0:0:0:
344,60,177105,2,0,L|284:136,1,80,2|8,0:0|0:0,0:0:0:0:
232,208,177402,1,2,0:0:0:0:
268,304,177550,1,10,0:0:0:0:
124,232,177699,1,2,0:0:0:0:
124,232,177847,2,0,L|68:164,1,80,8|2,0:0|0:0,0:0:0:0:
8,88,178144,1,10,0:0:0:0:
148,96,178293,1,2,0:0:0:0:
124,232,178441,5,8,0:0:0:0:
300,92,178738,2,0,L|432:200,1,160
436,292,179184,1,0,0:0:0:0:
212,92,179481,2,0,L|80:200,1,160
256,188,180075,1,0,0:0:0:0:
192,280,180372,21,0,0:0:0:0:
256,332,180520,5,0,0:0:0:0:
320,280,180669,37,0,0:0:0:0:
