osu file format v12

[General]
AudioFilename: 04 EGOiSTiC SHOOTER.mp3
AudioLeadIn: 2000
PreviewTime: 144529
Countdown: 0
SampleSet: None
StackLeniency: 0.7
Mode: 0
LetterboxInBreaks: 1
WidescreenStoryboard: 1

[Editor]
DistanceSpacing: 0.7
BeatDivisor: 4
GridSize: 4
TimelineZoom: 2.3

[Metadata]
Title:EGOiSTiC SHOOTER
TitleUnicode:EGOiSTiC SHOOTER
Artist:LiSA
ArtistUnicode:LiSA
Creator:eLy
Version:vs 8r0cc01y
Source:
Tags:lisa shoot egoistic ely delis caren val0108 0108
BeatmapID:403447
BeatmapSetID:102293

[Difficulty]
HPDrainRate:4
CircleSize:4
OverallDifficulty:7
ApproachRate:9
SliderMultiplier:1.44
SliderTickRate:1

[Events]
//Background and Video events
0,0,"BG.jpg",0,0
//Break Periods
//Storyboard Layer 0 (Background)
//Storyboard Layer 1 (Fail)
//Storyboard Layer 2 (Pass)
//Storyboard Layer 3 (Foreground)
//Storyboard Sound Samples
//Background Colour Transformations
3,100,163,162,255

[TimingPoints]
248,297.029702970297,4,2,1,50,1,0
248,-100,4,2,1,35,0,0
5000,-100,4,1,1,35,0,0
9752,-100,4,1,1,43,0,0
14208,-100,4,1,1,85,0,0
14431,-100,4,2,1,40,0,0
14505,-100,4,1,1,50,0,0
14579,-100,4,2,1,50,0,0
14653,-100,4,1,1,50,0,0
14728,-100,4,2,1,50,0,0
14802,-100,4,1,2,75,0,0
14876,-100,4,2,1,50,0,0
14950,-100,4,1,1,70,0,0
15025,-100,4,2,1,50,0,0
15099,-100,4,1,2,70,0,0
15396,-100,4,1,2,60,0,0
18663,-100,4,1,2,90,0,0
18812,-100,4,1,2,70,0,0
22896,-100,4,2,2,50,0,0
22970,-100,4,1,2,70,0,0
23861,-100,4,1,2,60,0,0
24010,-100,4,1,2,70,0,0
33960,-50,4,1,2,60,0,0
38267,-50,4,1,2,90,0,0
38564,-50,4,1,2,65,0,0
39307,-83.3333333333333,4,1,2,70,0,0
42946,-83.3333333333333,4,2,1,50,0,0
43020,-83.3333333333333,4,1,2,70,0,0
47475,-83.3333333333333,4,1,2,60,0,0
47772,-83.3333333333333,4,1,2,70,0,0
60693,-83.3333333333333,4,2,2,80,0,0
61955,-83.3333333333333,4,2,1,50,0,0
62030,148.514851485149,4,2,1,50,1,0
62030,-133.333333333333,4,1,2,75,0,1
63218,-133.333333333333,4,1,2,60,0,1
63812,-133.333333333333,4,1,2,75,0,1
68267,-117.647058823529,4,1,2,70,0,1
68564,-95.2380952380952,4,1,2,75,0,1
69158,-95.2380952380952,4,1,2,75,0,1
69827,-95.2380952380952,4,1,2,70,0,1
71497,-95.2380952380952,4,1,2,75,0,0
71534,-95.2380952380952,4,1,2,75,0,1
78069,-95.2380952380952,4,1,2,50,0,1
78663,-95.2380952380952,4,1,2,75,0,0
163016,142.857142857143,4,2,1,60,1,1
164158,148.514851485149,4,2,1,100,1,1
165372,148.514851485149,4,2,1,100,1,1
166581,148.514851485149,4,2,1,100,1,1
170161,148.514851485149,4,2,1,100,1,1

[Colours]
Combo1 : 150,186,254
Combo2 : 245,245,245
Combo3 : 0,198,225

[HitObjects]
112,168,248,6,0,L|96:112,4,36
192,196,693,2,0,L|200:152,4,36
156,312,1139,1,2,0:0:0:0:
156,312,1213,1,2,0:0:0:0:
292,360,1436,6,0,L|344:344,4,36
416,364,1881,2,0,L|456:324,4,36
512,240,2327,1,2,0:0:0:0:
512,240,2401,1,2,0:0:0:0:
392,104,2624,6,0,L|444:108,4,36
280,132,3069,2,0,L|244:129,4,36,0|0|0|0|0,0:0|0:0|0:0|0:0|0:0,0:0:0:0:
316,24,3515,1,2,0:0:0:0:
316,24,3589,1,2,0:0:0:0:
120,64,3812,6,0,P|164:48|168:48,4,36
32,128,4257,2,0,P|32:112|40:88,4,36
40,244,4703,1,2,0:0:0:0:
40,244,4777,1,2,0:0:0:0:
16,352,5000,6,0,L|100:340,1,72
208,360,5297,2,0,L|279:349,1,72
312,344,5594,1,0,0:0:0:0:
392,368,5743,2,0,P|396:336|368:284,1,72
216,204,6040,2,0,P|212:236|240:288,1,72
384,224,6337,2,0,L|454:211,2,72
45,79,6931,6,0,L|116:92,2,72
128,280,7450,5,0,0:0:0:0:
128,280,7525,2,0,P|112:232|120:184,2,72
76,356,7970,2,0,B|112:364|112:364|160:352,1,72
40,288,8267,1,0,0:0:0:0:
208,312,8416,2,0,P|260:328|328:308,1,108
352,256,8713,2,0,P|380:288|380:336,1,72
408,200,9010,2,0,P|400:156|448:96,1,108
464,96,9307,1,0,0:0:0:0:
324,108,9455,2,0,B|276:116|276:116|192:80,1,108
192,52,9752,5,4,0:0:0:0:
240,200,9901,1,0,0:0:0:0:
80,140,10049,1,2,2:0:0:0:
240,200,10198,2,0,L|156:164,1,72
44,32,10495,2,0,L|110:60,1,72,0|2,0:0|2:0,0:0:0:0:
88,212,10792,2,0,L|79:140,1,72
248,271,11089,2,0,L|240:200,1,72,0|2,0:0|2:0,0:0:0:0:
388,120,11386,1,0,0:0:0:0:
388,120,11683,5,0,0:0:0:0:
248,272,11832,1,2,2:0:0:0:
388,120,11980,1,0,0:0:0:0:
388,120,12277,5,0,0:0:0:0:
248,272,12426,1,2,2:0:0:0:
388,120,12574,1,0,0:0:0:0:
248,272,12723,1,0,0:0:0:0:
160,268,12871,1,0,0:0:0:0:
72,264,13020,1,2,2:0:0:0:
248,184,13168,6,0,B|252:152|252:152|240:104,1,72
72,264,13465,2,0,B|68:296|68:296|80:344,1,72,0|2,0:0|2:0,0:0:0:0:
84,180,13762,2,0,L|-20:204,1,72,8|0,0:0|0:0,0:0:0:0:
216,112,14059,1,0,0:0:0:0:
68,104,14208,2,4,L|200:76,1,108,4|0,3:0|0:0,3:0:0:0:
216,112,14505,6,0,L|264:104,1,36
332,124,14653,2,0,L|380:116,1,36,0|0,0:0|0:0,0:0:0:0:
467,89,14802,2,0,L|476:124,1,36,8|0,0:0|0:0,0:0:0:0:
440,212,14950,2,0,L|448:246,1,36,0|0,0:0|0:0,0:0:0:0:
488,332,15099,2,0,P|444:360|368:348,1,108
317,353,15396,2,0,L|301:317,1,36,12|0,3:0|2:0,0:0:0:0:
212,256,15545,2,0,L|320:356,1,144
172,352,15990,2,0,L|116:344,1,36,8|0,0:0|2:0,0:0:0:0:
68,304,16139,2,0,L|12:296,1,36,0|0,0:0|0:0,0:0:0:0:
16,216,16287,2,0,P|-8:172|40:84,1,144,0|8,0:0|0:0,0:0:0:0:
132,52,16733,1,4,3:0:0:0:
112,160,16881,6,0,L|76:160,1,36,0|0,0:0|2:0,0:0:0:0:
224,132,17030,2,0,L|188:132,1,36,0|0,0:0|2:0,0:0:0:0:
336,104,17178,2,0,L|300:104,1,36,8|0,0:0|2:0,0:0:0:0:
448,76,17327,2,0,L|412:76,1,36,0|0,0:0|2:0,0:0:0:0:
408,160,17475,2,0,L|424:200,1,36,0|0,0:0|2:0,0:0:0:0:
362,242,17624,2,0,L|376:276,1,36,0|0,0:0|2:0,0:0:0:0:
308,332,17772,1,8,0:0:0:0:
308,332,17921,6,0,L|204:348,1,72
208,232,18218,1,4,2:0:0:0:
88,320,18366,1,8,0:0:0:0:
308,332,18515,1,0,0:0:0:0:
88,320,18663,2,0,P|74:286|104:276,1,72,4|0,3:0|0:0,0:0:0:0:
0,212,18960,5,8,0:0:0:0:
0,212,19035,1,0,0:0:0:0:
0,212,19109,1,0,0:0:0:0:
0,212,19183,1,0,0:0:0:0:
0,212,19257,6,0,L|16:168,1,36,0|0,0:0|2:0,0:0:0:0:
64,96,19406,2,0,L|80:52,1,36,0|0,0:0|2:0,0:0:0:0:
172,44,19554,2,0,P|192:37|220:44,1,36,8|0,0:0|2:0,0:0:0:0:
312,40,19703,2,0,P|332:48|352:76,1,36,0|0,0:0|2:0,0:0:0:0:
424,124,19851,2,0,P|468:128|508:112,1,72
452,40,20148,1,8,0:0:0:0:
328,144,20297,2,0,P|336:188|368:224,1,72,4|0,3:0|0:0,0:0:0:0:
452,40,20594,1,4,2:0:0:0:
496,208,20743,1,8,0:0:0:0:
328,144,20891,1,4,2:0:0:0:
496,208,21040,5,0,0:0:0:0:
496,208,21114,1,0,0:0:0:0:
496,208,21188,1,0,0:0:0:0:
408,320,21337,2,0,L|396:244,1,72,8|0,0:0|0:0,0:0:0:0:
328,28,21634,6,0,L|316:84,1,36,0|0,0:0|2:0,0:0:0:0:
236,56,21782,2,0,L|228:91,1,36,0|0,0:0|2:0,0:0:0:0:
152,80,21931,2,0,L|140:136,1,36,8|0,0:0|2:0,0:0:0:0:
60,108,22079,2,0,L|52:143,1,36,0|0,0:0|2:0,0:0:0:0:
116,231,22228,2,0,L|124:196,1,36,0|0,0:0|2:0,0:0:0:0:
200,215,22376,2,0,L|208:180,1,36,0|0,0:0|2:0,0:0:0:0:
288,195,22525,2,0,L|296:160,1,36,8|0,0:0|2:0,0:0:0:0:
392,116,22673,2,0,L|364:248,1,108,4|0,3:0|0:0,0:0:0:0:
388,272,22970,1,0,0:0:0:0:
320,64,23119,1,4,2:0:0:0:
504,172,23267,1,0,0:0:0:0:
288,196,23416,1,0,0:0:0:0:
320,344,23564,1,0,0:0:0:0:
320,344,23639,1,0,0:0:0:0:
320,344,23713,2,0,L|220:324,1,72,8|8,0:0|3:0,0:0:0:0:
96,348,24010,6,0,L|144:340,1,36,4|0,2:0|2:0,0:0:0:0:
80,272,24158,2,0,L|140:264,1,36,0|0,0:0|2:0,0:0:0:0:
64,196,24307,2,0,L|112:188,1,36,8|0,0:0|2:0,0:0:0:0:
48,120,24455,2,0,L|96:112,1,36,0|0,0:0|2:0,0:0:0:0:
196,64,24604,2,0,P|252:60|288:148,1,144,0|8,0:0|0:0,0:0:0:0:
416,92,25049,1,0,0:0:0:0:
196,64,25198,1,0,0:0:0:0:
416,92,25347,1,4,2:0:0:0:
316,12,25495,1,8,0:0:0:0:
344,216,25644,1,4,2:0:0:0:
344,216,25792,6,0,L|432:208,1,72,0|8,0:0|3:0,0:0:0:0:
240,308,26089,2,0,L|328:300,1,72,8|0,0:0|0:0,0:0:0:0:
120,264,26386,6,0,L|84:300,1,36,4|0,2:0|2:0,0:0:0:0:
112,184,26535,2,0,L|68:192,1,36,0|0,0:0|2:0,0:0:0:0:
124,104,26683,2,0,L|84:100,1,36,8|0,0:0|2:0,0:0:0:0:
176,40,26832,2,0,L|128:20,1,36,0|0,0:0|2:0,0:0:0:0:
336,40,26980,6,0,L|369:26,1,36,0|0,0:0|2:0,0:0:0:0:
388,104,27129,2,0,L|423:100,1,36,0|0,0:0|2:0,0:0:0:0:
400,184,27277,2,0,L|435:190,1,36,8|0,0:0|2:0,0:0:0:0:
392,264,27426,2,0,L|417:289,1,36,0|0,0:0|2:0,0:0:0:0:
256,92,27574,5,0,0:0:0:0:
256,234,27723,2,0,P|264:269|256:304,1,72,0|8,0:0|0:0,0:0:0:0:
256,12,28020,1,8,0:0:0:0:
256,12,28094,1,8,0:0:0:0:
256,12,28168,1,8,0:0:0:0:
192,268,28317,1,4,2:0:0:0:
256,12,28465,1,8,0:0:0:0:
320,268,28614,1,4,3:0:0:0:
168,84,28762,6,0,L|96:88,1,72,4|0,0:0|0:0,0:0:0:0:
416,88,29059,2,0,L|344:84,1,72,8|0,0:0|0:0,0:0:0:0:
120,278,29356,2,0,L|192:268,1,72
320,268,29579,1,0,0:0:0:0:
320,268,29653,2,0,L|380:280,1,36,0|0,0:0|2:0,0:0:0:0:
400,340,29802,2,0,P|432:288|408:220,1,108,0|0,0:0|0:0,0:0:0:0:
396,168,30099,1,0,0:0:0:0:
500,328,30248,1,8,0:0:0:0:
480,152,30396,1,0,0:0:0:0:
320,268,30545,1,0,0:0:0:0:
312,108,30693,5,8,0:0:0:0:
312,108,30767,1,8,0:0:0:0:
312,108,30842,2,0,L|312:144,1,36,8|0,0:0|2:0,0:0:0:0:
232,80,30990,2,0,L|232:116,1,36,0|0,0:0|2:0,0:0:0:0:
156,52,31139,6,0,L|156:88,1,36,0|0,0:0|2:0,0:0:0:0:
96,132,31287,2,0,L|96:168,1,36,0|0,0:0|2:0,0:0:0:0:
32,204,31436,2,0,L|32:240,1,36,8|0,0:0|2:0,0:0:0:0:
0,336,31584,6,0,L|44:328,1,36,0|0,0:0|2:0,0:0:0:0:
124,328,31733,2,0,L|168:320,1,36,0|0,0:0|2:0,0:0:0:0:
248,320,31881,2,0,L|292:312,1,36,0|0,0:0|2:0,0:0:0:0:
392,216,32030,6,0,P|390:198|385:181,1,36,8|0,0:0|0:0,0:0:0:0:
272,204,32178,2,0,P|288:211|305:215,1,36
336,104,32327,2,0,P|321:114|309:127,1,36
153,202,32475,2,0,P|171:199|188:192,1,36
219,61,32624,2,0,P|225:78|228:96,1,36,8|0,0:0|0:0,0:0:0:0:
224,306,32772,2,0,P|218:289|216:272,1,36
108,76,32921,5,0,0:0:0:0:
108,76,32995,1,0,0:0:0:0:
108,76,33069,1,0,0:0:0:0:
108,76,33144,1,0,0:0:0:0:
108,76,33218,1,8,0:0:0:0:
108,76,33292,1,0,0:0:0:0:
108,76,33366,1,8,0:0:0:0:
108,76,33441,1,8,0:0:0:0:
108,76,33515,5,4,2:0:0:0:
108,308,33663,1,0,0:0:0:0:
48,180,33812,1,8,0:0:0:0:
56,300,33960,2,0,B|100:276|100:276|108:308|108:308|132:292|132:292|168:308|168:308|204:292|204:292|232:308|288:316|324:284,1,288
464,120,34406,1,8,0:0:0:0:
468,168,34481,1,0,0:0:0:0:
472,216,34555,1,0,0:0:0:0:
476,264,34629,1,0,0:0:0:0:
480,312,34703,1,0,0:0:0:0:
344,216,34851,5,0,0:0:0:0:
344,216,34926,1,0,0:0:0:0:
344,216,35000,1,8,0:0:0:0:
252,296,35148,1,0,0:0:0:0:
232,128,35297,1,0,0:0:0:0:
232,128,35371,1,0,0:0:0:0:
232,128,35446,1,0,0:0:0:0:
252,296,35594,1,8,0:0:0:0:
104,44,35743,1,0,0:0:0:0:
104,44,35817,1,0,0:0:0:0:
104,44,35891,5,0,0:0:0:0:
68,68,35965,1,0,0:0:0:0:
52,108,36040,1,0,0:0:0:0:
52,152,36114,1,0,0:0:0:0:
68,192,36188,1,8,0:0:0:0:
96,220,36262,1,0,0:0:0:0:
124,252,36337,1,0,0:0:0:0:
132,296,36411,1,0,0:0:0:0:
108,332,36485,5,0,0:0:0:0:
68,344,36559,1,0,0:0:0:0:
112,348,36634,1,0,0:0:0:0:
156,356,36708,1,0,0:0:0:0:
200,356,36782,1,8,0:0:0:0:
240,344,36856,1,0,0:0:0:0:
284,336,36931,1,0,0:0:0:0:
328,340,37005,1,0,0:0:0:0:
372,348,37079,5,0,0:0:0:0:
416,352,37153,1,0,0:0:0:0:
452,328,37228,1,0,0:0:0:0:
472,288,37302,1,0,0:0:0:0:
476,244,37376,1,8,0:0:0:0:
476,200,37450,1,0,0:0:0:0:
460,160,37525,1,0,0:0:0:0:
456,116,37599,1,0,0:0:0:0:
464,72,37673,5,0,0:0:0:0:
492,40,37748,1,0,0:0:0:0:
444,48,37822,1,0,0:0:0:0:
396,60,37896,1,0,0:0:0:0:
344,52,37970,1,8,0:0:0:0:
296,36,38045,1,0,0:0:0:0:
240,56,38119,1,0,0:0:0:0:
224,112,38193,1,0,0:0:0:0:
252,164,38267,5,4,0:0:0:0:
512,352,38564,1,8,0:0:0:0:
512,352,38861,1,0,0:0:0:0:
512,352,39158,1,8,0:0:0:0:
408,268,39307,2,0,P|372:292|288:204,1,172.799994726563
244,46,39752,2,0,L|224:84,1,43.1999986816407,8|0,0:0|2:0,0:0:0:0:
192,200,39901,2,0,L|216:164,1,43.1999986816407
84,136,40049,2,0,P|124:84|140:144,1,129.599996044922
72,132,40347,6,0,B|77:151|77:151|76:160|76:160|80:164|80:164|80:172|80:172|84:180|84:180|80:188|80:188|84:200|84:200|80:212|80:212|88:220|88:220|88:236|88:236|84:256,1,129.599996044922,8|0,3:0|0:0,0:0:0:0:
59,323,40644,6,0,P|37:313|25:300,1,43.1999986816407,4|0,2:0|2:0,0:0:0:0:
160,256,40792,2,0,P|164:228|180:200,1,43.1999986816407,0|0,0:0|2:0,0:0:0:0:
272,232,40941,2,0,P|276:208|264:164,1,43.1999986816407,8|0,0:0|2:0,0:0:0:0:
368,232,41089,2,0,P|392:228|424:236,1,43.1999986816407,0|0,0:0|2:0,0:0:0:0:
384,154,41238,2,0,L|392:112,1,43.1999986816407,0|0,0:0|2:0,0:0:0:0:
316,112,41386,2,0,L|323:69,1,43.1999986816407,0|0,0:0|2:0,0:0:0:0:
244,76,41535,2,0,L|251:33,1,43.1999986816407,8|0,0:0|2:0,0:0:0:0:
80,60,41683,6,0,L|256:32,1,172.799994726563
48,148,42129,2,0,L|160:132,1,86.3999973632813,8|0,0:0|0:0,0:0:0:0:
188,332,42426,1,0,0:0:0:0:
188,332,42500,1,0,0:0:0:0:
188,332,42574,1,0,0:0:0:0:
188,332,42648,1,0,0:0:0:0:
188,332,42723,2,0,P|132:304|188:252,1,129.599996044922,8|0,0:0|0:0,0:0:0:0:
180,208,43020,6,0,P|224:220|276:196,1,86.3999973632813,4|0,0:0|0:0,0:0:0:0:
372,136,43243,1,0,0:0:0:0:
372,136,43317,2,0,L|386:246,1,86.3999973632813,8|0,0:0|0:0,0:0:0:0:
220,144,43614,1,0,0:0:0:0:
336,336,43762,1,0,0:0:0:0:
304,140,43911,1,8,0:0:0:0:
188,332,44059,1,0,0:0:0:0:
64,384,44208,6,0,P|40:320|88:264,1,129.599996044922
80,196,44505,2,0,B|100:156|100:156|84:88,1,86.3999973632813,8|0,0:0|0:0,0:0:0:0:
116,332,44802,1,0,0:0:0:0:
24,148,44950,1,0,0:0:0:0:
24,148,45025,1,0,0:0:0:0:
24,148,45099,2,0,L|12:92,1,43.1999986816407,8|0,0:0|0:0,0:0:0:0:
76,68,45248,2,0,L|64:12,1,43.1999986816407
148,24,45396,6,0,P|172:20|208:28,1,43.1999986816407,4|0,2:0|2:0,0:0:0:0:
264,44,45545,2,0,P|288:52|324:48,1,43.1999986816407,0|0,0:0|2:0,0:0:0:0:
376,20,45693,2,0,P|416:24|444:32,1,43.1999986816407,8|0,0:0|2:0,0:0:0:0:
468,84,45842,2,0,P|489:87|510:87,1,43.1999986816407,0|0,0:0|2:0,0:0:0:0:
440,160,45990,2,0,P|461:163|482:163,1,43.1999986816407,0|0,0:0|2:0,0:0:0:0:
412,236,46139,2,0,P|433:239|454:239,1,43.1999986816407,0|0,0:0|2:0,0:0:0:0:
384,312,46287,2,0,P|405:315|426:315,1,43.1999986816407,8|0,0:0|2:0,0:0:0:0:
284,384,46436,6,0,P|220:396|172:344,1,129.599996044922,4|0,0:0|0:0,0:0:0:0:
176,304,46733,1,0,0:0:0:0:
360,384,46881,1,8,0:0:0:0:
132,332,47030,1,0,0:0:0:0:
384,312,47178,1,0,0:0:0:0:
132,280,47327,1,0,0:0:0:0:
132,280,47401,1,0,0:0:0:0:
132,280,47475,2,0,P|116:232|184:232,1,129.599996044922,8|0,3:0|0:0,0:0:0:0:
176,179,47772,6,0,L|177:222,1,43.1999986816407,0|0,0:0|2:0,0:0:0:0:
104,152,47921,2,0,L|105:195,1,43.1999986816407,0|0,0:0|2:0,0:0:0:0:
28,116,48069,2,0,L|36:260,1,129.599996044922,8|0,0:0|0:0,0:0:0:0:
0,272,48366,1,0,0:0:0:0:
176,180,48515,1,0,0:0:0:0:
0,272,48663,1,8,0:0:0:0:
208,336,48812,2,0,P|232:280|188:204,1,129.599996044922,4|0,2:0|2:0,0:0:0:0:
176,180,49109,2,0,L|240:188,1,43.1999986816407,0|0,0:0|2:0,0:0:0:0:
312,236,49257,2,0,L|376:244,1,43.1999986816407,8|0,0:0|2:0,0:0:0:0:
452,220,49406,2,0,L|516:228,1,43.1999986816407,0|0,0:0|2:0,0:0:0:0:
512,176,49554,6,0,P|456:192|396:136,1,129.599996044922,0|0,0:0|2:0,0:0:0:0:
332,104,49851,2,0,P|392:119|442:80,1,129.599996044922,8|0,0:0|2:0,0:0:0:0:
442,79,50148,1,4,3:0:0:0:
408,288,50297,1,0,0:0:0:0:
408,288,50446,1,8,0:0:0:0:
442,79,50594,5,4,3:0:0:0:
496,264,50743,1,0,0:0:0:0:
332,104,50891,1,0,0:0:0:0:
496,264,51040,5,8,0:0:0:0:
320,224,51188,1,0,0:0:0:0:
442,79,51337,1,0,0:0:0:0:
328,336,51485,5,8,0:0:0:0:
328,336,51559,1,8,0:0:0:0:
328,336,51634,1,8,0:0:0:0:
280,152,51782,5,8,0:0:0:0:
280,152,51856,1,8,0:0:0:0:
280,152,51931,1,8,0:0:0:0:
232,252,52079,1,0,0:0:0:0:
252,8,52228,1,8,0:0:0:0:
280,152,52376,1,0,0:0:0:0:
44,56,52525,1,4,0:0:0:0:
44,56,52822,5,8,0:0:0:0:
312,40,53119,1,0,0:0:0:0:
44,56,53416,1,8,0:0:0:0:
60,288,53713,5,0,0:0:0:0:
44,56,54010,1,8,0:0:0:0:
60,288,54158,1,0,0:0:0:0:
44,56,54455,1,0,0:0:0:0:
60,288,54604,1,8,0:0:0:0:
332,268,54752,1,0,0:0:0:0:
60,288,54901,5,0,0:0:0:0:
312,40,55198,1,8,0:0:0:0:
60,288,55495,1,0,0:0:0:0:
312,40,55792,1,8,0:0:0:0:
44,56,56089,5,0,0:0:0:0:
332,272,56386,1,8,0:0:0:0:
60,288,56535,1,0,0:0:0:0:
312,40,56832,1,0,0:0:0:0:
60,288,56980,1,8,0:0:0:0:
332,272,57129,1,0,0:0:0:0:
168,324,57277,6,0,L|188:176,1,129.599996044922,4|0,0:0|2:0,0:0:0:0:
184,196,57574,2,0,P|216:164|208:104,1,86.3999973632813,8|0,0:0|0:0,0:0:0:0:
256,248,57871,1,0,0:0:0:0:
192,28,58020,1,0,0:0:0:0:
112,128,58168,1,8,0:0:0:0:
312,40,58317,1,0,0:0:0:0:
312,40,58391,1,0,0:0:0:0:
312,40,58465,2,0,L|392:80,1,86.3999973632813
496,208,58762,2,0,L|504:116,1,86.3999973632813,8|0,0:0|0:0,0:0:0:0:
256,248,59059,1,0,0:0:0:0:
496,208,59208,1,0,0:0:0:0:
256,248,59356,1,8,0:0:0:0:
16,208,59505,1,0,0:0:0:0:
256,332,59653,5,0,0:0:0:0:
256,108,59802,1,0,0:0:0:0:
256,108,59876,1,0,0:0:0:0:
256,108,59950,1,8,0:0:0:0:
360,320,60099,5,0,0:0:0:0:
124,124,60247,1,0,0:0:0:0:
152,320,60396,1,0,0:0:0:0:
388,124,60544,1,8,0:0:0:0:
152,320,60693,1,2,2:0:0:0:
308,352,61436,6,0,B|296:328|296:328|304:308|304:308|284:300|284:300|300:284|300:284|288:268|288:268|256:260|256:260|284:240|264:220|264:220|268:200|268:200|252:188|252:188|267:150|232:116,1,302.399990771485
240,124,62030,6,0,L|312:136,1,54.0000020599366,4|0,0:0|2:0,0:0:0:0:
420,204,62178,2,0,L|366:195,1,54.0000020599366,0|0,0:0|2:0,0:0:0:0:
314,57,62327,2,0,L|368:66,1,54.0000020599366,8|0,0:0|2:0,0:0:0:0:
512,172,62475,1,0,0:0:0:0:
512,172,62549,1,0,0:0:0:0:
512,172,62624,1,0,0:0:0:0:
314,57,62772,5,2,0:0:0:0:
400,288,62921,1,8,0:0:0:0:
314,58,63069,1,6,1:0:0:0:
272,236,63218,1,0,0:0:0:0:
272,236,63292,1,0,0:0:0:0:
272,236,63366,2,0,L|200:216,1,54.0000020599366,0|0,0:0|2:0,0:0:0:0:
52,176,63515,1,8,0:0:0:0:
52,176,63589,1,0,0:0:0:0:
52,176,63663,2,0,L|124:156,1,54.0000020599366,0|0,0:0|2:0,0:0:0:0:
314,58,63812,6,0,L|321:111,1,54.0000020599366,4|0,0:0|2:0,0:0:0:0:
260,160,63960,2,0,L|268:214,1,54.0000020599366,2|0,0:0|2:0,0:0:0:0:
256,324,64109,2,0,L|188:308,1,54.0000020599366,0|0,0:0|2:0,0:0:0:0:
136,224,64257,2,0,L|188:236,1,54.0000020599366,2|0,0:0|2:0,0:0:0:0:
352,336,64406,6,0,P|396:340|448:244,1,162.00000617981,4|0,2:0|2:0,0:0:0:0:
492,184,64703,2,0,P|456:168|456:92,1,108.000004119873,8|0,0:0|0:0,0:0:0:0:
380,268,65000,1,4,2:0:0:0:
444,24,65148,1,8,3:0:0:0:
380,268,65297,1,8,0:0:0:0:
324,48,65445,2,2,P|276:24|172:68,1,162.00000617981,2|2,0:0|0:0,0:0:0:0:
180,60,65742,1,0,0:0:0:0:
444,24,65891,1,8,0:0:0:0:
180,60,66039,1,0,0:0:0:0:
388,176,66188,5,0,0:0:0:0:
392,180,66262,1,0,0:0:0:0:
396,184,66336,1,0,0:0:0:0:
400,188,66411,1,0,0:0:0:0:
404,192,66485,2,0,L|468:184,1,54.0000020599366,12|0,0:0|2:0,0:0:0:0:
512,272,66633,2,0,L|458:265,1,54.0000020599366,8|0,0:0|2:0,0:0:0:0:
288,120,66782,6,0,L|308:169,1,54.0000020599366,4|0,2:0|2:0,0:0:0:0:
324,296,66930,2,0,L|303:246,1,54.0000020599366,0|0,0:0|2:0,0:0:0:0:
188,200,67079,2,0,L|248:201,1,54.0000020599366,8|0,0:0|2:0,0:0:0:0:
420,124,67228,2,2,P|400:148|284:108,1,162.00000617981,2|0,0:0|2:0,0:0:0:0:
308,76,67525,1,2,0:0:0:0:
240,296,67673,1,8,0:0:0:0:
308,76,67822,1,2,0:0:0:0:
176,248,67970,6,0,P|124:260|60:168,1,162.00000617981
64,100,68267,2,0,B|120:112|120:112|244:56,1,183.600003501892,8|0,0:0|0:0,0:0:0:0:
324,60,68564,2,2,B|340:12|416:0|464:0|504:92|456:56|504:156|436:160|416:160,1,302.399990771485
108,36,69010,5,8,0:0:0:0:
256,184,69158,2,0,P|220:156|124:184,1,151.199995385742,4|0,2:0|2:0,0:0:0:0:
76,180,69381,2,0,L|32:328,1,151.199995385742,4|0,2:0|2:0,0:0:0:0:
148,384,69604,2,0,L|191:239,1,151.199995385742,4|0,2:0|2:0,0:0:0:0:
256,184,69827,1,0,0:0:0:0:
256,184,69901,2,0,P|288:152|260:52,1,151.199995385742,8|0,0:0|2:0,0:0:0:0:
512,160,70198,2,2,L|361:176,1,151.199995385742,2|8,0:0|0:0,0:0:0:0:
72,140,70495,2,2,L|222:123,1,151.199995385742,2|0,0:0|0:0,0:0:0:0:
464,86,70792,1,0,0:0:0:0:
316,300,70940,5,0,0:0:0:0:
316,300,71015,1,0,0:0:0:0:
316,300,71089,1,0,0:0:0:0:
316,300,71163,1,0,0:0:0:0:
316,300,71237,2,0,P|312:256|316:224,1,75.5999976928712,8|0,0:0|2:0,0:0:0:0:
240,116,71386,2,4,P|250:162|242:193,1,75.5999976928712,8|0,3:0|2:0,0:0:0:0:
240,264,71534,6,0,L|164:248,1,75.5999976928712,4|0,2:0|2:0,0:0:0:0:
104,142,71683,2,0,L|177:157,1,75.5999976928712,0|0,0:0|2:0,0:0:0:0:
314,129,71831,2,0,L|240:116,1,75.5999976928712,8|0,0:0|2:0,0:0:0:0:
132,60,71980,2,0,L|376:108,1,226.799993078614,0|0,0:0|2:0,0:0:0:0:
400,128,72277,1,2,0:0:0:0:
132,60,72426,1,8,0:0:0:0:
376,32,72574,1,2,0:0:0:0:
240,264,72723,5,0,0:0:0:0:
240,264,72871,1,0,0:0:0:0:
256,32,73020,1,12,0:0:0:0:
328,288,73168,1,0,0:0:0:0:
356,144,73317,2,0,L|506:159,1,151.199995385742,4|0,2:0|0:0,0:0:0:0:
156,240,73614,2,0,L|5:224,1,151.199995385742,12|4,2:0|3:0,3:0:0:0:
248,356,73911,6,0,P|224:300|280:232,1,151.199995385742,0|0,0:0|2:0,0:0:0:0:
280,156,74133,2,0,L|384:140,1,75.5999976928712,0|8,0:0|0:0,0:0:0:0:
124,140,74356,2,0,L|284:116,1,151.199995385742
188,0,74653,1,8,0:0:0:0:
328,288,74802,1,8,0:0:0:0:
480,76,74950,6,2,P|488:132|356:144,1,226.799993078614,2|0,0:0|0:0,0:0:0:0:
340,60,75247,1,2,0:0:0:0:
456,272,75396,1,8,0:0:0:0:
79,148,75544,1,2,0:0:0:0:
244,319,75693,1,0,0:0:0:0:
263,84,75841,1,0,0:0:0:0:
351,296,75990,1,8,0:0:0:0:
167,116,76138,1,8,3:0:0:0:
256,196,76287,5,0,0:0:0:0:
136,340,76435,5,0,0:0:0:0:
152,304,76510,1,0,0:0:0:0:
156,268,76584,1,8,0:0:0:0:
152,232,76658,1,0,0:0:0:0:
136,196,76732,1,0,0:0:0:0:
108,168,76807,1,0,0:0:0:0:
84,136,76881,1,0,0:0:0:0:
76,100,76955,1,0,0:0:0:0:
84,64,77030,5,0,0:0:0:0:
116,32,77104,1,0,0:0:0:0:
160,24,77178,1,8,0:0:0:0:
204,32,77252,1,0,0:0:0:0:
252,52,77327,1,8,0:0:0:0:
328,64,77401,1,8,0:0:0:0:
412,40,77475,1,12,0:0:0:0:
242,309,78069,6,0,B|229:305|229:305|229:310|229:310|222:300|222:300|213:298|213:298|217:302|217:302|206:297|206:297|207:289|207:289|195:286|195:286|199:283|199:283|190:276|190:276|192:269|192:269|182:267|182:267|188:259|188:259|181:260|181:260|185:250|185:250|182:249|182:249|178:238|178:238|183:238|183:238|178:227|178:227|183:223|183:223|181:214|181:214|188:212|188:212|185:207|185:207|192:201|192:201|192:192|192:192|200:191|200:191|199:182|199:182|207:181|207:181|206:172|206:172|215:171|215:171|218:164|218:164|224:170|224:170|228:159|228:159|236:164|236:164|242:156|242:156|248:163|248:163|255:155|255:155|265:162|265:162|267:155|267:155|276:164|276:164|285:160|285:160|288:170|288:170|299:166|299:166|300:177|300:177|309:173|309:173|310:186|310:186|319:184|319:184|317:195|317:195|327:195|327:195|324:207|324:207|331:208|331:208|325:216|325:216|334:219|334:219|327:225|327:225|335:231|335:231|327:236|327:236|335:241|335:241|328:245|328:245|332:250|332:250|326:250|326:250|327:262|327:262|321:267|321:267|323:274|323:274|308:291,1,604.799981542969,0|4,0:0|2:0,0:0:0:0:
